VERSION	0.00.00	1.04.00
FES_MODE	0
BPM_DEF	150.000	150.000	150.000	150.000
MET_DEF	4	4
RESOLUTION	384
CLK_DEF	384
COMPATIBLE_CODE	MA2

BPM	0	0	150.000
MET	0	0	4	4

NMHLD	1	0	1	96
NMHLD	1	0	7	96
NMHLD	1	192	0	96
NMHLD	1	192	6	96
NMTAP	2	0	2
NMTAP	2	96	1
NMTAP	2	96	3
NMTAP	2	192	5
NMTAP	2	288	4
NMTAP	2	288	6
NMHLD	3	0	2	96
NMHLD	3	96	3	96
NMHLD	3	192	4	96
NMHLD	3	288	5	96
NMTAP	4	0	2
NMTAP	4	96	3
NMTAP	4	96	4
BRTAP	4	192	1
BRTAP	4	192	6
NMTAP	5	0	2
NMHLD	5	96	2	672
NMTAP	5	192	4
NMTAP	5	288	4
NMTAP	6	0	3
NMTAP	6	96	3
NMTAP	6	192	4
NMTAP	6	288	4
NMSTR	7	0	5
NMSCL	7	0	5	96	192	2
NMSTR	8	0	1
NMSCR	8	0	1	96	192	4
NMTAP	9	0	5
NMHLD	9	96	5	672
NMTAP	9	192	3
NMTAP	9	288	3
NMTAP	10	0	4
NMTAP	10	96	4
NMTAP	10	192	3
NMTAP	10	288	3
NMSTR	11	0	2
NMSI_	11	0	2	96	192	5
NMSTR	12	0	6
NMSUL	12	0	6	96	192	2
NMTAP	13	0	1
NMHLD	13	96	1	672
NMTAP	13	192	2
NMTAP	13	288	2
NMTAP	14	0	3
NMTAP	14	96	3
NMTAP	14	192	2
NMTAP	14	288	2
NMSTR	15	0	3
NMSCR	15	0	3	96	192	6
NMTAP	16	0	4
NMSTR	16	0	7
NMSCL	16	0	7	96	192	4
EXTAP	17	0	6
NMHLD	17	96	6	672
NMTAP	17	192	5
NMTAP	17	288	5
NMTAP	18	0	4
NMTAP	18	96	4
NMTAP	18	192	5
NMTAP	18	288	5
NMSTR	19	0	4
NMSUR	19	0	4	96	288	3
NMTAP	20	192	0
NMTAP	20	288	1
EXSTR	21	0	2
NMSCL	21	0	2	96	192	5
NMTAP	21	0	7
NMTAP	22	0	0
NMSTR	22	0	5
NMSCR	22	0	5	96	192	2
NMSTR	23	0	0
NMSI_	23	0	0	96	192	3
NMSTR	23	0	7
NMSI_	23	0	7	96	192	4
NMTAP	24	0	3
NMTAP	24	0	4
NMTAP	24	192	2
NMTAP	24	288	3
NMSTR	25	0	4
NMSLL	25	0	4	96	192	7
NMSTR	26	0	0
NMSLL	26	0	0	96	192	3
NMHLD	27	0	6	288
NMTTP	27	192	5	E	0	M1
NMTTP	27	288	3	E	0	M1
NMTTP	28	0	0	C	1	M1
NMTTP	28	0	1	B	0	M1
NMTTP	28	0	6	B	0	M1
NMTAP	29	0	2
NMTAP	29	96	2
NMTAP	29	96	3
NMTAP	29	192	5
NMTAP	29	288	4
NMTAP	29	288	5
NMTAP	30	0	2
NMTAP	30	48	2
NMTAP	30	96	4
NMTAP	30	192	5
NMTAP	30	240	5
NMTAP	30	288	3
NMTTP	31	0	2	B	0	M1
NMTTP	31	0	3	B	0	M1
NMTTP	31	96	0	B	0	M1
NMTTP	31	192	4	B	0	M1
NMTTP	31	192	5	B	0	M1
NMTTP	31	288	7	B	0	M1
NMTTP	32	0	1	B	0	M1
NMTTP	32	0	1	E	0	M1
NMTTP	32	96	3	B	0	M1
NMTTP	32	96	3	E	0	M1
NMTTP	32	192	5	B	0	M1
NMTTP	32	192	5	E	0	M1
NMTTP	32	288	7	B	0	M1
NMTTP	32	288	7	E	0	M1
NMTAP	33	0	2
NMTAP	33	96	1
NMTAP	33	96	3
NMTAP	33	192	5
NMTAP	33	288	4
NMTAP	33	288	6
NMTAP	34	0	2
NMTAP	34	48	2
NMTAP	34	96	3
NMTAP	34	192	5
NMTAP	34	240	5
NMTAP	34	288	4
NMTTP	35	0	3	B	0	M1
NMTTP	35	0	4	E	0	M1
NMTTP	35	96	1	B	0	M1
NMTTP	35	96	2	E	0	M1
NMTTP	35	192	0	E	0	M1
NMTTP	35	192	7	B	0	M1
NMTTP	35	288	5	B	0	M1
NMTTP	35	288	6	E	0	M1
NMTTP	36	0	3	B	0	M1
NMTTP	36	0	3	E	0	M1
NMTTP	36	96	1	B	0	M1
NMTTP	36	96	1	E	0	M1
NMTTP	36	192	7	B	0	M1
NMTTP	36	192	7	E	0	M1
NMTTP	36	288	5	B	0	M1
NMTTP	36	288	5	E	0	M1
NMTAP	37	0	1
NMTAP	37	0	3
NMTAP	37	96	2
NMTAP	37	192	4
NMTAP	37	192	6
NMTAP	37	288	5
NMTAP	38	0	2
NMTAP	38	48	2
NMTAP	38	96	4
NMTAP	38	192	5
NMTAP	38	240	5
NMTAP	38	288	3
NMTTP	39	0	6	B	0	M1
NMTTP	39	0	7	E	0	M1
NMTTP	39	96	0	B	0	M1
NMTTP	39	96	1	E	0	M1
NMTTP	39	192	2	B	0	M1
NMTTP	39	192	3	E	0	M1
NMTTP	39	288	4	B	0	M1
NMTTP	39	288	5	E	0	M1
NMTTP	40	0	6	B	0	M1
NMTTP	40	0	6	E	0	M1
NMTTP	40	96	2	B	0	M1
NMTTP	40	96	2	E	0	M1
NMTHO	40	192	0	96	C	0	M1
NMTAP	41	0	0
NMTAP	41	96	1
NMTAP	41	96	3
NMTAP	41	192	7
NMTAP	41	288	4
NMTAP	41	288	6
NMTAP	42	0	1
NMTAP	42	48	1
NMTAP	42	96	3
NMTAP	42	192	6
NMTAP	42	240	6
NMTAP	42	288	4
NMSTR	43	0	0
NMSUL	43	0	0	96	192	7
BRTAP	44	0	0
BRTAP	44	0	7
NMTAP	44	96	1
NMTAP	44	96	6
NMTAP	44	192	2
NMTAP	44	192	5
NMTAP	44	288	3
NMTAP	44	288	4
NMSTR	45	0	2
NMSUL	45	0	2	96	240	0
NMTAP	45	0	5
NMSTR	46	0	6
NMSLR	46	0	6	96	240	4
NMSTR	47	0	3
NMSCL	47	0	3	96	192	7
NMSUL	47	0	3	96	192	7
NMSTR	48	0	7
NMSCL	48	0	7	96	192	3
NMSUL	48	0	7	96	192	3
NMSTR	49	0	2
NMSI_	49	0	2	96	120	5
NMHLD	49	0	4	576
CNSI_	49	216	5	0	144	1
CNSI_	49	360	1	0	120	6
CNSI_	50	96	6	0	96	0
EXTAP	50	288	1
EXTAP	50	288	3
NMSTR	51	0	2
NMSCL	51	0	2	96	96	7
NMSTR	51	192	6
NMSCL	51	192	6	96	96	3
NMSTR	52	0	1
NMSCL	52	0	1	96	96	6
NMSTR	52	192	5
NMSCL	52	192	5	96	96	2
NMSTR	53	0	1
NMSLR	53	0	1	96	96	5
NMTAP	53	288	6
NMTAP	53	288	7
NMSTR	54	0	7
BRSCL	54	0	7	96	192	0
BRTAP	55	0	7
NMTAP	55	96	2
NMTAP	55	96	4
NMTAP	55	192	0
NMTAP	55	288	3
NMTAP	55	288	5
NMTAP	56	0	6
NMTAP	56	0	7
NMTAP	56	96	4
NMTAP	56	96	5
NMTAP	56	192	2
NMTAP	56	192	3
NMTAP	56	288	0
NMTAP	56	288	1
NMSTR	57	0	6
NMSI_	57	0	6	96	48	3
NMSTR	57	0	7
NMSI_	57	0	7	96	48	3
NMSTR	57	192	0
NMSI_	57	192	0	96	48	4
NMSTR	57	192	1
NMSI_	57	192	1	96	48	4
NMSTR	58	0	6
NMSI_	58	0	6	96	48	3
NMSTR	58	0	7
NMSI_	58	0	7	96	48	3
NMTAP	58	192	0
NMTAP	58	192	1
NMTAP	58	288	0
NMTAP	58	288	1
BRTAP	59	0	0
NMTAP	59	96	3
NMTAP	59	96	5
NMTAP	59	192	7
NMTAP	59	288	2
NMTAP	59	288	4
NMTAP	60	0	0
NMTAP	60	0	1
NMTAP	60	96	2
NMTAP	60	96	3
NMTAP	60	192	4
NMTAP	60	192	5
NMTAP	60	288	6
NMTAP	60	288	7
NMSTR	61	0	0
NMSI_	61	0	0	96	48	4
NMSTR	61	0	1
NMSI_	61	0	1	96	48	4
NMSTR	61	192	6
NMSI_	61	192	6	96	48	3
NMSTR	61	192	7
NMSI_	61	192	7	96	48	3
NMSTR	62	0	0
NMSI_	62	0	0	96	48	4
NMSTR	62	0	1
NMSI_	62	0	1	96	48	4
NMTAP	62	192	6
NMTAP	62	192	7
NMTAP	62	288	0
NMTAP	62	288	7
BRTAP	63	0	0
BRTAP	63	0	1
NMTAP	63	96	4
NMTAP	63	96	6
NMTAP	63	192	5
NMTAP	63	192	7
NMTAP	63	288	2
NMTAP	63	288	4
NMTAP	64	0	0
NMTAP	64	0	1
NMTAP	64	96	4
NMTAP	64	96	5
NMTAP	64	192	6
NMTAP	64	192	7
NMTAP	64	288	2
NMTAP	64	288	3
NMSTR	65	0	0
NMSI_	65	0	0	96	48	5
NMSTR	65	0	1
NMSI_	65	0	1	96	48	4
NMSTR	65	192	6
NMSI_	65	192	6	96	48	3
NMSTR	65	192	7
NMSI_	65	192	7	96	48	2
NMSTR	66	0	0
NMSI_	66	0	0	96	48	5
NMSTR	66	0	1
NMSI_	66	0	1	96	48	4
NMTAP	66	192	6
NMTAP	66	192	7
NMTAP	66	288	6
NMTAP	66	288	7
BRTAP	67	0	0
BRTAP	67	0	5
NMTAP	67	96	2
NMTAP	67	96	3
NMTAP	67	192	1
NMTAP	67	192	7
NMTAP	67	288	3
NMTAP	67	288	5
NMTAP	68	0	6
NMTAP	68	0	7
NMTAP	68	96	2
NMTAP	68	96	3
NMTAP	68	192	0
NMTAP	68	192	1
NMTAP	68	288	4
NMTAP	68	288	5
NMSTR	69	0	6
NMSI_	69	0	6	96	48	3
NMSTR	69	0	7
NMSI_	69	0	7	96	48	2
NMSTR	69	192	0
NMSI_	69	192	0	96	48	5
NMSTR	69	192	1
NMSI_	69	192	1	96	48	4
NMSTR	70	0	6
NMSI_	70	0	6	96	48	3
NMSTR	70	0	7
NMSI_	70	0	7	96	48	2
NMTAP	70	192	0
NMTAP	70	192	7
NMTAP	70	288	3
NMTAP	70	288	4
BRTAP	71	0	1
BRTAP	71	0	6

T_REC_TAP	172
T_REC_BRK	12
T_REC_XTP	3
T_REC_BXX	0
T_REC_HLD	14
T_REC_XHO	0
T_REC_BHO	0
T_REC_BXH	0
T_REC_STR	48
T_REC_BST	0
T_REC_XST	1
T_REC_XBS	0
T_REC_TTP	47
T_REC_THO	1
T_REC_SLD	50
T_REC_BSL	1
T_REC_ALL	349
T_NUM_TAP	271
T_NUM_BRK	13
T_NUM_HLD	15
T_NUM_SLD	50
T_NUM_ALL	349
T_JUDGE_TAP	283
T_JUDGE_HLD	92
T_JUDGE_SLD	51
T_JUDGE_ALL	426
TTM_EACHPAIRS	76
TTM_SCR_TAP	135500
TTM_SCR_BRK	33800
TTM_SCR_HLD	15000
TTM_SCR_SLD	75000
TTM_SCR_ALL	259300
TTM_SCR_S	250300
TTM_SCR_SS	258000
TTM_RAT_ACV	10050

