VERSION	0.00.00	1.03.00
FES_MODE	0
BPM_DEF	175.000	175.000	175.000	175.000
MET_DEF	4	4
RESOLUTION	384
CLK_DEF	384
COMPATIBLE_CODE	MA2

BPM	0	0	175.000
MET	0	0	4	4
MET	6	0	8	6
MET	8	48	8	3
MET	8	192	8	6
MET	10	288	8	7
MET	11	192	4	4
MET	17	192	4	6
MET	19	0	4	4
MET	25	0	4	7
MET	26	288	4	4
MET	33	288	8	7
MET	34	240	4	4
MET	41	240	8	9
MET	42	288	4	4
MET	73	288	8	6
MET	75	336	8	3
MET	76	96	8	6
MET	81	144	8	3
MET	81	288	8	6

HLD	1	0	7	96
TAP	1	144	7
HLD	1	288	7	96
TAP	2	48	7
HLD	2	192	7	96
STR	2	336	3
SXR	2	336	3	96	144	3
TAP	2	336	7
TAP	3	48	6
TAP	3	144	7
HLD	3	192	7	96
TAP	3	336	7
HLD	4	96	7	96
TAP	4	240	7
HLD	5	0	7	96
STR	5	144	0
SXL	5	144	0	96	144	0
TAP	5	144	7
TAP	5	240	6
TAP	5	336	7
TAP	6	0	6
TAP	6	48	6
TAP	6	96	6
STR	6	144	5
SI_	6	144	5	96	48	2
TAP	6	288	1
TAP	6	336	1
TAP	7	0	1
STR	7	48	2
SI_	7	48	2	96	48	5
TAP	7	192	6
TAP	7	240	6
TAP	7	288	6
STR	7	336	5
SI_	7	336	5	96	48	2
STR	8	48	1
SI_	8	48	1	96	48	6
TAP	8	192	7
TAP	8	240	7
TAP	8	288	7
STR	8	336	6
SI_	8	336	6	96	48	1
TAP	9	96	0
TAP	9	144	0
TAP	9	192	0
STR	9	240	1
SI_	9	240	1	96	48	6
TAP	10	0	7
TAP	10	48	7
TAP	10	96	7
STR	10	144	6
SI_	10	144	6	96	48	1
TAP	10	240	2
TAP	10	288	3
TAP	10	336	4
TAP	11	0	1
TAP	11	0	5
BRK	11	48	2
BRK	11	48	6
HLD	11	192	3	144
TAP	11	192	5
TAP	11	336	4
TAP	12	0	3
TAP	12	48	4
TAP	12	144	2
TAP	12	144	3
TAP	12	240	1
TAP	12	240	2
STR	12	336	0
SCL	12	336	0	96	48	5
TAP	12	336	1
TAP	13	48	3
TAP	13	96	3
TAP	13	192	2
HLD	13	192	4	144
TAP	13	336	3
TAP	14	0	4
TAP	14	48	3
TAP	14	144	4
TAP	14	144	5
TAP	14	240	5
TAP	14	240	6
STR	14	336	6
SCL	14	336	6	96	48	3
STR	14	336	7
SCR	14	336	7	96	48	2
TAP	15	192	1
HLD	15	192	4	144
TAP	15	336	3
TAP	16	0	4
TAP	16	48	3
TAP	16	144	2
TAP	16	144	3
TAP	16	240	1
TAP	16	240	2
STR	16	336	0
SCL	16	336	0	96	48	5
TAP	16	336	1
TAP	17	48	3
TAP	17	96	3
STR	17	192	4
SI_	17	192	4	96	48	0
TAP	17	288	1
STR	17	336	1
SI_	17	336	1	96	48	3
TAP	18	48	4
STR	18	96	4
SI_	18	96	4	96	48	6
TAP	18	192	7
STR	18	240	7
SI_	18	240	7	96	48	3
BRK	18	336	4
HLD	19	0	4	144
TAP	19	144	3
TAP	19	192	4
TAP	19	240	3
TAP	19	336	4
TAP	19	336	5
TAP	20	48	1
TAP	20	48	2
TAP	20	144	6
STR	20	144	7
SCR	20	144	7	96	48	2
TAP	20	240	4
TAP	20	288	4
HLD	21	0	3	144
TAP	21	0	5
TAP	21	144	4
TAP	21	192	3
TAP	21	240	4
TAP	21	336	2
TAP	21	336	3
TAP	22	48	5
TAP	22	48	6
STR	22	144	0
SCL	22	144	0	96	48	5
STR	22	144	1
SCR	22	144	1	96	48	4
HLD	23	0	3	144
TAP	23	0	6
TAP	23	144	4
TAP	23	192	3
TAP	23	240	4
STR	23	336	6
SCR	23	336	6	96	96	2
STR	24	48	2
SV_	24	48	2	96	96	4
TAP	24	144	4
TAP	24	240	0
STR	24	288	0
SCR	24	288	0	96	144	7
TAP	25	0	7
TAP	25	192	7
TAP	25	240	7
HLD	25	336	0	96
TAP	26	48	7
TAP	26	96	0
TAP	26	144	6
TAP	26	192	1
TAP	26	240	5
STR	26	288	3
SI_	26	288	3	96	1056	0
TTP	27	96	4	B	0	M1
TTP	27	96	5	E	0	M1
TTP	27	288	5	B	0	M1
TTP	27	288	6	B	0	M1
TTP	28	96	7	E	0	M1
TTP	28	96	7	B	0	M1
TTP	28	288	5	B	0	M1
TTP	28	288	6	B	0	M1
TTP	29	96	4	B	0	M1
TTP	29	96	5	E	0	M1
TTP	29	288	5	B	0	M1
TTP	29	288	6	B	0	M1
STR	30	0	0
SI_	30	0	0	96	48	4
TAP	30	96	6
TAP	30	192	7
TAP	30	240	7
TAP	30	288	0
TAP	31	0	1
TAP	31	0	7
STR	31	48	1
SCR	31	48	1	96	48	4
STR	31	48	7
SCL	31	48	7	96	48	4
TAP	31	240	0
TAP	31	288	0
TAP	31	336	7
TAP	32	0	7
STR	32	48	0
SCR	32	48	0	96	48	3
STR	32	48	6
SCL	32	48	6	96	48	3
TAP	32	288	3
TAP	32	336	3
TAP	33	0	4
TAP	33	48	4
TAP	33	96	2
TAP	33	96	5
TAP	33	144	2
TAP	33	144	5
TAP	33	192	1
TAP	33	192	6
TAP	33	240	1
TAP	33	240	6
XTP	33	288	0
XTP	33	288	7
XST	33	336	0
SI_	33	336	0	96	48	4
XST	33	336	7
SI_	33	336	7	96	48	3
XTP	34	48	0
XTP	34	48	7
BRK	34	144	2
BRK	34	144	5
TAP	34	240	3
TAP	34	288	4
TAP	34	336	5
TAP	35	0	3
TAP	35	0	6
TAP	35	48	3
TAP	35	48	6
TTP	35	144	0	B	0	M1
TTP	35	144	0	E	0	M1
TTP	35	144	0	C	1	M1
TTP	35	144	1	B	0	M1
TTP	35	144	2	E	0	M1
TAP	35	240	4
TAP	35	288	3
TAP	35	336	2
TAP	36	0	1
TAP	36	0	4
TAP	36	48	1
TAP	36	48	4
TTP	36	144	0	E	0	M1
TTP	36	144	0	C	1	M1
TTP	36	144	6	E	0	M1
TTP	36	144	6	B	0	M1
TTP	36	144	7	B	0	M1
TAP	36	240	4
TAP	36	288	4
TAP	36	336	3
TAP	36	336	5
TAP	37	0	3
TAP	37	0	5
TAP	37	48	2
TAP	37	48	6
TTP	37	144	0	B	0	M1
TTP	37	144	0	C	1	M1
TTP	37	144	1	B	0	M1
TTP	37	144	2	B	0	M1
TTP	37	144	6	B	0	M1
TTP	37	144	7	B	0	M1
TAP	37	240	3
TAP	37	288	3
TAP	37	336	2
TAP	37	336	4
TAP	38	0	2
TAP	38	0	4
TAP	38	48	1
TAP	38	48	5
TTP	38	144	0	B	0	M1
TTP	38	144	0	C	1	M1
TTP	38	144	1	B	0	M1
TTP	38	144	5	B	0	M1
TTP	38	144	6	B	0	M1
TTP	38	144	7	B	0	M1
TAP	38	240	3
TAP	38	240	4
TAP	38	288	3
TAP	38	288	4
TAP	38	336	2
TAP	38	336	5
TAP	39	0	2
TAP	39	0	5
TAP	39	48	1
TAP	39	48	6
TTP	39	144	0	B	0	M1
TTP	39	144	0	C	1	M1
TTP	39	144	1	B	0	M1
TTP	39	144	6	B	0	M1
TTP	39	144	7	B	0	M1
BST	39	240	3
SI_	39	240	3	96	48	1
BST	39	240	4
SI_	39	240	4	96	48	0
BST	40	48	3
SI_	40	48	3	96	48	7
BST	40	48	4
SI_	40	48	4	96	48	6
BST	40	240	3
SXR	40	240	3	96	192	0
BST	40	240	4
SXL	40	240	4	96	192	7
XST	41	240	3
SUR	41	240	3	96	96	4
XTP	41	240	4
XTP	41	336	3
XST	41	336	4
SCR	41	336	4	96	96	3
TTP	42	192	3	E	0	M1
TTP	42	192	4	E	0	M1
TTP	42	192	5	E	0	M1
TTP	42	288	0	B	0	M1
TTP	42	288	0	C	1	M1
TTP	42	288	1	B	0	M1
TTP	42	288	1	E	0	M1
TTP	42	288	2	E	0	M1
TTP	42	288	6	E	0	M1
TTP	42	288	6	B	0	M1
TTP	42	288	7	E	0	M1
TTP	42	288	7	B	0	M1
TAP	43	48	3
TAP	43	48	4
TAP	43	96	3
TAP	43	96	4
STR	43	192	0
SCL	43	192	0	96	96	4
TAP	43	192	1
TAP	43	288	3
STR	44	0	7
SCR	44	0	7	96	96	3
TAP	44	96	4
STR	44	192	0
SCL	44	192	0	96	96	4
TAP	44	288	3
STR	45	0	7
SCR	45	0	7	96	96	3
TAP	45	96	4
TAP	45	192	0
TAP	45	240	0
TAP	45	288	0
TAP	46	0	1
TAP	46	0	2
TAP	46	96	3
TAP	46	96	4
TAP	46	192	5
TAP	46	192	6
BRK	46	288	0
BRK	46	288	7
TAP	47	48	3
TAP	47	72	4
STR	47	96	3
SI_	47	96	3	96	48	0
TAP	47	192	7
TAP	47	288	0
TAP	47	288	7
TAP	47	336	0
TAP	47	336	7
TAP	48	0	1
TAP	48	0	6
TAP	48	48	1
TAP	48	48	6
TAP	48	96	2
TAP	48	96	5
TAP	48	144	2
TAP	48	144	5
BRK	48	192	3
BRK	48	192	4
TAP	48	288	3
TAP	48	336	4
TAP	49	0	5
TAP	49	48	3
TAP	49	48	6
TTP	49	144	0	E	0	M1
TTP	49	144	0	B	0	M1
TTP	49	144	0	C	1	M1
TTP	49	144	1	B	0	M1
TTP	49	144	2	E	0	M1
TAP	49	240	4
TAP	49	288	3
TAP	49	336	2
TAP	50	0	1
TAP	50	0	4
TAP	50	48	1
TAP	50	48	4
TTP	50	144	0	E	0	M1
TTP	50	144	0	C	1	M1
TTP	50	144	6	E	0	M1
TTP	50	144	6	B	0	M1
TTP	50	144	7	B	0	M1
TAP	50	240	4
TAP	50	288	4
TAP	50	336	3
TAP	50	336	5
TAP	51	0	3
TAP	51	0	5
TAP	51	48	2
TAP	51	48	6
TTP	51	144	0	B	0	M1
TTP	51	144	0	C	1	M1
TTP	51	144	1	B	0	M1
TTP	51	144	2	B	0	M1
TTP	51	144	6	B	0	M1
TTP	51	144	7	B	0	M1
TAP	51	240	3
TAP	51	288	3
TAP	51	336	2
TAP	51	336	4
TAP	52	0	2
TAP	52	0	4
TAP	52	48	1
TAP	52	48	5
TTP	52	144	0	B	0	M1
TTP	52	144	0	C	1	M1
TTP	52	144	1	B	0	M1
TTP	52	144	5	B	0	M1
TTP	52	144	6	B	0	M1
TTP	52	144	7	B	0	M1
STR	52	240	3
SCL	52	240	3	96	96	7
STR	52	336	7
SCL	52	336	7	96	96	3
STR	53	48	3
SUL	53	48	3	96	96	7
STR	53	144	7
SUL	53	144	7	96	96	3
STR	53	240	3
SCL	53	240	3	96	96	7
STR	53	336	7
SCL	53	336	7	96	96	3
TAP	54	48	3
STR	54	144	7
SF_	54	144	7	96	48	3
TAP	55	0	1
TAP	55	0	5
HLD	55	48	1	96
HLD	55	48	5	96
TAP	55	192	2
TAP	55	192	6
TAP	55	240	2
TAP	55	240	6
TAP	55	288	5
TAP	55	336	4
TAP	56	0	3
TAP	56	48	2
TAP	56	96	1
TAP	56	96	6
TAP	56	144	1
TAP	56	144	6
BRK	56	192	1
BRK	56	192	6
BST	56	288	0
SI_	56	288	0	96	24	4
XTP	56	336	0
BST	57	0	6
SI_	57	0	6	96	24	2
XTP	57	48	6
BST	57	96	1
SI_	57	96	1	96	24	5
XTP	57	144	1
BST	57	192	7
SI_	57	192	7	96	24	3
XTP	57	240	7
BST	57	288	0
SI_	57	288	0	96	24	4
XTP	57	336	0
BST	58	0	6
SI_	58	0	6	96	24	2
XTP	58	48	6
BST	58	96	1
SI_	58	96	1	96	24	5
XTP	58	144	1
BST	58	192	7
SI_	58	192	7	96	24	3
XTP	58	240	7
BST	58	288	0
SI_	58	288	0	96	24	4
TTP	58	300	0	C	1	M1
XTP	58	336	0
BST	59	0	6
SI_	59	0	6	96	24	2
TTP	59	12	0	C	1	M1
XTP	59	48	6
BST	59	96	1
SI_	59	96	1	96	24	5
TTP	59	108	0	C	1	M1
XTP	59	144	1
BST	59	192	7
SI_	59	192	7	96	24	3
TTP	59	204	0	C	1	M1
XTP	59	240	7
BST	59	288	0
SI_	59	288	0	96	24	4
TTP	59	300	0	C	1	M1
XTP	59	336	0
BST	60	0	6
SI_	60	0	6	96	24	2
TTP	60	12	0	C	1	M1
XTP	60	48	6
BST	60	96	1
SI_	60	96	1	96	24	5
TTP	60	108	0	C	1	M1
XTP	60	144	1
BST	60	192	7
SI_	60	192	7	96	24	3
TTP	60	204	0	C	1	M1
XTP	60	240	7
XHO	60	288	0	192
TTP	60	300	0	C	1	M1
XHO	61	96	4	192
THO	61	288	0	288	C	1	M1
HLD	62	288	6	144
STR	62	288	7
SCR	62	288	7	96	192	2
HLD	63	192	6	144
HLD	64	96	6	144
TAP	64	336	0
TAP	65	48	1
STR	65	96	0
SCL	65	96	0	96	192	5
HLD	65	96	1	144
HLD	66	0	1	144
HLD	66	288	1	144
HLD	67	192	1	144
STR	67	192	2
SCR	67	192	2	96	192	5
TAP	68	96	6
TAP	68	144	6
TAP	68	192	6
STR	68	240	7
SI_	68	240	7	96	48	2
TAP	69	0	1
TAP	69	48	1
TAP	69	96	1
STR	69	144	0
SI_	69	144	0	96	48	5
TAP	69	288	6
TAP	69	336	6
TAP	70	0	6
STR	70	48	7
SI_	70	48	7	96	48	3
STR	70	144	4
SI_	70	144	4	96	48	0
TAP	70	288	1
TAP	70	336	1
TAP	71	0	1
STR	71	48	0
SI_	71	48	0	96	48	5
TAP	71	192	6
TAP	71	240	6
TAP	71	288	6
STR	71	336	7
SI_	71	336	7	96	48	2
TAP	72	96	0
TAP	72	144	0
TAP	72	192	0
STR	72	240	1
SI_	72	240	1	96	48	4
TAP	73	0	7
TAP	73	48	7
TAP	73	96	7
STR	73	144	6
SI_	73	144	6	96	48	3
HLD	73	288	0	144
TTP	74	48	4	E	0	M1
HLD	74	192	1	144
TTP	74	336	0	C	0	M1
HLD	75	96	2	144
TTP	75	240	0	E	0	M1
TAP	75	336	3
TAP	75	336	4
TAP	76	48	5
HLD	76	96	5	144
TTP	76	240	4	E	0	M1
HLD	77	0	6	144
TTP	77	144	0	C	0	M1
HLD	77	288	7	144
TTP	78	48	0	E	0	M1
HLD	78	192	0	144
TTP	78	336	0	C	0	M1
HLD	79	96	1	144
TTP	79	240	4	E	0	M1
HLD	80	0	2	144
TTP	80	144	0	C	0	M1
HLD	80	288	3	144
TTP	81	48	0	E	0	M1
TAP	81	144	3
TAP	81	144	4
TAP	81	240	4
TAP	81	288	3
TAP	82	0	5
TAP	82	48	4
TAP	82	96	5
TAP	82	192	3
TAP	82	192	4
TAP	82	288	2
TAP	82	336	3
TAP	83	0	2
TTP	83	96	1	E	0	M1
TTP	83	144	7	E	0	M1
TTP	83	192	2	E	0	M1
TTP	83	240	6	E	0	M1
TTP	83	288	3	E	0	M1
TTP	83	336	5	E	0	M1
TTP	84	0	4	E	0	M1
TTP	84	48	6	E	0	M1
TTP	84	96	2	E	0	M1
TTP	84	144	7	E	0	M1
TTP	84	192	1	E	0	M1
TTP	84	240	0	C	0	M1

T_REC_TAP	274
T_REC_BRK	11
T_REC_XTP	22
T_REC_HLD	32
T_REC_XHO	2
T_REC_STR	52
T_REC_BST	22
T_REC_XST	4
T_REC_TTP	104
T_REC_THO	1
T_REC_SLD	78
T_REC_ALL	602
T_NUM_TAP	456
T_NUM_BRK	33
T_NUM_HLD	35
T_NUM_SLD	78
T_NUM_ALL	602
T_JUDGE_TAP	489
T_JUDGE_HLD	101
T_JUDGE_SLD	78
T_JUDGE_ALL	668
TTM_EACHPAIRS	91
TTM_SCR_TAP	228000
TTM_SCR_BRK	85800
TTM_SCR_HLD	35000
TTM_SCR_SLD	117000
TTM_SCR_ALL	465800
TTM_SCR_S	448650
TTM_SCR_SS	462500
TTM_RAT_ACV	10071

