VERSION	0.00.00	1.03.00
FES_MODE	0
BPM_DEF	175.000	175.000	175.000	175.000
MET_DEF	4	4
RESOLUTION	384
CLK_DEF	384
COMPATIBLE_CODE	MA2

BPM	0	0	175.000
MET	0	0	4	4
MET	6	0	8	6
MET	8	48	8	3
MET	8	192	8	6
MET	10	240	8	7
MET	11	192	4	4
MET	17	192	4	6
MET	19	0	4	4
MET	25	0	4	7
MET	26	288	4	4
MET	73	288	8	6
MET	75	336	8	3
MET	76	96	8	6
MET	81	144	8	3
MET	81	288	8	6

HLD	1	0	4	144
HLD	1	288	3	144
HLD	2	192	4	144
TAP	3	48	4
TAP	3	96	4
TAP	3	144	3
HLD	3	192	3	144
HLD	4	96	4	144
HLD	5	0	3	144
TAP	5	240	3
TAP	5	240	4
TAP	5	288	3
TAP	5	288	4
HLD	6	0	6	96
HLD	6	96	5	96
TAP	6	192	4
HLD	6	288	1	96
HLD	7	0	2	96
TAP	7	96	3
HLD	7	192	6	96
HLD	7	288	5	96
HLD	8	0	4	96
TAP	8	96	3
HLD	8	192	1	96
HLD	8	288	2	96
TAP	9	0	3
HLD	9	96	6	96
HLD	9	192	5	96
TAP	9	288	4
HLD	10	0	1	96
HLD	10	96	2	96
HLD	10	192	3	96
TAP	10	288	4
TAP	11	0	2
TAP	11	0	5
BRK	11	48	2
BRK	11	48	5
TAP	11	192	3
TAP	11	192	4
TAP	11	288	5
TAP	11	336	5
TAP	12	0	4
HLD	12	48	6	96
HLD	12	144	4	96
HLD	12	240	3	96
HLD	12	336	1	96
TAP	13	48	0
TAP	13	96	0
TAP	13	192	3
TAP	13	192	4
TAP	13	288	2
TAP	13	336	2
TAP	14	0	3
HLD	14	48	1	96
HLD	14	144	3	96
HLD	14	240	4	96
HLD	14	336	6	96
TAP	15	48	7
TAP	15	96	7
TAP	15	192	3
TAP	15	192	4
TAP	15	288	5
TAP	15	336	5
TAP	16	0	4
HLD	16	48	5	96
HLD	16	144	7	96
HLD	16	240	0	96
HLD	16	336	2	96
TAP	17	48	3
TAP	17	96	3
XHO	17	192	0	96
XHO	17	192	7	96
XHO	17	336	1	96
XHO	17	336	3	96
XHO	18	96	3	96
XHO	18	96	4	96
XHO	18	240	4	96
XHO	18	240	6	96
XTP	19	0	0
XTP	19	0	7
TAP	19	96	2
TAP	19	144	2
TAP	19	192	3
HLD	19	240	2	96
HLD	19	336	0	96
HLD	20	48	7	96
HLD	20	144	5	96
TAP	20	240	4
TAP	20	288	4
TAP	21	0	3
TAP	21	0	6
TAP	21	96	5
TAP	21	144	5
TAP	21	192	4
HLD	21	240	5	96
HLD	21	336	7	96
HLD	22	48	0	96
HLD	22	144	2	96
TAP	22	240	3
TAP	22	288	3
TAP	23	0	1
TAP	23	0	4
TAP	23	96	2
TAP	23	144	2
TAP	23	192	3
HLD	23	240	1	96
HLD	23	336	3	96
HLD	24	48	4	96
HLD	24	144	6	96
TAP	24	240	7
TAP	24	288	7
XHO	25	0	0	96
XHO	25	0	7	96
XTP	25	192	1
XTP	25	192	6
XTP	25	288	2
XTP	25	288	5
XST	26	0	3
SCL	26	0	3	96	96	0
XST	26	0	4
SCR	26	0	4	96	96	7
XTP	26	288	0
XTP	26	288	7
TTP	27	96	4	E	0	M1
TTP	27	288	2	B	0	M1
TTP	27	288	3	E	0	M1
TTP	28	96	0	C	0	M1
TTP	28	288	6	B	0	M1
TTP	28	288	7	E	0	M1
TTP	29	96	0	E	0	M1
TTP	29	288	1	B	0	M1
TTP	29	288	1	E	0	M1
TTP	30	96	0	C	0	M1
TTP	30	288	3	E	0	M1
TTP	30	288	5	E	0	M1
TTP	31	96	0	E	0	M1
TTP	31	96	7	E	0	M1
TTP	31	288	3	B	0	M1
TTP	31	288	4	B	0	M1
TTP	32	96	0	E	0	M1
TTP	32	96	1	E	0	M1
THO	32	288	0	192	C	1	M1
XTP	33	240	0
XTP	33	240	7
XTP	33	288	0
XTP	33	288	7
XTP	33	336	0
XTP	33	336	7
BRK	34	48	1
BRK	34	48	6
BRK	34	144	2
BRK	34	144	5
STR	34	240	6
SI_	34	240	6	96	48	4
STR	34	240	7
SI_	34	240	7	96	48	3
TAP	35	48	2
TAP	35	48	3
TAP	35	144	1
TAP	35	144	4
STR	35	240	0
SI_	35	240	0	96	48	4
STR	35	240	1
SI_	35	240	1	96	48	3
TAP	36	48	4
TAP	36	48	5
TAP	36	144	3
TAP	36	144	6
STR	36	240	6
SI_	36	240	6	96	48	4
STR	36	240	7
SI_	36	240	7	96	48	3
TAP	37	48	2
TAP	37	48	3
TAP	37	144	1
TAP	37	144	4
TAP	37	240	0
TAP	37	288	0
TAP	38	0	2
TAP	38	0	5
TAP	38	48	2
TAP	38	48	5
HLD	38	144	6	96
HLD	38	240	4	96
HLD	38	336	3	96
TAP	39	48	1
TAP	39	144	0
TAP	39	144	7
TAP	39	240	0
TAP	39	240	1
TAP	39	336	2
TAP	39	336	3
TAP	40	48	4
TAP	40	48	5
STR	40	144	6
SCL	40	144	6	96	240	0
STR	40	144	7
SUL	40	144	7	96	240	0
XHO	41	240	0	96
XHO	41	240	7	96
XTP	42	0	0
XTP	42	0	7
XTP	42	48	0
XTP	42	48	7
TAP	42	144	2
XTP	42	192	2
BRK	42	288	0
BRK	42	288	7
TAP	43	48	5
HLD	43	96	5	144
TAP	43	240	4
HLD	43	288	3	144
TAP	44	48	4
HLD	44	96	5	144
TAP	44	240	3
HLD	44	288	2	144
TAP	45	48	3
HLD	45	96	4	144
TAP	45	240	3
HLD	45	288	2	96
HLD	46	0	0	96
HLD	46	96	7	96
HLD	46	192	5	96
TAP	46	288	2
TAP	47	48	3
TAP	47	48	4
TAP	47	96	3
TAP	47	96	4
THO	47	288	0	192	C	1	M1
TAP	48	288	1
TAP	48	288	6
STR	49	0	6
SCL	49	0	6	96	48	3
STR	49	0	7
SCR	49	0	7	96	48	2
TAP	49	192	1
TAP	49	192	4
TAP	49	288	3
TAP	49	288	4
STR	50	0	0
SCL	50	0	0	96	48	5
STR	50	0	1
SCR	50	0	1	96	48	4
TAP	50	192	3
TAP	50	192	6
TAP	50	288	3
TAP	50	288	4
TAP	51	0	7
TAP	51	48	7
STR	51	144	0
SCR	51	144	0	96	192	7
HLD	52	144	1	96
HLD	52	240	3	96
HLD	52	336	4	96
HLD	53	48	6	96
HLD	53	144	7	96
TAP	53	240	0
TAP	53	336	2
TAP	53	336	3
TAP	54	48	1
TAP	54	48	4
TAP	54	144	4
TAP	54	144	5
HLD	54	240	3	96
HLD	54	240	6	96
XTP	55	0	6
XTP	55	0	7
XHO	55	48	6	96
XHO	55	48	7	96
XTP	55	192	0
XTP	55	192	1
XTP	55	240	0
XTP	55	240	1
TAP	55	336	3
TAP	55	336	4
TAP	56	48	3
TAP	56	96	4
BRK	56	192	1
BRK	56	192	6
TAP	56	288	6
TAP	56	288	7
TAP	57	0	2
TAP	57	0	3
TAP	57	96	0
TAP	57	96	1
TAP	57	192	4
TAP	57	192	5
TAP	57	288	6
TAP	57	288	7
TAP	58	0	2
TAP	58	0	3
TAP	58	96	0
TAP	58	144	0
TAP	58	192	1
TAP	58	192	6
TAP	58	288	4
TAP	58	288	5
TAP	59	0	0
TAP	59	0	1
TAP	59	96	2
TAP	59	96	3
TAP	59	192	6
TAP	59	192	7
TAP	59	288	4
TAP	59	288	5
TAP	60	0	0
TAP	60	0	1
TAP	60	96	2
TAP	60	96	3
TAP	60	192	4
TAP	60	192	5
STR	60	288	6
SI_	60	288	6	96	48	4
STR	60	288	7
SI_	60	288	7	96	48	3
STR	61	96	0
SI_	61	96	0	96	48	4
STR	61	96	1
SI_	61	96	1	96	48	3
HLD	61	288	2	240
HLD	61	288	5	240
TAP	62	192	2
TAP	62	192	5
TTP	62	288	3	B	0	M1
TTP	63	0	2	B	0	M1
TTP	63	96	1	B	0	M1
TTP	63	192	4	B	0	M1
TTP	63	288	5	B	0	M1
TTP	64	0	6	B	0	M1
TTP	64	96	3	B	0	M1
TTP	64	192	2	B	0	M1
TTP	64	288	1	B	0	M1
TTP	65	0	0	C	0	M1
TTP	65	96	4	B	0	M1
TTP	65	192	5	B	0	M1
TTP	65	288	6	B	0	M1
TTP	66	0	3	B	0	M1
TTP	66	96	2	B	0	M1
TTP	66	192	1	B	0	M1
TTP	66	288	4	B	0	M1
TTP	67	0	5	B	0	M1
TTP	67	96	6	B	0	M1
TTP	67	192	1	E	0	M1
TTP	67	192	7	E	0	M1
TTP	67	288	2	E	0	M1
TTP	68	0	3	E	0	M1
TTP	68	96	4	E	0	M1
TTP	68	192	5	E	0	M1
TTP	68	288	6	E	0	M1
TTP	69	0	4	E	0	M1
TTP	69	96	3	E	0	M1
TTP	69	192	2	E	0	M1
TTP	69	288	4	E	0	M1
TTP	70	0	5	E	0	M1
TTP	70	96	6	E	0	M1
TTP	70	192	0	C	0	M1
TTP	70	288	4	E	0	M1
TTP	71	0	3	E	0	M1
TTP	71	96	2	E	0	M1
TTP	71	192	4	E	0	M1
TTP	71	288	5	E	0	M1
TTP	72	0	6	E	0	M1
TTP	72	96	4	E	0	M1
TTP	72	192	3	E	0	M1
TTP	72	288	2	E	0	M1
TTP	73	0	4	E	0	M1
TTP	73	96	5	E	0	M1
TTP	73	192	6	E	0	M1
HLD	73	288	3	144
HLD	74	192	3	144
HLD	75	96	3	144
TAP	75	336	3
TAP	76	0	3
TAP	76	48	4
HLD	76	96	4	144
HLD	77	0	4	144
HLD	77	288	4	144
HLD	78	192	3	144
HLD	79	96	3	144
HLD	80	0	3	144
HLD	80	288	4	144
TAP	81	144	4
TAP	81	192	4
TAP	81	240	3
HLD	81	288	3	144
HLD	82	192	3	144
HLD	82	192	4	144
HLD	83	96	3	144
HLD	83	96	4	144
THO	84	0	0	240	C	0	M1

T_REC_TAP	157
T_REC_BRK	10
T_REC_XTP	25
T_REC_HLD	80
T_REC_XHO	14
T_REC_STR	17
T_REC_BST	0
T_REC_XST	2
T_REC_TTP	63
T_REC_THO	3
T_REC_SLD	19
T_REC_ALL	390
T_NUM_TAP	264
T_NUM_BRK	10
T_NUM_HLD	97
T_NUM_SLD	19
T_NUM_ALL	390
T_JUDGE_TAP	274
T_JUDGE_HLD	233
T_JUDGE_SLD	19
T_JUDGE_ALL	526
TTM_EACHPAIRS	84
TTM_SCR_TAP	132000
TTM_SCR_BRK	26000
TTM_SCR_HLD	97000
TTM_SCR_SLD	28500
TTM_SCR_ALL	283500
TTM_SCR_S	274050
TTM_SCR_SS	282500
TTM_RAT_ACV	10035

