VERSION	0.00.00	1.03.00
FES_MODE	0
BPM_DEF	175.000	175.000	175.000	175.000
MET_DEF	4	4
RESOLUTION	384
CLK_DEF	384
COMPATIBLE_CODE	MA2

BPM	0	0	175.000
MET	0	0	4	4
MET	6	0	4	3
MET	7	192	4	4
MET	8	192	4	3
MET	11	192	4	4
MET	17	192	4	3
MET	19	0	4	4
MET	25	0	4	3
MET	25	288	4	4
MET	62	288	4	3
MET	64	96	4	4
MET	65	96	4	3
MET	69	288	4	4
MET	70	288	4	3
MET	75	96	4	4
MET	76	96	4	3
MET	80	288	4	4
MET	81	288	4	3

XST	6	0	3
SXR	6	0	3	96	672	0
XST	8	192	7
SXR	8	192	7	96	672	4
XTP	11	0	2
XTP	11	0	5
HLD	11	192	3	192
TAP	12	0	4
TAP	12	192	4
TAP	12	288	4
TAP	13	0	3
HLD	13	192	3	192
TAP	14	0	4
TAP	14	192	4
TAP	14	288	4
TAP	15	0	3
HLD	15	192	4	192
TAP	16	0	3
TAP	16	192	3
TAP	16	192	4
TAP	17	0	2
TAP	17	0	5
STR	17	192	6
SCL	17	192	6	96	288	3
HLD	19	0	2	192
TAP	19	192	3
TAP	20	0	4
TAP	20	96	4
TAP	20	192	3
HLD	21	0	5	192
TAP	21	192	4
TAP	22	0	3
TAP	22	96	3
TAP	22	192	4
HLD	23	0	4	192
HLD	23	192	3	192
TAP	24	0	4
TAP	24	192	2
TAP	24	192	5
STR	25	0	4
SCR	25	0	4	96	384	0
XTP	26	288	1
TTP	27	96	2	B	0	L1
TTP	27	288	3	B	0	L1
TTP	28	96	4	B	0	L1
TTP	28	288	2	B	0	L1
TTP	28	288	5	B	0	L1
TTP	29	96	1	B	0	L1
TTP	29	96	6	B	0	L1
THO	29	288	0	192	C	0	L1
TTP	30	288	5	B	0	L1
TTP	31	96	4	B	0	L1
TTP	31	288	3	B	0	L1
TTP	32	96	2	B	0	L1
TTP	32	96	5	B	0	L1
THO	32	288	0	384	C	1	L1
XTP	34	288	2
TAP	35	0	2
TAP	35	96	1
TAP	35	96	3
TAP	35	288	5
TAP	36	0	5
TAP	36	96	4
TAP	36	96	6
TAP	36	288	2
TAP	37	0	2
TAP	37	96	3
TAP	37	192	3
TAP	37	288	3
TAP	37	288	4
TAP	38	96	2
TAP	38	96	5
TAP	38	288	2
TAP	39	0	3
TAP	39	96	2
TAP	39	96	3
TAP	39	288	5
TAP	40	0	4
TAP	40	96	4
TAP	40	96	5
STR	40	288	3
SCL	40	288	3	96	192	0
HLD	41	288	7	192
TAP	42	96	0
BRK	42	192	1
BRK	42	192	6
BRK	42	288	1
BRK	42	288	6
TAP	43	96	1
TAP	43	192	1
TAP	43	288	2
TAP	44	0	2
TAP	44	96	1
TAP	44	96	3
TAP	44	288	5
TAP	45	0	5
TAP	45	96	6
TAP	45	192	6
TAP	45	288	7
TAP	46	0	7
TAP	46	96	0
TAP	46	96	6
TAP	46	288	6
TAP	47	0	6
TAP	47	96	5
TAP	47	192	4
HLD	47	288	3	96
HLD	47	288	4	96
BRK	48	96	2
BRK	48	96	5
XTP	48	288	2
TAP	49	0	2
TAP	49	96	3
TAP	49	192	3
TAP	49	288	4
TAP	50	0	5
TAP	50	96	3
TAP	50	96	6
TAP	50	288	5
TAP	51	0	5
TAP	51	96	4
TAP	51	192	4
TAP	51	288	3
TAP	52	0	2
TAP	52	96	1
TAP	52	96	4
TAP	52	288	1
TAP	53	0	0
TAP	53	96	0
TAP	53	96	1
TAP	53	288	6
TAP	54	0	7
TAP	54	96	6
TAP	54	96	7
STR	54	288	0
SI_	54	288	0	96	192	3
STR	54	288	7
SI_	54	288	7	96	192	4
XTP	55	288	2
XTP	55	288	5
XTP	56	0	2
XTP	56	0	5
BRK	56	96	2
BRK	56	96	5
TAP	56	288	2
TAP	57	0	2
TAP	57	0	3
TAP	57	96	5
TAP	57	192	4
TAP	57	192	5
TAP	57	288	2
TAP	58	0	2
TAP	58	0	3
TAP	58	96	1
TAP	58	96	4
TAP	58	288	6
TAP	59	0	6
TAP	59	0	7
TAP	59	96	1
TAP	59	192	0
TAP	59	192	1
TAP	59	288	6
TAP	60	0	6
TAP	60	0	7
TAP	60	96	1
TAP	60	192	0
TAP	60	192	1
XTP	60	288	2
XTP	60	288	7
XTP	61	96	1
XTP	61	96	6
BRK	61	288	0
HLD	61	288	7	384
XST	62	288	0
SCL	62	288	0	96	480	5
XST	65	96	7
SCR	65	96	7	96	480	2
XST	68	96	2
SI_	68	96	2	96	480	7
XST	70	288	7
SI_	70	288	7	96	576	4
TTP	73	288	3	E	0	L1
TTP	74	192	3	B	0	L1
TTP	75	96	4	B	0	L1
TTP	75	96	5	B	0	L1
TTP	76	96	5	E	0	L1
TTP	77	0	4	B	0	L1
TTP	77	288	3	B	0	L1
TTP	78	192	3	E	0	L1
TTP	79	96	2	B	0	L1
TTP	80	0	1	B	0	L1
TTP	80	288	0	E	0	L1
TTP	80	288	1	E	0	L1
TTP	81	288	0	B	0	L1
TTP	81	288	7	B	0	L1
TTP	82	192	1	B	0	L1
TTP	82	192	6	B	0	L1
THO	83	96	0	480	C	0	L1

T_REC_TAP	112
T_REC_BRK	9
T_REC_XTP	13
T_REC_HLD	11
T_REC_XHO	0
T_REC_STR	5
T_REC_BST	0
T_REC_XST	6
T_REC_TTP	28
T_REC_THO	3
T_REC_SLD	11
T_REC_ALL	198
T_NUM_TAP	164
T_NUM_BRK	9
T_NUM_HLD	14
T_NUM_SLD	11
T_NUM_ALL	198
T_JUDGE_TAP	173
T_JUDGE_HLD	66
T_JUDGE_SLD	11
T_JUDGE_ALL	250
TTM_EACHPAIRS	35
TTM_SCR_TAP	82000
TTM_SCR_BRK	23400
TTM_SCR_HLD	14000
TTM_SCR_SLD	16500
TTM_SCR_ALL	135900
TTM_SCR_S	130950
TTM_SCR_SS	135000
TTM_RAT_ACV	10066

