VERSION	0.00.00	1.03.00
FES_MODE	0
BPM_DEF	175.000	175.000	175.000	175.000
MET_DEF	4	4
RESOLUTION	384
CLK_DEF	384
COMPATIBLE_CODE	MA2

BPM	0	0	175.000
MET	0	0	4	4
MET	6	0	8	6
MET	8	48	8	3
MET	8	192	8	6
MET	10	240	8	7
MET	11	192	4	4
MET	17	192	4	6
MET	19	0	4	4
MET	25	0	4	7
MET	26	288	4	4
MET	73	288	8	6
MET	75	336	8	3
MET	76	96	8	6
MET	81	144	8	3
MET	81	288	8	6

XHO	6	0	3	576
XHO	8	192	4	576
TAP	12	0	3
TAP	13	0	3
TAP	14	0	2
TAP	15	0	2
TAP	16	0	1
TAP	17	0	0
HLD	17	192	0	288
TAP	19	192	7
TAP	20	192	7
TAP	21	192	6
TAP	22	192	6
TAP	23	192	5
TAP	24	192	5
XHO	25	0	3	672
XHO	25	0	4	672
TTP	27	288	2	B	0	L1
TTP	28	288	1	B	0	L1
TTP	29	288	0	B	0	L1
TTP	30	288	7	B	0	L1
TTP	31	288	6	B	0	L1
THO	32	288	0	384	C	1	L1
XTP	34	288	7
TAP	35	96	7
TAP	35	288	6
TAP	36	96	6
TAP	36	288	5
TAP	37	96	5
TAP	37	288	4
TAP	38	288	3
TAP	39	96	3
TAP	39	288	2
TAP	40	96	2
XHO	40	288	1	336
XTP	42	192	0
XTP	42	192	7
XTP	42	288	0
XTP	42	288	7
TAP	43	96	7
TAP	43	288	0
TAP	44	96	0
TAP	44	288	1
TAP	45	96	1
TAP	45	288	2
TAP	46	96	2
HLD	46	288	3	192
HLD	46	288	4	192
BRK	47	288	3
BRK	47	288	4
TAP	48	288	4
TAP	49	0	4
TAP	49	96	4
TAP	49	288	5
TAP	50	0	5
TAP	50	96	5
TAP	50	288	6
TAP	51	0	6
TAP	51	96	6
TAP	51	288	7
TAP	52	0	0
TAP	52	96	7
TAP	52	288	0
TAP	53	0	0
TAP	53	96	0
TAP	53	288	1
TAP	54	0	1
TAP	54	96	1
TAP	54	288	2
TAP	54	288	3
TAP	55	96	2
TAP	55	96	3
TAP	55	288	4
TAP	55	288	5
TAP	56	96	4
TAP	56	96	5
TTP	56	288	3	B	0	L1
TTP	57	96	2	E	0	L1
TTP	57	288	0	B	0	L1
TTP	58	288	7	B	0	L1
TTP	59	96	6	E	0	L1
TTP	59	288	4	B	0	L1
THO	60	288	0	384	C	1	L1
HLD	62	288	7	576
HLD	65	96	0	576
STR	67	288	7
SI_	67	288	7	96	480	3
STR	70	288	0
SI_	70	288	0	96	480	4
HLD	73	288	7	576
HLD	76	96	0	576
HLD	79	96	1	576
THO	81	288	0	1104	C	0	L1

T_REC_TAP	55
T_REC_BRK	2
T_REC_XTP	5
T_REC_HLD	8
T_REC_XHO	5
T_REC_STR	2
T_REC_BST	0
T_REC_XST	0
T_REC_TTP	11
T_REC_THO	3
T_REC_SLD	2
T_REC_ALL	93
T_NUM_TAP	73
T_NUM_BRK	2
T_NUM_HLD	16
T_NUM_SLD	2
T_NUM_ALL	93
T_JUDGE_TAP	75
T_JUDGE_HLD	172
T_JUDGE_SLD	2
T_JUDGE_ALL	249
TTM_EACHPAIRS	9
TTM_SCR_TAP	36500
TTM_SCR_BRK	5200
TTM_SCR_HLD	16000
TTM_SCR_SLD	3000
TTM_SCR_ALL	60700
TTM_SCR_S	58700
TTM_SCR_SS	60500
TTM_RAT_ACV	10033

