VERSION	0.00.00	1.03.00
FES_MODE	0
BPM_DEF	128.000	128.000	128.000	128.000
MET_DEF	4	4
RESOLUTION	384
CLK_DEF	384
COMPATIBLE_CODE	MA2

BPM	0	0	128.000
MET	0	0	4	4

TAP	2	240	3
TAP	2	264	4
STR	2	288	3
SI_	2	288	3	96	48	7
STR	3	0	6
SLL	3	0	6	96	96	2
STR	3	192	0
SLL	3	192	0	96	96	4
STR	4	0	2
SLL	4	0	2	96	96	6
TAP	4	192	4
TAP	4	240	5
TAP	4	264	5
TAP	4	288	3
TAP	4	312	3
TAP	4	336	6
TAP	4	360	6
TAP	5	0	1
TAP	5	0	7
TTP	5	96	0	C	0	M1
TAP	5	192	0
TAP	5	192	7
TTP	5	288	0	C	0	M1
TAP	6	0	7
TTP	6	96	0	C	0	M1
TAP	6	192	6
TTP	6	288	0	C	0	M1
HLD	7	0	5	48
TTP	7	96	0	C	0	M1
HLD	7	96	5	48
HLD	7	192	4	48
TTP	7	288	0	C	0	M1
HLD	7	288	4	48
HLD	8	0	3	48
TTP	8	96	0	C	0	M1
HLD	8	96	3	48
HLD	8	192	2	48
TTP	8	288	0	C	0	M1
HLD	8	288	2	48
HLD	9	0	1	48
TTP	9	96	0	C	0	M1
HLD	9	96	1	48
HLD	9	192	0	48
THO	9	288	0	48	C	1	M1
TTP	9	336	0	B	0	M1
TTP	9	336	1	B	0	M1
TTP	9	336	2	B	0	M1
TTP	9	336	3	B	0	M1
TTP	9	336	4	B	0	M1
TTP	9	336	5	B	0	M1
TTP	9	336	6	B	0	M1
TTP	9	336	7	B	0	M1
TAP	10	240	3
TAP	10	240	4
BST	10	288	1
SI_	10	288	1	96	48	3
BRK	10	288	7
TAP	11	0	4
TAP	11	48	5
TAP	11	96	4
HLD	11	96	6	96
TAP	11	144	5
STR	11	192	4
SI_	11	192	4	96	48	0
TAP	11	240	3
TAP	11	288	2
STR	11	336	2
SLL	11	336	2	96	96	4
TAP	12	0	7
TAP	12	48	7
TAP	12	96	6
TAP	12	144	5
TAP	12	192	5
TAP	12	240	4
HLD	12	288	3	96
XST	12	288	6
SI_	12	288	6	96	48	4
TAP	13	48	2
HLD	13	96	1	96
TAP	13	96	3
TAP	13	144	2
STR	13	192	3
SI_	13	192	3	96	48	7
TAP	13	240	4
TAP	13	288	5
STR	13	336	5
SLR	13	336	5	96	96	3
TAP	14	0	0
TAP	14	48	0
TAP	14	96	1
TAP	14	144	2
TAP	14	192	2
TAP	14	240	3
XST	14	288	1
SI_	14	288	1	96	48	7
HLD	14	288	4	96
TAP	15	48	5
TAP	15	96	4
HLD	15	96	6	96
TAP	15	144	5
STR	15	192	3
SI_	15	192	3	96	48	7
TAP	15	240	2
TAP	15	288	1
STR	15	336	1
SLR	15	336	1	96	96	7
TAP	16	0	6
TAP	16	48	6
TAP	16	96	5
TAP	16	144	4
TAP	16	192	4
TAP	16	240	5
TAP	16	288	3
XST	16	288	6
SI_	16	288	6	96	48	0
STR	17	0	1
SI_	17	0	1	96	48	5
TAP	17	48	1
STR	17	96	4
SI_	17	96	4	96	48	2
TAP	17	144	4
TAP	17	192	0
TAP	17	240	0
TAP	17	288	7
THO	17	336	0	96	C	0	M1
TAP	18	48	6
TAP	18	96	6
TAP	18	144	5
TAP	18	192	1
TAP	18	240	2
TAP	18	240	4
BRK	18	288	0
TTP	18	288	0	C	1	M1
TAP	19	0	6
TAP	19	0	7
TAP	19	48	0
TAP	19	48	4
TAP	19	96	1
TAP	19	120	3
TAP	19	144	2
TAP	19	168	5
STR	19	192	4
SI_	19	192	4	96	48	0
TAP	19	240	7
TAP	19	264	7
TAP	19	312	6
HLD	19	336	6	48
STR	20	0	1
SCR	20	0	1	96	48	4
TAP	20	48	2
STR	20	96	5
SCR	20	96	5	96	48	0
TAP	20	144	6
STR	20	192	2
SCR	20	192	2	96	48	5
TAP	20	240	1
XTP	20	288	7
TAP	21	0	0
TAP	21	0	1
TAP	21	48	3
TAP	21	48	7
TAP	21	96	6
TAP	21	120	4
TAP	21	144	5
TAP	21	168	2
STR	21	192	3
SI_	21	192	3	96	48	7
TAP	21	240	0
TAP	21	264	0
TAP	21	312	1
HLD	21	336	1	48
STR	22	0	6
SCL	22	0	6	96	48	3
TAP	22	48	5
STR	22	96	2
SCL	22	96	2	96	48	7
TAP	22	144	1
STR	22	192	5
SCL	22	192	5	96	48	2
TAP	22	240	6
XTP	22	288	0
TAP	23	0	6
TAP	23	0	7
TAP	23	48	0
TAP	23	48	4
TAP	23	96	1
TAP	23	120	3
TAP	23	144	2
TAP	23	168	5
STR	23	192	4
SI_	23	192	4	96	48	0
TAP	23	240	7
TAP	23	264	7
TAP	23	312	6
HLD	23	336	6	48
STR	24	0	1
SCR	24	0	1	96	48	4
TAP	24	48	2
STR	24	96	5
SCR	24	96	5	96	48	0
TAP	24	144	6
STR	24	192	2
SCR	24	192	2	96	48	5
TAP	24	240	1
XTP	24	288	5
TAP	24	336	6
STR	25	0	2
SI_	25	0	2	96	48	7
STR	25	0	7
SI_	25	0	7	96	48	2
STR	25	48	2
SLL	25	48	2	96	96	4
STR	25	48	7
SLR	25	48	7	96	96	4
TAP	25	96	2
TAP	25	96	7
XTP	25	288	3
XTP	25	288	5
XTP	25	336	3
XTP	25	336	5
TAP	26	48	2
TAP	26	48	4
TAP	26	96	3
TAP	26	96	5
TAP	26	144	3
TAP	26	144	4
TAP	26	192	2
TAP	26	192	5
TAP	26	240	1
TAP	26	240	6
TAP	26	288	0
STR	26	288	7
SCL	26	288	7	96	48	5
TAP	27	0	3
BST	27	0	7
SCR	27	0	7	96	48	1
TAP	27	72	3
STR	27	96	7
SCL	27	96	7	96	48	5
TAP	27	144	3
TAP	27	192	4
STR	27	192	7
SCR	27	192	7	96	48	1
TAP	27	264	4
STR	27	288	7
SCL	27	288	7	96	48	5
TAP	27	336	4
TAP	28	0	3
STR	28	0	7
SCR	28	0	7	96	48	1
TAP	28	72	3
TAP	28	96	7
TAP	28	144	3
TAP	28	192	3
TAP	28	192	6
TAP	28	240	2
TAP	28	240	5
STR	28	288	0
SCL	28	288	0	96	48	6
TAP	28	288	3
STR	29	0	0
SCR	29	0	0	96	48	2
TAP	29	0	3
TAP	29	72	3
STR	29	96	0
SCL	29	96	0	96	48	6
TAP	29	144	3
STR	29	192	0
SCR	29	192	0	96	48	2
TAP	29	192	4
TAP	29	264	4
TAP	29	288	0
TAP	29	336	4
TAP	30	0	3
TAP	30	0	5
STR	30	48	6
SCR	30	48	6	96	96	4
TAP	30	96	4
TTP	30	144	0	C	1	M1
XTP	30	240	0
XST	30	288	0
SI_	30	288	0	96	48	2
XTP	30	288	6
STR	31	0	0
SI_	31	0	0	96	48	6
TAP	31	0	4
TAP	31	72	4
STR	31	96	0
SI_	31	96	0	96	48	2
TAP	31	144	4
STR	31	192	0
SI_	31	192	0	96	48	6
TAP	31	192	3
TAP	31	264	3
STR	31	288	0
SI_	31	288	0	96	48	2
TAP	31	336	3
STR	32	0	0
SI_	32	0	0	96	48	6
TAP	32	0	4
TAP	32	72	4
STR	32	96	0
SI_	32	96	0	96	48	2
TAP	32	144	4
TAP	32	192	0
TAP	32	192	3
TAP	32	264	3
TAP	32	288	2
STR	32	336	1
SI_	32	336	1	96	48	6
STR	32	336	2
SCL	32	336	2	96	48	7
TAP	33	0	1
TAP	33	0	2
STR	33	144	5
SI_	33	144	5	96	48	2
STR	33	144	6
SCL	33	144	6	96	48	3
TAP	33	192	5
TAP	33	192	6
STR	33	336	0
SCR	33	336	0	96	48	3
STR	33	336	1
SI_	33	336	1	96	48	4
TAP	34	0	0
TAP	34	0	1
STR	34	48	0
SI_	34	48	0	96	48	5
STR	34	48	1
SCL	34	48	1	96	48	6
TAP	34	144	0
STR	34	144	1
SF_	34	144	1	96	48	5
TAP	34	240	1
TTP	34	241	0	C	1	M1
TAP	34	336	7
STR	35	0	7
SI_	35	0	7	96	48	4
TAP	35	72	0
STR	35	72	7
SI_	35	72	7	96	48	2
TAP	35	144	7
TAP	35	216	3
TAP	35	240	3
TAP	35	288	0
TAP	35	288	1
TAP	35	336	2
TAP	35	336	7
TAP	36	0	3
TAP	36	0	6
TAP	36	48	5
TAP	36	72	4
TAP	36	120	6
TAP	36	144	7
TAP	36	192	2
TAP	36	216	3
TAP	36	264	1
TAP	36	288	0
TAP	36	336	2
TAP	36	336	7
STR	37	0	3
SI_	37	0	3	96	48	0
STR	37	72	3
SI_	37	72	3	96	48	6
TAP	37	72	4
TAP	37	144	3
TAP	37	216	7
TAP	37	240	7
TAP	37	288	0
TAP	37	288	6
TAP	37	336	5
TAP	38	0	2
TAP	38	0	4
TAP	38	48	1
TAP	38	72	0
TAP	38	120	2
TAP	38	144	3
TAP	38	192	5
TAP	38	216	4
TAP	38	240	6
TAP	38	288	3
TAP	38	288	7
TAP	38	336	1
TAP	38	336	5
STR	39	0	0
SCR	39	0	0	96	48	3
STR	39	72	0
SCL	39	72	0	96	48	5
TAP	39	72	7
TAP	39	144	0
TAP	39	216	4
TAP	39	240	4
TAP	39	288	2
TAP	39	288	3
TAP	39	336	1
TAP	39	336	4
TAP	40	0	0
TAP	40	0	5
TAP	40	48	6
TAP	40	72	7
TAP	40	120	5
TAP	40	144	4
TAP	40	192	2
TAP	40	216	1
TAP	40	216	3
TAP	40	264	5
TAP	40	288	4
TAP	40	288	6
TAP	40	336	7
TAP	41	0	4
STR	41	0	6
SI_	41	0	6	96	48	2
TAP	41	48	0
TAP	41	72	0
TAP	41	144	1
STR	41	192	1
SI_	41	192	1	96	48	5
TAP	41	192	3
TAP	41	240	7
TAP	41	264	7
TAP	41	336	6
TAP	42	0	4
TAP	42	0	6
STR	42	48	3
SI_	42	48	3	96	48	0
STR	42	48	7
SI_	42	48	7	96	48	4
TAP	42	72	3
TAP	42	72	7
BST	42	144	3
SI_	42	144	3	96	48	5
BST	42	144	7
SI_	42	144	7	96	48	1
BST	42	240	3
SLL	42	240	3	96	432	6
BST	42	240	7
SLL	42	240	7	96	432	2
BRK	42	336	3
BRK	42	336	7

T_REC_TAP	239
T_REC_BRK	4
T_REC_XTP	9
T_REC_HLD	19
T_REC_XHO	0
T_REC_STR	63
T_REC_BST	6
T_REC_XST	4
T_REC_TTP	20
T_REC_THO	2
T_REC_SLD	73
T_REC_ALL	439
T_NUM_TAP	335
T_NUM_BRK	10
T_NUM_HLD	21
T_NUM_SLD	73
T_NUM_ALL	439
T_JUDGE_TAP	345
T_JUDGE_HLD	27
T_JUDGE_SLD	73
T_JUDGE_ALL	445
TTM_EACHPAIRS	74
TTM_SCR_TAP	167500
TTM_SCR_BRK	26000
TTM_SCR_HLD	21000
TTM_SCR_SLD	109500
TTM_SCR_ALL	324000
TTM_SCR_S	313350
TTM_SCR_SS	323000
TTM_RAT_ACV	10030

