VERSION	0.00.00	1.03.00
FES_MODE	0
BPM_DEF	128.000	128.000	128.000	128.000
MET_DEF	4	4
RESOLUTION	384
CLK_DEF	384
COMPATIBLE_CODE	MA2

BPM	0	0	128.000
MET	0	0	4	4

TAP	2	288	3
TAP	2	288	4
HLD	3	0	4	96
HLD	3	0	5	96
HLD	3	192	4	96
HLD	3	192	5	96
HLD	4	0	2	96
HLD	4	0	3	96
HLD	4	192	2	96
HLD	4	192	3	96
TTP	5	0	0	B	0	M1
TTP	5	0	0	C	0	M1
TTP	5	0	0	E	0	M1
TTP	5	0	1	B	0	M1
TTP	5	0	1	E	0	M1
TTP	5	0	2	B	0	M1
TTP	5	0	2	E	0	M1
TTP	5	0	3	B	0	M1
TTP	5	0	3	E	0	M1
TTP	5	0	4	E	0	M1
TTP	5	192	0	E	0	M1
TTP	5	192	4	B	0	M1
TTP	5	192	4	E	0	M1
TTP	5	192	5	B	0	M1
TTP	5	192	5	E	0	M1
TTP	5	192	6	B	0	M1
TTP	5	192	6	E	0	M1
TTP	5	192	7	B	0	M1
TTP	5	192	7	E	0	M1
TTP	6	0	0	B	0	M1
TTP	6	0	1	B	0	M1
TTP	6	0	1	E	0	M1
TTP	6	0	2	B	0	M1
TTP	6	0	2	E	0	M1
TTP	6	0	3	B	0	M1
TTP	6	0	3	E	0	M1
TTP	6	0	4	E	0	M1
TTP	6	192	4	B	0	M1
TTP	6	192	5	B	0	M1
TTP	6	192	5	E	0	M1
TTP	6	192	6	B	0	M1
TTP	6	192	6	E	0	M1
TTP	6	192	7	B	0	M1
TTP	6	192	7	E	0	M1
TTP	7	0	1	B	0	M1
TTP	7	0	2	B	0	M1
TTP	7	0	2	E	0	M1
TTP	7	0	3	B	0	M1
TTP	7	0	3	E	0	M1
TTP	7	0	4	E	0	M1
TTP	7	192	0	E	0	M1
TTP	7	192	6	B	0	M1
TTP	7	192	6	E	0	M1
TTP	7	192	7	B	0	M1
TTP	7	192	7	E	0	M1
TTP	8	0	3	B	0	M1
TTP	8	0	4	B	0	M1
TTP	8	0	4	E	0	M1
TTP	8	0	5	E	0	M1
TTP	8	192	1	B	0	M1
TTP	8	192	1	E	0	M1
TTP	8	192	2	E	0	M1
TTP	9	0	5	E	0	M1
TTP	9	0	6	E	0	M1
HLD	9	192	0	144
TTP	9	336	0	C	1	M1
BRK	10	288	7
HLD	11	0	5	96
TAP	11	48	4
HLD	11	96	2	96
TAP	11	144	3
HLD	11	192	6	96
TAP	11	240	4
TAP	11	288	3
TAP	11	336	2
TAP	11	336	4
HLD	12	0	1	96
TAP	12	48	0
HLD	12	96	6	96
TAP	12	144	7
TAP	12	192	0
TAP	12	240	0
TAP	12	288	1
TAP	12	288	7
HLD	13	0	2	96
TAP	13	48	3
HLD	13	96	5	96
TAP	13	144	4
HLD	13	192	1	96
TAP	13	240	3
TAP	13	288	4
TAP	13	336	3
TAP	13	336	5
HLD	14	0	6	96
TAP	14	48	7
HLD	14	96	1	96
TAP	14	144	0
TAP	14	192	7
TAP	14	240	6
TAP	14	288	0
TAP	14	288	5
HLD	15	0	6	96
TAP	15	48	4
HLD	15	96	2	96
TAP	15	144	3
HLD	15	192	5	96
TAP	15	240	4
TAP	15	288	3
TAP	15	336	2
TAP	15	336	4
HLD	16	0	1	96
TAP	16	48	0
HLD	16	96	6	96
TAP	16	144	7
TAP	16	192	0
TAP	16	240	1
TAP	16	288	2
TAP	16	288	4
HLD	17	0	6	48
HLD	17	48	4	48
TAP	17	96	5
TAP	17	144	5
HLD	17	192	1	48
HLD	17	240	3	48
TAP	17	288	2
TAP	17	336	2
TAP	18	0	2
TAP	18	0	3
TAP	18	48	2
TAP	18	48	3
TAP	18	96	3
TAP	18	96	4
TAP	18	144	3
TAP	18	144	4
TAP	18	192	4
TAP	18	192	5
TAP	18	240	3
TAP	18	240	6
BRK	18	288	2
BRK	18	288	7
TAP	19	0	1
TAP	19	48	3
TAP	19	96	2
TAP	19	144	2
TAP	19	192	6
TAP	19	240	4
TAP	19	288	5
TAP	19	336	5
HLD	20	0	3	96
TAP	20	48	4
HLD	20	96	6	96
TAP	20	144	5
HLD	20	192	3	96
TAP	20	240	4
HLD	20	288	6	96
TAP	20	336	5
TAP	21	0	2
TAP	21	48	2
TAP	21	96	3
TAP	21	144	1
TAP	21	192	6
TAP	21	240	6
TAP	21	288	4
TAP	21	336	5
HLD	22	0	1	96
TAP	22	48	2
HLD	22	96	4	96
TAP	22	144	3
TAP	22	192	2
TAP	22	240	2
TAP	22	288	1
TAP	22	288	3
TAP	23	0	5
TAP	23	48	5
TAP	23	96	4
TAP	23	144	6
TAP	23	192	1
TAP	23	240	1
TAP	23	288	0
TAP	23	336	2
HLD	24	0	5	96
TAP	24	48	4
HLD	24	96	1	96
TAP	24	144	2
HLD	24	192	6	96
TAP	24	240	5
TAP	24	288	4
TAP	24	336	3
TAP	24	336	5
HLD	25	0	2	144
HLD	25	48	4	144
HLD	25	192	3	96
HLD	25	240	5	192
BRK	25	336	4
TAP	26	96	4
TAP	26	96	5
TAP	26	144	4
TAP	26	144	5
TAP	26	192	3
TAP	26	192	4
TAP	26	240	3
TAP	26	240	4
STR	26	288	2
SI_	26	288	2	96	48	7
TAP	26	288	5
TAP	27	0	6
TAP	27	96	4
STR	27	96	5
SI_	27	96	5	96	48	0
TAP	27	192	1
STR	27	288	2
SI_	27	288	2	96	48	7
TAP	27	288	3
TAP	28	0	6
TAP	28	96	4
STR	28	96	5
SI_	28	96	5	96	48	0
TAP	28	192	1
TAP	28	288	2
TAP	28	336	2
HLD	29	0	1	72
TAP	29	0	3
TAP	29	72	0
TAP	29	144	2
TAP	29	144	7
HLD	29	192	6	72
TAP	29	264	7
TAP	29	336	0
TAP	29	336	5
TAP	30	0	1
TAP	30	0	4
STR	30	48	2
SI_	30	48	2	96	48	5
TAP	30	48	3
TTP	30	144	0	C	1	M1
TAP	30	240	6
XST	30	288	6
SI_	30	288	6	96	48	3
XST	30	288	7
SCR	30	288	7	96	48	2
STR	31	96	0
SCL	31	96	0	96	48	5
STR	31	96	1
SI_	31	96	1	96	48	4
STR	31	288	6
SCL	31	288	6	96	48	3
STR	31	288	7
SI_	31	288	7	96	48	2
STR	32	96	0
SI_	32	96	0	96	48	5
STR	32	96	1
SCR	32	96	1	96	48	4
XTP	32	288	4
XTP	32	288	5
TAP	33	0	3
STR	33	0	6
SCR	33	0	6	96	48	1
XST	33	192	1
SCL	33	192	1	96	48	6
TAP	33	192	3
XTP	34	0	4
XST	34	0	6
SLR	34	0	6	96	144	3
SLR	34	0	6	96	144	5
XTP	34	288	2
XTP	34	288	6
TAP	35	0	3
STR	35	0	5
SCR	35	0	5	96	96	0
STR	35	72	4
SCL	35	72	4	96	96	1
HLD	35	288	0	96
STR	36	0	7
SCR	36	0	7	96	96	2
STR	36	72	6
SCL	36	72	6	96	96	3
XTP	36	288	1
TAP	36	336	1
STR	37	0	0
SCL	37	0	0	96	96	5
STR	37	72	1
SCR	37	72	1	96	96	4
HLD	37	288	5	96
STR	38	0	7
SCR	38	0	7	96	96	2
STR	38	72	6
SCL	38	72	6	96	96	3
XTP	38	288	2
TAP	38	336	2
TAP	39	0	1
STR	39	0	3
SCR	39	0	3	96	96	6
STR	39	72	0
SCR	39	72	0	96	96	3
HLD	39	288	6	96
STR	40	0	7
SCR	40	0	7	96	96	2
STR	40	72	6
SCL	40	72	6	96	96	3
XTP	40	288	2
TAP	40	336	2
XST	41	0	1
SI_	41	0	1	96	48	5
XST	41	0	3
SI_	41	0	3	96	48	6
XTP	41	192	4
XST	41	192	6
SI_	41	192	6	96	48	2
TAP	41	336	1
HLD	42	0	1	72
HLD	42	72	0	72
HLD	42	144	7	612
STR	42	240	5
SI_	42	240	5	96	420	1

T_REC_TAP	131
T_REC_BRK	4
T_REC_XTP	9
T_REC_HLD	49
T_REC_XHO	0
T_REC_STR	25
T_REC_BST	0
T_REC_XST	7
T_REC_TTP	56
T_REC_THO	0
T_REC_SLD	33
T_REC_ALL	314
T_NUM_TAP	228
T_NUM_BRK	4
T_NUM_HLD	49
T_NUM_SLD	33
T_NUM_ALL	314
T_JUDGE_TAP	232
T_JUDGE_HLD	110
T_JUDGE_SLD	33
T_JUDGE_ALL	375
TTM_EACHPAIRS	46
TTM_SCR_TAP	114000
TTM_SCR_BRK	10400
TTM_SCR_HLD	49000
TTM_SCR_SLD	49500
TTM_SCR_ALL	222900
TTM_SCR_S	215850
TTM_SCR_SS	222500
TTM_RAT_ACV	10017

