VERSION	0.00.00	1.03.00
FES_MODE	0
BPM_DEF	128.000	128.000	128.000	128.000
MET_DEF	4	4
RESOLUTION	384
CLK_DEF	384
COMPATIBLE_CODE	MA2

BPM	0	0	128.000
MET	0	0	4	4

HLD	3	0	5	192
HLD	3	192	4	192
HLD	4	0	3	192
TAP	4	192	2
HLD	5	0	1	192
HLD	5	192	0	192
HLD	6	0	7	192
HLD	6	192	6	192
HLD	7	0	5	192
HLD	7	192	4	192
HLD	8	0	3	192
HLD	8	192	2	192
HLD	9	0	1	192
HLD	9	192	0	144
BRK	10	288	0
TAP	11	0	1
TAP	11	96	2
TAP	11	192	1
TAP	11	192	3
TAP	12	0	5
TAP	12	96	4
TAP	12	192	3
TAP	12	192	5
TAP	13	0	6
TAP	13	96	5
TAP	13	192	4
TAP	13	288	4
TAP	14	0	3
TAP	14	96	2
TAP	14	192	2
TAP	14	192	3
TAP	15	0	2
TAP	15	96	2
TAP	15	192	1
TAP	15	192	3
TAP	16	0	5
TAP	16	96	5
TAP	16	192	4
TAP	16	192	6
TAP	17	0	5
TAP	17	96	4
TAP	17	192	3
TAP	17	288	2
TAP	18	0	0
TAP	18	0	1
TAP	18	96	0
TAP	18	96	1
XTP	18	192	2
XTP	18	192	7
STR	19	0	1
SCR	19	0	1	96	192	4
TAP	20	0	5
TAP	20	96	5
TAP	20	192	4
TAP	20	192	6
STR	21	0	7
SUL	21	0	7	96	192	2
TAP	22	0	1
TAP	22	96	1
TAP	22	192	0
TAP	22	192	1
STR	23	0	2
SCR	23	0	2	96	192	5
TAP	24	0	6
TAP	24	96	6
TAP	24	192	7
TAP	24	288	7
XHO	25	0	0	96
XHO	25	0	7	96
TAP	25	192	0
TAP	25	192	7
TAP	25	288	0
TAP	25	288	7
TAP	26	0	1
TAP	26	0	6
TAP	26	96	2
TAP	26	96	5
TAP	26	192	3
TAP	26	192	4
TAP	26	288	3
TAP	26	288	4
BRK	27	0	2
TAP	27	96	2
TAP	27	192	1
TAP	27	192	3
TAP	27	288	4
TAP	28	0	5
TAP	28	96	5
TAP	28	192	4
TAP	28	192	6
TAP	29	0	3
TAP	29	96	3
TAP	29	192	2
TAP	29	288	1
TAP	30	0	0
TAP	30	96	7
XTP	30	192	0
XTP	30	192	6
TAP	31	0	6
TAP	31	0	7
TAP	31	96	6
TAP	31	96	7
TAP	31	192	0
TAP	31	192	5
TAP	31	288	1
TAP	32	0	0
TAP	32	0	1
TAP	32	96	0
TAP	32	96	1
TAP	32	192	2
TAP	32	192	7
TTP	33	0	2	E	0	L1
TTP	33	96	2	B	0	L1
TTP	33	192	3	B	0	L1
TTP	33	288	4	B	0	L1
TTP	34	0	5	B	0	L1
TTP	34	96	6	E	0	L1
TTP	34	192	0	C	0	L1
STR	35	0	0
SCR	35	0	0	96	192	4
STR	36	0	5
SCR	36	0	5	96	192	1
STR	37	0	2
SCR	37	0	2	96	192	6
TAP	38	0	7
TAP	38	96	7
TAP	38	192	0
TAP	38	192	6
TTP	39	0	6	B	0	L1
TTP	39	96	0	C	0	L1
TTP	39	192	2	B	0	L1
TTP	40	0	0	B	0	L1
TTP	40	96	0	C	0	L1
TTP	40	192	4	B	0	L1
TAP	41	0	3
TAP	41	0	5
TAP	41	96	3
TAP	41	96	5
TAP	41	192	2
TAP	41	192	4
TAP	41	288	2
TAP	41	288	4
TAP	42	0	1
TAP	42	96	0
TAP	42	192	7
XTP	42	288	0
XTP	42	288	6
XST	42	336	0
SI_	42	336	0	96	336	4
XTP	42	336	6

T_REC_TAP	99
T_REC_BRK	2
T_REC_XTP	7
T_REC_HLD	13
T_REC_XHO	2
T_REC_STR	6
T_REC_BST	0
T_REC_XST	1
T_REC_TTP	13
T_REC_THO	0
T_REC_SLD	7
T_REC_ALL	150
T_NUM_TAP	126
T_NUM_BRK	2
T_NUM_HLD	15
T_NUM_SLD	7
T_NUM_ALL	150
T_JUDGE_TAP	128
T_JUDGE_HLD	55
T_JUDGE_SLD	7
T_JUDGE_ALL	190
TTM_EACHPAIRS	33
TTM_SCR_TAP	63000
TTM_SCR_BRK	5200
TTM_SCR_HLD	15000
TTM_SCR_SLD	10500
TTM_SCR_ALL	93700
TTM_SCR_S	90700
TTM_SCR_SS	93500
TTM_RAT_ACV	10021

