VERSION	0.00.00	1.04.00
FES_MODE	0
BPM_DEF	147.000	147.000	150.000	138.000
MET_DEF	4	4
RESOLUTION	384
CLK_DEF	384
COMPATIBLE_CODE	MA2

BPM	0	0	147.000
BPM	2	0	149.200
BPM	2	336	146.200
BPM	4	0	146.800
BPM	5	192	147.000
BPM	6	0	147.200
BPM	10	0	147.000
BPM	11	192	146.000
BPM	12	0	145.600
BPM	12	336	147.000
BPM	20	192	146.500
BPM	21	0	146.000
BPM	21	192	144.000
BPM	22	0	145.000
BPM	22	192	146.500
BPM	23	0	147.000
BPM	28	0	148.600
BPM	30	0	147.000
BPM	31	0	146.600
BPM	32	192	146.800
BPM	33	0	147.000
BPM	33	192	147.200
BPM	35	0	146.800
BPM	36	0	147.000
BPM	38	0	147.200
BPM	39	0	145.000
BPM	39	192	143.000
BPM	40	0	146.800
BPM	40	192	147.000
BPM	41	0	147.200
BPM	44	0	147.000
BPM	46	0	147.000
BPM	46	192	146.600
BPM	47	0	150.000
BPM	48	0	144.000
BPM	48	96	138.000
BPM	49	0	144.000
BPM	49	192	147.000
BPM	49	288	148.000
BPM	50	0	148.800
BPM	50	192	150.000
BPM	51	0	148.200
BPM	53	192	147.400
BPM	54	0	147.200
BPM	54	192	147.000
BPM	56	192	146.000
BPM	57	0	147.000
BPM	60	192	146.000
BPM	61	0	145.000
BPM	62	192	147.000
MET	0	0	4	4

NMHLD	2	0	0	32
NMHLD	2	0	7	32
NMHLD	2	64	1	32
NMHLD	2	64	3	32
NMTAP	2	128	3
NMTAP	2	128	4
NMHLD	2	192	4	32
NMHLD	2	192	6	32
NMTAP	2	256	0
NMSTR	2	256	7
BRSCL	2	256	7	96	224	0
NMTTP	2	336	0	C	1	M1
NMHLD	4	0	0	72
NMHLD	4	72	2	96
EXTAP	4	168	3
NMHLD	4	288	7	72
NMHLD	4	360	5	96
EXTAP	5	72	4
NMSTR	5	192	6
NMSI_	5	192	6	96	48	3
NMSTR	5	192	7
NMSI_	5	192	7	96	48	2
NMTAP	5	288	6
NMTAP	5	288	7
NMHLD	6	0	1	96
NMTAP	6	0	3
NMTAP	6	96	2
NMSTR	6	144	2
NMSUR	6	144	2	96	48	6
NMTAP	6	240	7
NMSTR	6	288	7
NMSUR	6	288	7	96	48	3
NMTAP	7	0	4
NMSTR	7	48	4
NMSI_	7	48	4	96	48	7
NMTAP	7	144	0
NMSTR	7	192	0
NMSI_	7	192	0	96	48	3
NMSI_	7	192	0	96	48	5
NMTAP	8	0	4
NMHLD	8	0	6	96
NMTAP	8	96	5
NMSTR	8	144	5
NMSUL	8	144	5	96	48	1
NMTAP	8	240	0
NMSTR	8	288	0
NMSUL	8	288	0	96	48	4
NMHLD	9	0	2	96
EXSTR	9	96	3
NMSCL	9	96	3	96	48	0
NMSCR	9	96	3	96	48	6
NMSTR	9	192	3
NMSI_	9	192	3	96	48	7
NMTAP	10	0	1
NMTAP	10	0	5
NMTAP	10	72	2
NMTAP	10	72	6
NMHLD	10	144	3	96
NMSTR	10	144	7
NMSLL	10	144	7	96	96	3
NMTAP	10	288	2
NMTAP	10	360	1
NMSTR	11	48	0
NMSXL	11	48	0	96	144	4
NMHLD	11	48	4	96
NMTAP	11	192	5
NMTAP	11	288	6
NMTAP	12	0	4
NMTAP	12	0	6
NMTAP	12	72	2
NMTAP	12	72	4
NMTAP	12	144	1
NMTAP	12	144	3
NMTAP	12	192	1
NMTAP	12	192	3
NMSTR	12	264	3
NMSCL	12	264	3	96	216	4
NMTAP	12	264	5
BRTAP	12	336	7
NMTAP	14	0	3
NMTAP	14	0	6
NMTAP	14	48	2
NMTAP	14	96	1
NMSTR	14	96	4
NMSI_	14	96	4	96	48	6
NMTAP	14	144	3
NMSTR	14	192	2
NMSI_	14	192	2	96	48	0
NMTAP	14	192	4
NMTAP	14	288	2
NMSTR	14	288	3
NMSUR	14	288	3	96	48	7
EXTAP	15	0	0
NMTAP	15	0	3
EXTAP	15	48	0
NMTAP	15	144	1
NMTAP	15	144	5
NMTAP	15	192	1
NMTAP	15	192	5
NMTAP	15	240	6
NMSTR	15	288	7
NMSXR	15	288	7	96	96	7
NMSTR	16	0	0
NMSXL	16	0	0	96	96	0
NMSTR	16	192	5
NMSSR	16	192	5	96	144	1
NMTAP	16	288	0
NMTAP	17	0	0
NMTAP	17	96	0
NMTAP	17	192	0
NMTAP	17	240	1
NMTAP	17	288	2
NMTAP	17	288	3
NMTAP	17	336	4
NMTAP	18	0	3
NMTAP	18	0	5
NMTAP	18	48	6
NMTAP	18	96	2
NMTAP	18	96	7
NMTAP	18	144	1
NMSTR	18	192	0
NMSSL	18	192	0	96	96	4
NMSTR	18	288	4
NMSCR	18	288	4	96	192	3
EXTAP	19	0	7
NMTAP	19	288	3
NMSTR	19	288	5
NMSXL	19	288	5	96	144	3
NMTAP	19	336	4
NMTAP	20	0	5
NMSTR	20	144	0
NMSCR	20	144	0	96	144	4
NMTAP	20	192	0
EXTAP	20	264	5
EXTAP	20	336	6
NMSTR	21	0	6
NMSI_	21	0	6	96	72	1
CNSI_	21	168	1	0	48	5
CNSI_	21	216	5	0	72	2
NMTAP	21	288	1
NMSTR	22	0	0
NMSI_	22	0	0	96	48	4
NMSUR	22	0	0	96	48	4
NMTTP	22	96	0	A	1	M1
NMTTP	22	96	0	D	0	M1
NMTTP	22	96	1	D	0	M1
NMTAP	22	192	7
NMTAP	22	240	7
NMTAP	22	288	5
NMTAP	22	336	5
NMSTR	23	0	3
NMSI_	23	0	3	96	48	7
NMSUL	23	0	3	96	48	7
NMTTP	23	96	3	A	1	M1
NMTTP	23	96	3	D	0	M1
NMTTP	23	96	4	D	0	M1
NMTAP	23	192	6
NMTAP	23	288	2
NMTAP	23	288	4
NMTAP	23	336	1
NMTAP	24	0	0
NMSTR	24	0	7
NMSI_	24	0	7	96	48	3
NMSUL	24	0	7	96	48	3
NMTTP	24	96	0	D	0	M1
NMTTP	24	96	7	A	1	M1
NMTTP	24	96	7	D	0	M1
NMTAP	24	192	1
NMTAP	24	288	3
NMTAP	24	288	6
NMTAP	24	336	5
NMSTR	25	0	4
NMSCL	25	0	4	96	48	1
NMTAP	25	0	5
BRSTR	25	96	4
NMSI_	25	96	4	96	48	0
BRSTR	25	96	6
NMSI_	25	96	6	96	48	3
EXTAP	25	288	1
EXTAP	25	288	3
NMSTR	26	0	0
NMSV_	26	0	0	96	48	3
NMSV_	26	0	0	96	48	5
NMTAP	26	0	4
NMTTP	26	96	0	A	1	M1
NMTTP	26	96	0	D	0	M1
NMTTP	26	96	1	D	0	M1
NMTAP	26	192	2
NMTAP	26	192	6
NMTAP	26	240	3
NMTAP	26	288	4
NMTAP	26	288	5
NMTAP	26	336	6
NMTAP	27	0	1
NMSTR	27	0	7
NMSV_	27	0	7	96	48	2
NMSV_	27	0	7	96	48	4
NMTTP	27	96	0	D	0	M1
NMTTP	27	96	7	A	1	M1
NMTTP	27	96	7	D	0	M1
NMTAP	27	192	1
NMTAP	27	192	5
NMTAP	27	288	2
NMTAP	27	288	6
NMTAP	27	336	2
NMTAP	27	336	6
NMHLD	28	0	7	72
NMHLD	28	72	5	72
NMTAP	28	144	4
NMHLD	28	192	3	72
NMHLD	28	264	1	72
NMTAP	28	336	0
NMTAP	29	0	0
NMTAP	29	72	0
NMTAP	29	72	7
NMTAP	29	96	0
NMSTR	29	96	7
NMSUL	29	96	7	96	48	3
NMTAP	29	192	3
NMTAP	29	192	7
NMTAP	29	264	2
NMTAP	29	336	1
NMHLD	30	0	1	96
NMHLD	30	0	7	96
BRTAP	30	192	3
BRTAP	30	192	5
NMSTR	30	288	4
NMSXR	30	288	4	96	120	6
CNSCR	31	120	6	0	72	2
EXSTR	31	288	6
BRSCL	31	288	6	96	96	2
EXSTR	31	288	7
BRSUL	31	288	7	96	96	1
EXTAP	32	144	0
EXSTR	32	192	0
NMSCR	32	192	0	96	96	5
EXTAP	32	264	4
EXTAP	32	336	6
EXHLD	33	0	6	96
NMTAP	33	96	4
NMTAP	33	168	3
NMTAP	33	168	7
NMTAP	33	192	3
NMTAP	33	192	7
NMSTR	33	288	2
NMSI_	33	288	2	96	48	7
NMHLD	33	360	4	408
NMTAP	34	0	2
NMTTP	34	144	5	B	0	M1
NMTTP	34	144	5	A	1	M1
NMTTP	34	192	7	B	0	M1
NMTTP	34	192	7	A	1	M1
NMTTP	34	264	4	B	0	M1
NMTTP	34	264	4	E	0	M1
NMTTP	34	264	4	D	1	M1
NMTTP	34	336	2	B	0	M1
NMTTP	34	336	2	A	1	M1
NMTTP	35	0	0	B	0	M1
NMTTP	35	0	0	A	1	M1
NMTAP	35	96	7
EXTAP	35	144	3
EXTAP	35	168	3
EXTAP	35	192	3
NMTAP	35	240	1
NMTAP	35	288	2
NMTAP	35	288	5
NMTAP	35	336	6
NMSTR	36	0	3
NMSCL	36	0	3	96	48	0
NMSTR	36	0	7
NMSCL	36	0	7	96	48	4
NMTAP	36	96	3
NMTAP	36	96	7
NMSTR	36	192	1
NMSCR	36	192	1	96	48	4
NMSTR	36	192	5
NMSCR	36	192	5	96	48	0
NMTAP	36	288	1
NMTAP	36	288	5
NMTAP	37	0	0
NMTAP	37	0	4
NMTAP	37	48	0
NMSTR	37	48	4
NMSCL	37	48	4	96	48	1
EXTAP	37	144	0
EXTAP	37	160	7
EXTAP	37	176	6
EXTAP	37	192	5
EXTAP	37	288	3
EXSTR	37	288	5
NMSI_	37	288	5	96	48	0
NMSTR	38	0	2
NMSCR	38	0	2	96	48	5
NMTAP	38	0	5
NMTAP	38	96	2
NMSTR	38	96	6
NMSCR	38	96	6	96	48	1
NMSTR	38	192	3
NMSI_	38	192	3	96	48	7
NMTAP	38	192	6
NMTAP	38	288	3
NMSTR	38	288	5
NMSXL	38	288	5	96	96	3
NMTTP	39	0	0	C	1	M1
CNSCL	39	96	3	0	96	0
EXSTR	39	288	0
BRSUR	39	288	0	96	96	6
EXSTR	39	288	1
BRSCR	39	288	1	96	96	5
EXTAP	40	144	7
EXSTR	40	192	7
NMSCL	40	192	7	96	96	2
NMTAP	40	264	3
NMTAP	40	336	1
NMHLD	41	0	1	96
NMTAP	41	96	7
NMTAP	41	168	2
NMTAP	41	168	6
NMTAP	41	192	2
NMTAP	41	192	6
NMSTR	41	288	5
NMSI_	41	288	5	96	48	2
NMHLD	41	360	3	408
NMTAP	42	0	5
NMTTP	42	144	2	B	0	M1
NMTTP	42	144	2	A	1	M1
NMTTP	42	192	0	B	0	M1
NMTTP	42	192	0	A	1	M1
NMTTP	42	264	3	B	0	M1
NMTTP	42	264	4	E	0	M1
NMTTP	42	264	4	D	1	M1
NMTTP	42	336	5	B	0	M1
NMTTP	42	336	5	A	1	M1
NMTTP	43	0	7	B	0	M1
NMTTP	43	0	7	A	1	M1
NMTAP	43	96	0
EXTAP	43	144	4
EXTAP	43	168	4
EXTAP	43	192	4
NMTAP	43	240	7
NMTAP	43	288	2
NMTAP	43	288	6
NMTAP	43	336	1
NMSTR	44	0	0
NMSCR	44	0	0	96	48	3
NMTAP	44	96	0
NMTAP	44	96	4
NMTAP	44	144	5
NMSTR	44	192	3
NMSCL	44	192	3	96	48	0
NMSTR	44	192	6
NMSCL	44	192	6	96	48	3
NMTAP	44	288	3
NMTAP	44	288	6
BRHLD	45	0	1	48
BRHLD	45	0	3	48
BRHLD	45	96	4	48
BRHLD	45	96	6	48
BRTAP	45	192	0
BRTAP	45	192	7
NMTAP	45	288	1
NMTAP	45	288	5
NMTAP	45	360	0
NMTAP	45	360	6
NMSTR	46	0	0
NMSI_	46	0	0	96	48	4
NMTAP	46	0	6
NMTAP	46	96	0
NMTAP	46	96	5
NMTAP	46	192	3
NMHLD	46	192	6	72
NMHLD	46	264	5	72
NMSTR	46	336	4
NMSXL	46	336	4	96	240	3
NMTAP	47	0	4
NMTAP	47	72	2
NMTAP	47	144	1
NMTAP	47	192	1
NMTAP	47	264	0
NMTAP	47	336	7
NMSTR	48	0	7
NMSLR	48	0	7	96	144	4
EXTAP	48	72	4
EXTAP	48	96	4
NMTAP	48	192	5
NMTAP	48	288	6
NMHLD	49	0	6	144
NMTAP	49	144	4
NMHLD	49	192	4	96
NMSTR	49	288	3
NMSCL	49	288	3	96	96	1
NMSTR	50	0	1
NMSCL	50	0	1	96	96	7
NMSTR	50	96	7
NMSCL	50	96	7	96	96	5
NMTAP	50	192	5
NMTAP	50	288	3
NMTAP	50	360	2
NMHLD	51	0	2	384
NMTAP	51	192	3
NMTAP	51	288	0
NMSTR	52	0	7
NMSLL	52	0	7	96	48	3
NMTAP	52	96	3
NMSTR	52	144	2
NMSLL	52	144	2	96	48	6
NMTAP	52	240	4
BRSTR	52	288	5
NMSUL	52	288	5	96	144	4
NMTTP	53	0	0	C	1	M1
CNSCL	53	144	4	0	144	6
NMTAP	54	0	0
NMTAP	54	72	1
NMTAP	54	72	5
NMTAP	54	96	1
NMTAP	54	96	5
NMTTP	54	192	0	C	0	M1
NMTTP	54	192	3	B	0	M1
NMTTP	54	192	4	B	0	M1
NMTAP	54	288	0
NMTAP	54	288	1
NMTAP	54	336	0
NMTAP	54	336	7
NMTAP	55	0	6
NMSTR	55	0	7
NMSI_	55	0	7	96	48	4
NMTAP	55	72	7
BXHLD	55	96	6	96
NMTAP	55	192	3
NMTAP	55	288	6
NMTAP	55	288	7
NMTAP	55	336	0
NMTAP	55	336	7
NMSTR	56	0	0
NMSI_	56	0	0	96	48	3
NMTAP	56	0	1
NMTAP	56	72	0
NMHLD	56	96	1	96
NMTAP	56	192	4
NMTAP	56	288	3
NMTAP	56	288	5
NMTAP	57	0	6
NMTAP	57	24	7
NMTAP	57	48	6
BXTAP	57	96	0
BXTAP	57	96	5
NMTAP	57	144	2
NMTAP	57	168	3
NMSTR	57	192	2
NMSI_	57	192	2	96	48	7
BRTAP	57	288	2
BRTAP	57	288	4
NMTAP	58	0	5
NMTAP	58	24	4
NMTAP	58	48	5
NMTAP	58	96	3
NMTAP	58	96	6
NMTAP	58	144	1
NMTAP	58	168	0
NMSTR	58	192	1
NMSI_	58	192	1	96	48	4
BRTAP	58	288	1
BRTAP	58	288	7
NMTAP	59	0	5
NMTAP	59	24	4
NMTAP	59	48	6
BXTAP	59	96	1
BXTAP	59	96	7
NMTAP	59	144	2
NMTAP	59	168	3
NMSTR	59	192	1
NMSCR	59	192	1	96	48	4
BRTAP	59	288	1
BRTAP	59	288	7
NMTAP	60	0	5
NMTAP	60	24	4
NMTAP	60	48	7
NMTAP	60	96	1
NMTAP	60	96	6
NMTAP	60	144	2
NMTAP	60	168	3
NMSTR	60	192	0
NMSF_	60	192	0	96	48	4
BRTAP	60	288	0
NMTAP	61	0	6
NMTAP	61	24	4
NMTAP	61	48	5
NMTAP	61	144	1
NMTAP	61	168	3
NMSTR	61	192	2
NMSI_	61	192	2	96	48	0
NMTAP	61	216	3
NMTAP	61	240	2
EXTAP	62	0	0
EXTAP	62	16	7
EXTAP	62	32	0
EXTAP	62	48	7
EXTAP	62	64	0
EXTAP	62	80	7
EXTAP	62	96	0
EXTAP	62	112	7
EXTAP	62	128	0
EXTAP	62	144	7
EXTAP	62	160	0
EXTAP	62	176	7
EXSTR	62	192	0
BRSI_	62	192	0	96	48	4
BRTAP	62	288	3
CNSI_	62	336	4	0	48	0
BRTAP	62	336	7

T_REC_TAP	216
T_REC_BRK	14
T_REC_XTP	38
T_REC_BXX	4
T_REC_HLD	30
T_REC_XHO	1
T_REC_BHO	4
T_REC_BXH	1
T_REC_STR	61
T_REC_BST	3
T_REC_XST	9
T_REC_XBS	0
T_REC_TTP	43
T_REC_THO	0
T_REC_SLD	74
T_REC_BSL	6
T_REC_ALL	504
T_NUM_TAP	367
T_NUM_BRK	32
T_NUM_HLD	31
T_NUM_SLD	74
T_NUM_ALL	504
T_JUDGE_TAP	388
T_JUDGE_HLD	83
T_JUDGE_SLD	80
T_JUDGE_ALL	551
TTM_EACHPAIRS	93
TTM_SCR_TAP	183500
TTM_SCR_BRK	83200
TTM_SCR_HLD	31000
TTM_SCR_SLD	111000
TTM_SCR_ALL	408700
TTM_SCR_S	393350
TTM_SCR_SS	405500
TTM_RAT_ACV	10078

