VERSION	0.00.00	1.04.00
FES_MODE	0
BPM_DEF	147.000	147.000	150.000	138.000
MET_DEF	4	4
RESOLUTION	384
CLK_DEF	384
COMPATIBLE_CODE	MA2

BPM	0	0	147.000
BPM	2	0	149.200
BPM	2	336	146.200
BPM	4	0	146.800
BPM	5	192	147.000
BPM	6	0	147.200
BPM	10	0	147.000
BPM	11	192	146.000
BPM	12	0	145.600
BPM	12	336	147.000
BPM	20	192	146.500
BPM	21	0	146.000
BPM	21	192	144.000
BPM	22	0	145.000
BPM	22	192	146.500
BPM	23	0	147.000
BPM	28	0	148.600
BPM	30	0	147.000
BPM	31	0	146.600
BPM	32	192	146.800
BPM	33	0	147.000
BPM	33	192	147.200
BPM	35	0	146.800
BPM	36	0	147.000
BPM	38	0	147.200
BPM	39	0	145.000
BPM	39	192	143.000
BPM	40	0	146.800
BPM	40	192	147.000
BPM	41	0	147.200
BPM	44	0	147.000
BPM	46	0	147.000
BPM	46	192	146.600
BPM	47	0	150.000
BPM	48	0	144.000
BPM	48	96	138.000
BPM	49	0	144.000
BPM	49	192	147.000
BPM	49	288	148.000
BPM	50	0	148.800
BPM	50	192	150.000
BPM	51	0	148.200
BPM	53	192	147.400
BPM	54	0	147.200
BPM	54	192	147.000
BPM	56	192	146.000
BPM	57	0	147.000
BPM	60	192	146.000
BPM	61	0	145.000
BPM	62	192	147.000
MET	0	0	4	4

EXHLD	2	0	5	64
EXHLD	2	64	4	64
EXHLD	2	128	3	64
EXHLD	2	192	2	64
EXTAP	2	256	1
BXHLD	2	336	0	336
BXHLD	2	336	7	336
NMTAP	4	0	1
NMTAP	4	72	2
EXHLD	4	168	3	120
NMTAP	4	288	6
NMTAP	4	360	5
EXHLD	5	72	4	120
NMSTR	5	192	3
NMSI_	5	192	3	96	48	0
BRTAP	6	0	7
NMTAP	6	96	6
NMTAP	6	144	6
NMTAP	6	240	5
NMTAP	6	288	5
NMTAP	7	0	4
NMTAP	7	48	4
NMTAP	7	144	3
NMTAP	7	144	5
NMHLD	7	192	3	96
NMTAP	7	192	5
NMTAP	7	288	0
NMTAP	8	0	1
NMTAP	8	96	2
NMTAP	8	144	2
NMTAP	8	240	3
NMTAP	8	288	3
NMTAP	9	0	4
NMTAP	9	48	4
NMTAP	9	144	3
NMTAP	9	144	5
NMTAP	9	192	3
NMHLD	9	192	5	96
NMTAP	9	288	7
EXHLD	10	0	1	144
NMSTR	10	72	3
NMSI_	10	72	3	96	48	5
NMHLD	10	288	6	144
NMSTR	10	360	4
NMSI_	10	360	4	96	48	2
NMTAP	11	192	1
NMTAP	11	192	4
NMTAP	11	288	2
NMTAP	11	288	5
NMHLD	12	0	6	72
NMHLD	12	72	4	72
NMTAP	12	144	3
NMHLD	12	192	2	72
NMHLD	12	264	0	72
BXSTR	12	336	1
BRSCL	12	336	1	96	240	4
NMTAP	14	0	1
NMTAP	14	48	1
NMTAP	14	96	3
NMTAP	14	144	3
NMHLD	14	192	2	96
NMHLD	14	288	6	288
NMSTR	15	0	4
NMSI_	15	0	4	96	96	7
NMTAP	15	288	0
NMTAP	15	336	0
NMSTR	16	0	0
NMSI_	16	0	0	96	96	3
NMTAP	16	288	1
NMSTR	17	0	1
NMSV_	17	0	1	96	48	2
CNSI_	17	144	2	0	144	4
NMTAP	18	0	6
NMTAP	18	48	6
NMTAP	18	96	4
NMTAP	18	144	4
NMHLD	18	192	5	96
NMHLD	18	288	1	288
NMTAP	18	352	3
NMSTR	19	0	3
NMSI_	19	0	3	96	96	7
NMTAP	19	288	0
NMTAP	19	336	0
NMHLD	20	0	0	576
NMTAP	20	144	7
NMSTR	20	192	7
NMSI_	20	192	7	96	48	5
CNSI_	20	336	5	0	48	3
CNSI_	21	0	3	0	48	1
CNSI_	21	48	1	0	144	6
NMTAP	21	288	7
NMTAP	22	0	1
NMHLD	22	0	7	336
BXTAP	22	96	4
NMTAP	22	192	6
NMTAP	22	240	6
NMTAP	22	288	6
NMHLD	22	336	6	240
NMTAP	23	48	0
NMHLD	23	96	0	96
NMTAP	23	336	1
NMHLD	24	0	1	192
BXTAP	24	96	3
NMHLD	24	192	5	288
NMTAP	24	288	6
NMSTR	24	336	6
NMSI_	24	336	6	96	48	3
NMTAP	25	192	0
NMTAP	25	288	1
NMTAP	25	288	7
NMHLD	26	0	2	336
NMTAP	26	0	6
BXTAP	26	96	0
NMTAP	26	192	3
NMTAP	26	240	3
NMTAP	26	288	3
NMHLD	26	336	3	240
NMTAP	27	48	7
NMHLD	27	96	7	96
NMTAP	27	288	4
NMTAP	27	336	5
NMSTR	28	0	3
NMSXR	28	0	3	96	288	7
NMHLD	28	0	6	384
NMTAP	29	192	0
NMTAP	29	192	5
NMTAP	29	264	2
NMTAP	29	264	7
NMTAP	29	336	1
NMTAP	29	336	5
NMSTR	30	0	1
NMSI_	30	0	1	96	48	6
NMSTR	30	0	5
NMSI_	30	0	5	96	48	2
BXHLD	30	192	0	192
BXHLD	30	192	7	192
NMTAP	31	288	3
NMTAP	31	288	4
EXTAP	32	0	1
EXHLD	32	0	7	192
NMTAP	32	144	5
NMTAP	32	192	5
NMTAP	32	264	0
NMTAP	32	264	6
NMTAP	32	336	1
NMTAP	32	336	5
EXHLD	33	0	1	192
EXSTR	33	0	4
NMSI_	33	0	4	96	48	2
CNSI_	33	144	2	0	96	7
NMHLD	33	288	2	96
NMTAP	33	288	6
NMTAP	33	360	5
EXHLD	34	0	5	384
NMTAP	34	144	3
NMTAP	34	192	4
NMTAP	34	264	6
NMTAP	34	336	7
NMSTR	35	0	0
NMSCR	35	0	0	96	96	4
NMTAP	35	240	6
NMTAP	35	288	6
NMHLD	35	288	7	192
NMHLD	36	0	4	480
NMTTP	36	192	5	A	0	M1
NMTTP	36	288	0	A	0	M1
NMTTP	37	0	2	A	0	M1
NMTTP	37	96	0	C	0	M1
NMHLD	37	192	0	96
NMHLD	37	192	6	96
NMTAP	38	0	4
NMTAP	38	0	5
NMTAP	38	96	2
NMTAP	38	96	3
NMSTR	38	192	0
NMSI_	38	192	0	96	48	5
NMSTR	38	192	1
NMSI_	38	192	1	96	48	4
NMTTP	39	0	0	B	0	M1
NMTTP	39	0	0	E	1	M1
NMTTP	39	0	1	B	0	M1
NMTTP	39	0	6	B	0	M1
NMTTP	39	0	7	B	0	M1
NMTAP	39	288	3
NMTAP	39	288	4
EXHLD	40	0	0	192
EXTAP	40	0	6
NMTAP	40	144	2
NMTAP	40	192	2
NMTAP	40	264	1
NMTAP	40	264	7
NMTAP	40	336	2
NMTAP	40	336	6
EXSTR	41	0	3
NMSI_	41	0	3	96	48	5
EXHLD	41	0	6	192
CNSI_	41	144	5	0	96	0
NMTAP	41	288	1
NMHLD	41	288	5	96
NMTAP	41	360	2
EXHLD	42	0	2	384
NMTAP	42	144	4
NMTAP	42	192	3
NMTAP	42	264	1
NMTAP	42	336	0
NMSTR	43	0	7
NMSCL	43	0	7	96	96	3
NMTAP	43	240	2
NMTAP	43	288	1
NMTAP	43	336	0
NMHLD	44	0	7	96
NMTAP	44	144	4
NMTAP	44	144	6
NMHLD	44	192	4	96
NMTAP	44	192	6
NMHLD	44	288	0	96
NMHLD	45	0	1	96
NMHLD	45	96	2	96
NMHLD	45	192	3	96
NMHLD	45	288	4	96
NMTAP	46	0	5
NMTAP	46	96	6
NMTAP	46	96	7
NMHLD	46	192	0	72
NMTAP	46	192	1
NMTAP	46	264	3
NMTAP	46	336	4
NMTAP	46	336	6
NMSTR	47	0	4
BRSI_	47	0	4	96	48	0
NMHLD	47	0	6	480
CNSLR	47	144	0	0	240	5
NMHLD	48	96	7	96
NMHLD	48	192	0	96
NMHLD	48	288	2	96
NMHLD	49	0	4	576
NMTAP	49	144	2
NMTAP	49	192	2
NMTAP	49	288	1
NMTAP	50	0	0
NMTAP	50	96	7
NMTAP	50	192	6
NMTAP	50	288	3
NMTAP	50	288	5
NMSTR	51	0	4
NMSCR	51	0	4	96	96	0
NMHLD	51	0	6	192
NMTAP	51	288	1
NMTAP	51	288	5
NMHLD	52	0	2	96
NMHLD	52	0	3	96
NMHLD	52	144	4	96
NMHLD	52	144	6	96
NMTAP	52	288	0
NMTAP	52	288	5
NMHLD	53	0	1	192
NMTAP	53	0	4
BXTAP	53	96	0
NMTAP	53	144	0
NMTAP	53	192	0
NMTAP	53	288	6
NMTAP	53	288	7
NMTAP	54	0	4
NMTAP	54	0	5
NMTAP	54	72	2
NMHLD	54	96	2	288
NMTAP	54	288	0
NMTAP	54	336	0
NMTAP	55	0	0
NMTAP	55	72	7
BXSTR	55	96	7
NMSCL	55	96	7	96	96	4
NMTAP	55	288	7
NMTAP	55	336	7
NMTAP	56	0	7
NMTAP	56	72	0
BXSTR	56	96	0
NMSCR	56	96	0	96	96	3
NMTAP	56	288	0
NMTAP	57	0	4
NMTAP	57	0	6
BRTAP	57	96	0
BRTAP	57	96	5
NMHLD	57	192	1	72
NMHLD	57	264	2	72
NMTAP	57	336	3
NMTAP	58	0	3
NMHLD	58	0	4	384
BXTAP	58	96	6
NMTAP	58	144	7
NMSTR	58	192	7
NMSI_	58	192	7	96	48	2
NMHLD	59	0	3	384
BXTAP	59	96	1
NMTAP	59	144	0
NMSTR	59	192	0
NMSI_	59	192	0	96	48	5
NMHLD	60	0	4	288
BXTAP	60	96	6
NMTAP	60	144	7
NMSTR	60	192	7
NMSI_	60	192	7	96	48	2
BXTAP	61	0	1
BXTAP	61	0	5
NMTAP	61	144	0
NMTAP	61	144	7
NMTAP	61	192	1
NMTAP	61	192	6
NMTAP	61	240	2
NMTAP	61	240	5
NMSTR	61	288	3
NMSI_	61	288	3	96	192	0
NMHLD	61	288	4	288
BRTAP	62	288	0
BRTAP	62	288	7
BRTAP	62	336	1
BRTAP	62	336	6

T_REC_TAP	158
T_REC_BRK	7
T_REC_XTP	3
T_REC_BXX	9
T_REC_HLD	53
T_REC_XHO	13
T_REC_BHO	0
T_REC_BXH	4
T_REC_STR	22
T_REC_BST	0
T_REC_XST	2
T_REC_XBS	3
T_REC_TTP	9
T_REC_THO	0
T_REC_SLD	25
T_REC_BSL	2
T_REC_ALL	310
T_NUM_TAP	194
T_NUM_BRK	25
T_NUM_HLD	66
T_NUM_SLD	25
T_NUM_ALL	310
T_JUDGE_TAP	213
T_JUDGE_HLD	280
T_JUDGE_SLD	27
T_JUDGE_ALL	520
TTM_EACHPAIRS	58
TTM_SCR_TAP	97000
TTM_SCR_BRK	65000
TTM_SCR_HLD	66000
TTM_SCR_SLD	37500
TTM_SCR_ALL	265500
TTM_SCR_S	255150
TTM_SCR_SS	263000
TTM_RAT_ACV	10095

