VERSION	0.00.00	1.04.00
FES_MODE	0
BPM_DEF	147.000	147.000	150.000	138.000
MET_DEF	4	4
RESOLUTION	384
CLK_DEF	384
COMPATIBLE_CODE	MA2

BPM	0	0	147.000
BPM	2	0	149.200
BPM	2	336	146.200
BPM	4	0	146.800
BPM	5	192	147.000
BPM	6	0	147.200
BPM	10	0	147.000
BPM	11	192	146.000
BPM	12	0	145.600
BPM	12	336	147.000
BPM	20	192	146.500
BPM	21	0	146.000
BPM	21	192	144.000
BPM	22	0	145.000
BPM	22	192	146.500
BPM	23	0	147.000
BPM	28	0	148.600
BPM	30	0	147.000
BPM	31	0	146.600
BPM	32	192	146.800
BPM	33	0	147.000
BPM	33	192	147.200
BPM	35	0	146.800
BPM	36	0	147.000
BPM	38	0	147.200
BPM	39	0	145.000
BPM	39	192	143.000
BPM	40	0	146.800
BPM	40	192	147.000
BPM	41	0	147.200
BPM	44	0	147.000
BPM	46	0	147.000
BPM	46	192	146.600
BPM	47	0	150.000
BPM	48	0	144.000
BPM	48	96	138.000
BPM	49	0	144.000
BPM	49	192	147.000
BPM	49	288	148.000
BPM	50	0	148.800
BPM	50	192	150.000
BPM	51	0	148.200
BPM	53	192	147.400
BPM	54	0	147.200
BPM	54	192	147.000
BPM	56	192	146.000
BPM	57	0	147.000
BPM	60	192	146.000
BPM	61	0	145.000
BPM	62	192	147.000
MET	0	0	4	4

EXHLD	2	0	3	336
EXHLD	2	0	4	336
NMHLD	4	0	2	144
NMHLD	4	0	3	144
NMHLD	4	288	4	144
NMHLD	4	288	5	144
EXTAP	5	192	3
EXTAP	5	192	4
NMHLD	6	0	2	144
NMHLD	6	144	3	144
NMHLD	6	288	4	144
NMTAP	7	48	5
NMTAP	7	192	3
NMTAP	7	192	6
NMHLD	8	0	5	144
NMHLD	8	144	4	144
NMHLD	8	288	3	144
NMTAP	9	48	2
NMTAP	9	192	1
NMTAP	9	192	4
NMHLD	10	0	0	144
NMHLD	10	0	1	144
NMHLD	10	288	6	144
NMHLD	10	288	7	144
NMTAP	11	192	0
NMTAP	11	192	7
EXHLD	12	0	1	336
EXHLD	12	0	6	336
NMTAP	14	0	2
NMTAP	14	96	2
NMTAP	14	192	2
NMTAP	14	192	3
NMTAP	15	0	1
NMTAP	15	96	1
NMTAP	15	192	0
NMTAP	15	192	1
NMTAP	16	0	7
NMTAP	16	96	7
NMTAP	16	192	6
NMTAP	16	192	7
NMTAP	17	0	5
NMTAP	17	96	5
NMTAP	17	192	3
NMTAP	17	192	4
NMTAP	18	0	5
NMTAP	18	96	5
NMTAP	18	192	4
NMTAP	18	192	5
NMTAP	19	0	6
NMTAP	19	96	6
NMTAP	19	192	6
NMTAP	19	192	7
NMTAP	20	0	0
NMTAP	20	96	0
NMTAP	20	192	0
NMTAP	20	192	1
NMTAP	21	0	2
NMTAP	21	96	2
NMTAP	21	192	3
NMTAP	21	192	4
NMTTP	22	0	6	B	0	L1
NMTTP	22	96	5	B	0	L1
NMTTP	22	192	4	B	0	L1
NMTTP	23	0	1	B	0	L1
NMTTP	23	96	2	B	0	L1
NMTTP	23	192	3	B	0	L1
NMTTP	24	0	7	B	0	L1
NMTTP	24	96	6	B	0	L1
NMTTP	24	192	4	B	0	L1
NMTTP	24	192	5	B	0	L1
NMTTP	25	0	0	B	0	L1
NMTTP	25	96	1	B	0	L1
NMTTP	25	192	2	B	0	L1
NMTTP	25	192	3	B	0	L1
NMTTP	26	0	6	B	0	L1
NMTTP	26	96	5	B	0	L1
NMTTP	26	192	4	B	0	L1
NMTTP	26	288	3	B	0	L1
NMTTP	27	0	2	B	0	L1
NMTTP	27	96	1	B	0	L1
NMTTP	27	192	0	B	0	L1
NMTTP	27	192	7	B	0	L1
NMTTP	28	0	5	B	0	L1
NMTTP	28	96	6	B	0	L1
NMTTP	28	192	7	B	0	L1
NMTTP	28	288	0	B	0	L1
NMTTP	29	0	1	B	0	L1
NMTTP	29	96	2	B	0	L1
NMTTP	29	192	3	B	0	L1
NMTTP	29	192	4	B	0	L1
NMTHO	30	0	0	384	C	1	L1
NMTAP	32	0	1
NMTAP	32	96	1
NMTAP	32	192	0
NMTAP	32	288	0
NMTAP	33	0	7
NMTAP	33	96	7
NMTAP	33	192	6
NMTAP	33	192	7
NMTAP	34	0	5
NMTAP	34	96	5
NMTAP	34	192	6
NMTAP	34	288	6
NMTAP	35	0	7
NMTAP	35	96	7
NMTAP	35	192	0
NMTAP	35	192	1
NMTAP	36	0	2
NMTAP	36	96	2
NMTAP	36	192	2
NMTAP	36	192	3
NMTAP	36	288	2
NMTAP	36	288	3
NMTAP	37	0	1
NMTAP	37	96	1
NMTAP	37	192	0
NMTAP	37	192	1
NMTAP	37	288	0
NMTAP	37	288	1
NMTAP	38	0	6
NMTAP	38	0	7
NMTAP	38	96	6
NMTAP	38	96	7
NMTAP	38	192	4
NMTAP	38	192	5
NMTAP	38	288	4
NMTAP	38	288	5
BRTAP	39	0	4
BRTAP	39	0	5
NMTAP	40	0	5
NMTAP	40	96	5
NMTAP	40	192	6
NMTAP	40	192	7
NMTAP	40	288	6
NMTAP	40	288	7
NMTAP	41	0	0
NMTAP	41	96	1
NMTAP	41	192	2
NMTAP	41	192	3
NMTAP	42	0	2
NMTAP	42	96	2
NMTAP	42	192	0
NMTAP	42	192	1
NMTAP	42	288	0
NMTAP	42	288	1
NMTAP	43	0	7
NMTAP	43	96	6
NMTAP	43	192	4
NMTAP	43	192	5
NMTAP	44	0	5
NMTAP	44	96	5
NMTAP	44	192	4
NMTAP	44	192	5
NMTAP	44	288	4
NMTAP	44	288	5
NMTAP	45	0	6
NMTAP	45	96	6
NMTAP	45	192	6
NMTAP	45	192	7
NMTAP	45	288	6
NMTAP	45	288	7
NMTAP	46	0	0
NMTAP	46	0	1
NMTAP	46	96	0
NMTAP	46	96	1
NMTAP	46	192	2
NMTAP	46	192	3
NMTAP	46	288	2
NMTAP	46	288	3
NMHLD	47	0	2	384
NMHLD	47	0	3	384
NMSTR	49	0	1
NMSI_	49	0	1	96	192	4
NMSTR	50	0	6
NMSI_	50	0	6	96	192	3
NMSTR	51	0	1
NMSI_	51	0	1	96	192	5
NMSTR	52	0	6
NMSI_	52	0	6	96	192	2
NMTAP	53	0	1
NMTAP	53	96	2
NMTAP	53	192	3
NMTAP	53	288	4
NMTAP	54	0	5
NMTAP	54	96	6
NMTAP	54	192	0
NMTAP	54	192	7
NMTAP	55	0	6
NMTAP	55	96	5
NMTAP	55	192	4
NMTAP	55	288	3
NMTAP	56	0	2
NMTAP	56	96	1
NMTAP	56	192	0
NMTAP	56	192	7
NMTAP	57	0	0
NMTAP	57	0	1
NMTAP	57	96	0
NMTAP	57	96	1
NMTAP	57	192	2
NMTAP	57	192	7
NMTAP	58	0	2
NMTAP	58	0	3
NMTAP	58	96	2
NMTAP	58	96	3
NMTAP	58	192	1
NMTAP	58	192	4
NMTAP	59	0	4
NMTAP	59	0	5
NMTAP	59	96	4
NMTAP	59	96	5
NMTAP	59	192	3
NMTAP	59	192	6
NMTAP	60	0	6
NMTAP	60	0	7
NMTAP	60	96	6
NMTAP	60	96	7
NMTAP	60	192	0
NMTAP	60	192	5
NMTAP	61	0	0
NMTAP	61	0	7
NMTAP	61	96	0
NMTAP	61	96	7
NMTAP	61	192	1
NMTAP	61	192	6
NMTAP	61	288	1
NMTAP	61	288	6
NMTAP	62	0	2
NMTAP	62	0	5
NMTAP	62	96	2
NMTAP	62	96	5
NMTAP	62	192	3
NMTAP	62	192	4
BRTAP	62	288	3
BRTAP	62	288	4

T_REC_TAP	170
T_REC_BRK	4
T_REC_XTP	2
T_REC_BXX	0
T_REC_HLD	16
T_REC_XHO	4
T_REC_BHO	0
T_REC_BXH	0
T_REC_STR	4
T_REC_BST	0
T_REC_XST	0
T_REC_XBS	0
T_REC_TTP	30
T_REC_THO	1
T_REC_SLD	4
T_REC_BSL	0
T_REC_ALL	235
T_NUM_TAP	206
T_NUM_BRK	4
T_NUM_HLD	21
T_NUM_SLD	4
T_NUM_ALL	235
T_JUDGE_TAP	210
T_JUDGE_HLD	94
T_JUDGE_SLD	4
T_JUDGE_ALL	308
TTM_EACHPAIRS	66
TTM_SCR_TAP	103000
TTM_SCR_BRK	10400
TTM_SCR_HLD	21000
TTM_SCR_SLD	6000
TTM_SCR_ALL	140400
TTM_SCR_S	135800
TTM_SCR_SS	140000
TTM_RAT_ACV	10028

