VERSION	0.00.00	1.04.00
FES_MODE	0
BPM_DEF	180.000	180.000	180.000	180.000
MET_DEF	4	4
RESOLUTION	384
CLK_DEF	384
COMPATIBLE_CODE	MA2

BPM	0	0	180.000
MET	0	0	4	4
MET	9	0	4	3
MET	9	288	4	4
MET	33	288	4	2
MET	34	96	4	4

NMSTR	1	0	3
NMSI_	1	0	3	96	192	0
NMTAP	1	288	4
NMSTR	2	0	4
NMSI_	2	0	4	96	192	7
NMSTR	3	0	3
NMSI_	3	0	3	96	192	0
NMTAP	3	288	4
NMSTR	4	0	4
NMSI_	4	0	4	96	192	7
NMSTR	5	0	3
NMSCL	5	0	3	96	192	0
NMTAP	5	288	4
NMSTR	6	0	4
NMSCR	6	0	4	96	192	7
NMSTR	7	0	3
NMSCL	7	0	3	96	192	0
NMTAP	7	288	4
NMSTR	8	0	4
NMSCR	8	0	4	96	192	7
NMTTP	9	0	3	E	0	M1
EXTAP	9	0	6
EXTAP	9	96	1
NMTTP	9	96	5	B	0	M1
NMTTP	9	96	5	E	0	M1
NMTTP	9	192	0	C	0	M1
NMTTP	9	192	3	B	0	M1
NMTTP	9	192	4	B	0	M1
EXTAP	9	192	7
BXTAP	9	288	0
BXTAP	9	288	1
EXTAP	9	336	0
EXSTR	9	336	1
NMSCR	9	336	1	96	48	4
NMHLD	10	48	5	96
NMTAP	10	144	6
NMSTR	10	192	6
NMSCR	10	192	6	96	48	1
NMSTR	10	288	5
NMSV_	10	288	5	96	48	0
NMTAP	11	0	3
NMTAP	11	48	3
NMTAP	11	144	2
NMTAP	11	144	7
NMTAP	11	192	2
NMTAP	11	192	7
NMTAP	11	288	6
NMSTR	11	336	6
NMSCL	11	336	6	96	48	3
NMHLD	12	48	2	96
NMTAP	12	144	1
NMSTR	12	192	1
NMSCL	12	192	1	96	48	6
NMSTR	12	288	2
NMSV_	12	288	2	96	48	7
NMTAP	13	0	4
NMTAP	13	48	4
NMTAP	13	144	0
NMTAP	13	144	5
NMTAP	13	192	0
NMTAP	13	192	5
NMTAP	13	288	5
NMSTR	13	336	5
NMSCR	13	336	5	96	48	0
NMHLD	14	48	1	96
NMTAP	14	144	2
NMSTR	14	192	2
NMSCR	14	192	2	96	48	5
NMSTR	14	288	1
NMSV_	14	288	1	96	48	4
NMTAP	15	0	7
NMTAP	15	48	7
NMTAP	15	144	3
NMTAP	15	144	6
NMTAP	15	192	3
NMTAP	15	192	6
NMTAP	15	288	2
NMSTR	15	336	2
NMSCL	15	336	2	96	48	7
NMHLD	16	48	6	96
NMTAP	16	144	5
NMSTR	16	192	5
NMSUL	16	192	5	96	48	0
NMSTR	16	288	6
NMSI_	16	288	6	96	48	3
NMTAP	17	0	7
NMTAP	17	48	7
NMTAP	17	144	1
NMTAP	17	144	5
BRTAP	17	192	1
BRTAP	17	192	5
NMHLD	17	288	6	96
NMTAP	18	0	5
NMHLD	18	48	4	96
NMTAP	18	144	5
NMTAP	18	192	6
NMTAP	18	288	3
NMTAP	18	288	7
NMSTR	18	336	3
NMSI_	18	336	3	96	32	1
NMSTR	18	336	7
NMSI_	18	336	7	96	48	4
CNSCL	19	80	1	0	16	0
NMTAP	19	144	1
NMHLD	19	192	1	624
NMSTR	19	288	4
NMSI_	19	288	4	96	48	2
NMSTR	20	96	0
NMSI_	20	96	0	96	48	2
NMTAP	20	288	3
NMSTR	20	336	3
NMSUR	20	336	3	96	144	5
NMSTR	21	288	6
NMSSL	21	288	6	96	144	2
NMTAP	22	0	2
NMSTR	22	48	2
NMSSL	22	48	2	96	144	6
NMTAP	22	144	0
NMTAP	22	192	0
NMTAP	22	288	1
NMSTR	22	336	1
NMSCR	22	336	1	96	96	5
NMTAP	23	48	5
NMTAP	23	144	6
NMTAP	23	192	6
NMSTR	23	288	7
NMSXR	23	288	7	96	96	7
NMSTR	24	0	1
NMSXL	24	0	1	96	96	1
NMTAP	24	192	7
NMTAP	24	240	7
NMTAP	24	288	0
NMTAP	24	288	1
NMSTR	24	336	0
NMSI_	24	336	0	96	48	4
NMSTR	24	336	1
NMSI_	24	336	1	96	48	5
BRTAP	25	48	0
BRTAP	25	48	1
NMTAP	25	192	3
NMTAP	25	192	6
NMSTR	25	288	7
NMSCL	25	288	7	96	144	3
NMTAP	26	0	3
NMSTR	26	48	3
NMSCL	26	48	3	96	144	7
NMTAP	26	144	7
NMSTR	26	192	7
NMSXL	26	192	7	96	168	3
NMHLD	26	288	2	144
NMTAP	27	144	2
NMTAP	27	144	4
NMTAP	27	192	2
NMSTR	27	192	4
NMSCR	27	192	4	96	48	7
NMTAP	27	288	3
NMSTR	28	0	4
NMSUL	28	0	4	96	48	0
NMTAP	28	96	5
NMTAP	28	192	4
NMTAP	28	288	5
NMTAP	28	288	7
NMSTR	28	336	5
NMSUL	28	336	5	96	144	6
NMSTR	28	336	7
NMSUR	28	336	7	96	144	4
NMHLD	29	288	6	96
NMTAP	30	0	5
NMHLD	30	48	4	96
NMTAP	30	144	5
NMTAP	30	192	6
NMTAP	30	288	3
NMTAP	30	288	7
NMSTR	30	336	3
NMSI_	30	336	3	96	48	1
NMSTR	30	336	7
NMSI_	30	336	7	96	48	3
NMTAP	31	144	0
NMTAP	31	144	4
NMTAP	31	192	0
NMSTR	31	192	4
NMSXR	31	192	4	96	96	4
NMHLD	31	288	0	192
NMSTR	31	288	4
NMSXL	31	288	4	96	96	4
NMTAP	32	192	2
NMTAP	32	192	3
NMTAP	32	288	4
NMHLD	32	288	5	96
NMTAP	33	0	6
NMHLD	33	48	6	96
NMTAP	33	144	7
NMSTR	33	192	7
BRSI_	33	192	7	96	48	2
BRSI_	33	192	7	96	48	3
BRTAP	33	288	7
NMHLD	34	96	1	96
NMTAP	34	192	0
NMHLD	34	240	7	96
NMTAP	34	336	0
NMTAP	35	0	2
NMTAP	35	96	3
NMTAP	35	96	7
NMSTR	35	144	3
NMSI_	35	144	3	96	32	1
NMSTR	35	144	7
NMSI_	35	144	7	96	48	4
CNSCL	35	272	1	0	16	0
NMTAP	35	336	5
NMSTR	36	0	5
NMSXR	36	0	5	96	96	4
NMTAP	36	96	0
NMSTR	36	192	1
NMSXR	36	192	1	96	96	0
NMTAP	36	288	4
NMTAP	37	0	5
NMTAP	37	96	6
NMSTR	37	144	6
NMSCL	37	144	6	96	32	5
NMSV_	37	144	6	96	108	1
CNSI_	37	272	5	0	112	2
CNSCR	37	348	1	0	36	2
NMSTR	38	96	1
NMSI_	38	96	1	96	64	6
NMTAP	38	192	5
NMTAP	38	240	5
CNSI_	38	256	6	0	64	2
CNSI_	38	320	2	0	64	4
NMTAP	38	336	7
NMSTR	39	0	7
NMSCL	39	0	7	96	48	4
NMTAP	39	96	2
NMSTR	39	144	2
NMSCL	39	144	2	96	48	7
NMSTR	39	240	5
NMSCL	39	240	5	96	48	2
NMTAP	39	336	1
NMTAP	40	0	1
NMTAP	40	96	0
NMHLD	40	96	1	96
NMHLD	40	192	0	48
NMHLD	40	240	2	48
NMHLD	40	288	7	48
NMHLD	40	336	1	48
NMHLD	41	0	6	48
NMHLD	41	48	0	48
NMHLD	41	96	5	48
NMHLD	41	144	7	48
NMHLD	41	192	4	48
BRTAP	41	240	0
NMTAP	41	336	2
NMTAP	41	336	6
NMTAP	42	0	2
NMTAP	42	0	6
NMHLD	42	96	5	96
NMTAP	42	192	6
NMHLD	42	240	0	96
NMTAP	42	336	7
NMTAP	43	0	5
NMTAP	43	96	1
NMTAP	43	96	3
NMTAP	43	192	4
NMTAP	43	192	6
NMTAP	43	240	4
NMTAP	43	240	6
NMTAP	43	336	2
NMSTR	44	0	2
NMSV_	44	0	2	96	48	0
NMSV_	44	0	2	96	48	4
NMSTR	44	192	5
NMSV_	44	192	5	96	48	3
NMSV_	44	192	5	96	48	7
NMTAP	45	0	2
NMTAP	45	0	6
NMTAP	45	96	5
NMSTR	45	144	5
NMSUL	45	144	5	96	96	0
NMHLD	45	240	1	144
NMTAP	46	0	7
NMTAP	46	96	4
NMTAP	46	96	6
NMTAP	46	192	2
NMTAP	46	192	4
NMTAP	46	240	2
NMTAP	46	240	4
NMTAP	46	336	1
NMTAP	46	336	2
NMSTR	47	0	1
NMSUR	47	0	1	96	72	6
NMSTR	47	0	2
NMSCR	47	0	2	96	72	5
CNSCL	47	168	5	0	72	2
CNSUL	47	168	6	0	72	1
NMTAP	47	336	0
NMSTR	48	0	0
NMSUR	48	0	0	96	96	4
NMSTR	48	96	4
NMSUR	48	96	4	96	96	0
NMTAP	48	192	0
NMTAP	48	288	4
NMSTR	49	0	2
NMSI_	49	0	2	96	48	5
NMSTR	49	0	6
NMSI_	49	0	6	96	48	1
NMTAP	49	192	0
NMTAP	49	192	4
BRTAP	49	240	2
BRTAP	49	240	6
NMHLD	50	96	4	96
NMTTP	50	96	7	E	0	M1
NMHLD	50	288	3	96
NMTTP	50	288	6	E	0	M1
NMHLD	51	96	2	96
NMTTP	51	96	5	E	0	M1
NMHLD	51	288	1	96
NMTTP	51	288	4	E	0	M1
NMTAP	52	96	0
NMTTP	52	96	4	B	0	M1
NMTAP	52	192	1
NMTTP	52	192	5	B	0	M1
NMTAP	52	288	2
NMTTP	52	288	6	B	0	M1
NMTAP	53	0	3
NMTTP	53	0	7	B	0	M1
NMTTP	53	96	0	B	0	M1
NMTAP	53	96	4
NMTTP	53	192	1	B	0	M1
NMTAP	53	192	5
NMTTP	53	288	2	B	0	M1
NMTAP	53	288	6
NMTTP	54	0	3	B	0	M1
NMTAP	54	0	7
NMTTP	54	96	4	E	0	M1
NMHLD	54	96	6	96
NMTTP	54	288	3	E	0	M1
NMHLD	54	288	5	96
NMTTP	55	96	2	E	0	M1
NMHLD	55	96	4	96
NMTTP	55	288	1	E	0	M1
NMHLD	55	288	3	96
NMTTP	56	96	2	A	0	M1
NMTTP	56	96	3	E	0	M1
NMTTP	56	96	6	A	0	M1
NMTTP	56	96	7	E	0	M1
NMTTP	56	192	1	B	0	M1
NMTTP	56	192	1	E	0	M1
NMTTP	56	192	5	B	0	M1
NMTTP	56	192	5	E	0	M1
NMTTP	56	288	3	B	0	M1
NMTTP	56	288	3	A	0	M1
NMTTP	56	288	6	B	0	M1
NMTTP	56	288	6	A	0	M1
NMTTP	57	0	1	B	0	M1
NMTTP	57	0	1	A	0	M1
NMTTP	57	0	4	B	0	M1
NMTTP	57	0	4	A	0	M1
NMTTP	57	96	2	B	0	M1
NMTTP	57	96	2	A	0	M1
NMTTP	57	96	3	E	0	M1
NMTTP	57	96	6	B	0	M1
NMTTP	57	96	6	A	0	M1
NMTTP	57	96	7	E	0	M1
NMTTP	57	192	0	A	0	M1
NMTTP	57	192	1	B	0	M1
NMTTP	57	192	1	E	0	M1
NMTTP	57	192	4	A	0	M1
NMTTP	57	192	5	B	0	M1
NMTTP	57	192	5	E	0	M1
NMTTP	57	288	0	E	0	M1
NMTTP	57	288	3	B	0	M1
NMTTP	57	288	3	A	0	M1
NMTTP	57	288	4	E	0	M1
NMTTP	57	288	7	B	0	M1
NMTTP	57	288	7	A	0	M1
NMTHO	58	0	0	96	C	0	M1
NMTTP	58	0	1	B	0	M1
NMTTP	58	0	1	E	0	M1
NMTTP	58	0	2	E	0	M1
NMTTP	58	0	5	B	0	M1
NMTTP	58	0	5	E	0	M1
NMTTP	58	0	6	E	0	M1
NMTAP	58	336	0
NMTAP	58	336	6
NMSTR	59	0	0
NMSV_	59	0	0	96	48	3
NMSTR	59	0	6
NMSV_	59	0	6	96	48	3
NMTAP	59	48	7
BRTAP	59	96	0
BRTAP	59	96	6
NMTAP	59	192	2
NMSTR	59	240	2
NMSCR	59	240	2	96	48	5
NMTAP	59	336	2
NMTAP	59	336	6
NMSTR	60	0	7
NMSXL	60	0	7	96	144	4
NMTAP	60	96	4
NMTAP	60	144	4
NMTAP	60	192	3
NMTAP	60	240	3
NMTAP	60	288	2
NMTAP	60	288	3
NMSTR	60	336	2
NMSI_	60	336	2	96	48	7
NMSTR	60	336	3
NMSI_	60	336	3	96	48	6
NMTAP	61	48	2
NMTAP	61	48	3
NMTAP	61	144	0
NMSTR	61	192	0
NMSLR	61	192	0	96	64	4
NMSTR	61	288	6
NMSCL	61	288	6	96	96	0
CNSI_	61	352	4	0	32	6
NMTAP	62	0	0
NMHLD	62	96	6	72
NMTAP	62	168	0
NMSTR	62	192	0
NMSI_	62	192	0	96	48	4
NMSTR	62	240	6
NMSI_	62	240	6	96	48	2
NMTAP	62	288	0
NMTAP	62	336	6
NMSTR	63	96	2
NMSCL	63	96	2	96	48	7
NMTAP	63	192	2
NMTAP	63	192	6
NMSTR	63	240	5
NMSCL	63	240	5	96	48	2
NMTAP	63	336	5
NMTAP	63	336	7
NMSTR	64	0	0
NMSXR	64	0	0	96	144	3
NMTAP	64	96	3
NMTAP	64	144	3
NMTAP	64	192	4
NMTAP	64	240	4
NMTAP	64	288	4
NMTAP	64	288	5
NMSTR	64	336	4
NMSI_	64	336	4	96	48	0
NMSTR	64	336	5
NMSCL	64	336	5	96	48	2
NMTAP	65	48	4
NMTAP	65	48	5
NMTAP	65	144	1
NMTAP	65	192	0
NMTAP	65	240	7
NMHLD	65	288	6	72
NMTAP	65	360	4
NMTAP	66	0	4
NMTAP	66	48	3
NMTAP	66	48	7
NMSTR	66	144	1
NMSI_	66	144	1	96	48	4
NMSTR	66	192	0
NMSI_	66	192	0	96	48	5
NMTAP	66	240	1
NMTAP	66	288	0
NMSTR	67	0	3
NMSI_	67	0	3	96	48	7
NMSTR	67	0	4
NMSI_	67	0	4	96	48	0
NMTTP	67	96	3	A	0	M1
NMTTP	67	96	4	A	0	M1
NMTTP	67	96	4	D	1	M1
NMTAP	67	192	6
NMSTR	67	240	6
NMSCR	67	240	6	96	48	1
NMTAP	67	336	2
NMTAP	67	336	6
NMSTR	68	0	3
NMSXR	68	0	3	96	144	0
NMTAP	68	96	0
NMTAP	68	144	0
NMTAP	68	192	7
NMTAP	68	240	7
NMTAP	68	288	6
NMTAP	68	288	7
NMSTR	68	336	6
NMSI_	68	336	6	96	48	2
NMSTR	68	336	7
NMSI_	68	336	7	96	48	3
NMTAP	69	48	6
NMTAP	69	48	7
NMTAP	69	144	5
NMSTR	69	192	5
NMSLR	69	192	5	96	64	1
NMSTR	69	288	3
NMSCL	69	288	3	96	96	5
CNSI_	69	352	1	0	32	3
NMTAP	70	0	5
NMHLD	70	96	3	96
NMTAP	70	168	2
NMSTR	70	192	2
NMSI_	70	192	2	96	48	6
NMSTR	70	240	4
NMSI_	70	240	4	96	48	0
NMTAP	70	288	2
NMTAP	70	336	4
NMSTR	71	96	5
NMSUR	71	96	5	96	48	1
NMTAP	71	192	3
NMTAP	71	192	5
NMSTR	71	240	2
NMSUL	71	240	2	96	48	6
NMTAP	71	336	2
NMTAP	71	336	4
NMSTR	72	0	5
NMSXR	72	0	5	96	144	2
NMTAP	72	96	7
NMTAP	72	144	7
NMTAP	72	192	0
NMTAP	72	240	0
NMTAP	72	288	3
NMTAP	72	288	7
NMTAP	72	336	3
NMSTR	72	336	7
NMSCR	72	336	7	96	96	5
BRHLD	73	48	6	144
BRTAP	73	48	7
NMSTR	73	192	7
NMSI_	73	192	7	96	48	3
NMTAP	73	240	0
NMSTR	73	288	1
NMSI_	73	288	1	96	48	5
NMTAP	74	0	4
NMSTR	74	48	4
NMSCR	74	48	4	96	48	7
NMTAP	74	144	0
NMSTR	74	192	0
NMSF_	74	192	0	96	48	4
BRTAP	74	288	0
NMTAP	75	0	1
NMTAP	75	0	7
NMSTR	75	48	1
BRSI_	75	48	1	96	72	3
NMHLD	75	48	7	672
CNSV_	75	216	3	0	120	4
CNSI_	75	336	4	0	72	6
CNSI_	76	24	6	0	72	4
CNSV_	76	96	4	0	120	3
CNSI_	76	216	3	0	72	1
NMTAP	76	336	0
NMSTR	77	0	0
NMSCR	77	0	0	96	48	3
NMSTR	77	0	7
NMSCL	77	0	7	96	48	4
BRTAP	77	96	0
BRTAP	77	96	7
NMTTP	77	108	1	E	0	M1
NMTTP	77	108	7	E	0	M1
NMTTP	77	120	2	E	0	M1
NMTTP	77	120	6	E	0	M1
NMTTP	77	132	3	E	0	M1
NMTTP	77	132	5	E	0	M1
NMTTP	77	144	4	E	1	M1

T_REC_TAP	205
T_REC_BRK	14
T_REC_XTP	4
T_REC_BXX	2
T_REC_HLD	40
T_REC_XHO	0
T_REC_BHO	1
T_REC_BXH	0
T_REC_STR	99
T_REC_BST	0
T_REC_XST	1
T_REC_XBS	0
T_REC_TTP	72
T_REC_THO	1
T_REC_SLD	101
T_REC_BSL	3
T_REC_ALL	543
T_NUM_TAP	381
T_NUM_BRK	20
T_NUM_HLD	41
T_NUM_SLD	101
T_NUM_ALL	543
T_JUDGE_TAP	397
T_JUDGE_HLD	103
T_JUDGE_SLD	104
T_JUDGE_ALL	604
TTM_EACHPAIRS	71
TTM_SCR_TAP	190500
TTM_SCR_BRK	52000
TTM_SCR_HLD	41000
TTM_SCR_SLD	151500
TTM_SCR_ALL	435000
TTM_SCR_S	420050
TTM_SCR_SS	433000
TTM_RAT_ACV	10046

