VERSION	0.00.00	1.04.00
FES_MODE	0
BPM_DEF	180.000	180.000	180.000	180.000
MET_DEF	4	4
RESOLUTION	384
CLK_DEF	384
COMPATIBLE_CODE	MA2

BPM	0	0	180.000
MET	0	0	4	4
MET	9	0	4	3
MET	9	288	4	4
MET	33	288	4	2
MET	34	96	4	4

NMHLD	1	0	6	576
NMTAP	1	288	5
NMHLD	2	0	4	576
NMHLD	3	0	5	576
NMTAP	3	288	4
NMHLD	4	0	3	576
NMHLD	5	0	4	576
NMTAP	5	288	2
NMHLD	6	0	2	576
NMHLD	7	0	3	480
NMTAP	7	288	2
NMHLD	8	0	1	96
NMTAP	8	192	1
NMTAP	8	192	3
BXTAP	9	0	0
BXTAP	9	96	1
BXTAP	9	192	2
NMTAP	9	288	4
NMTAP	9	336	4
NMTAP	10	48	3
NMTAP	10	48	5
NMTAP	10	144	6
NMHLD	10	192	6	96
NMTAP	10	288	7
NMTAP	11	0	0
NMTAP	11	0	7
NMTAP	11	48	0
NMTAP	11	48	7
NMTAP	11	144	0
NMTAP	11	144	1
NMTAP	11	192	0
NMTAP	11	192	1
NMTAP	11	288	3
NMTAP	11	336	3
NMTAP	12	48	2
NMTAP	12	48	4
NMTAP	12	144	1
NMHLD	12	192	1	96
NMTAP	12	288	0
NMTAP	13	0	0
NMTAP	13	0	7
NMTAP	13	48	0
NMTAP	13	48	7
NMTAP	13	144	6
NMTAP	13	144	7
NMTAP	13	192	6
NMTAP	13	192	7
NMTAP	13	288	5
NMTAP	13	336	5
NMTAP	14	48	4
NMTAP	14	48	6
NMTAP	14	144	7
NMTAP	14	192	7
NMTAP	14	288	0
NMTAP	14	288	1
NMTAP	15	0	2
NMTAP	15	0	3
NMTAP	15	48	2
NMTAP	15	48	3
NMTAP	15	144	1
NMTAP	15	144	4
NMTAP	15	192	1
NMTAP	15	192	4
NMTAP	15	288	2
NMTAP	15	336	2
NMTAP	16	48	1
NMTAP	16	48	3
NMTAP	16	144	0
NMTAP	16	192	0
NMTAP	16	288	6
NMTAP	16	288	7
NMTAP	17	0	4
NMTAP	17	0	5
NMTAP	17	48	4
NMTAP	17	48	5
NMTAP	17	144	3
NMTAP	17	144	4
NMTAP	17	192	3
NMTAP	17	192	4
NMHLD	17	288	5	240
NMTAP	18	0	3
NMTAP	18	48	3
NMTAP	18	144	4
NMTAP	18	192	4
NMHLD	18	288	6	240
NMTAP	19	0	4
NMTAP	19	48	4
NMTAP	19	144	5
NMTAP	19	192	5
NMSTR	19	288	4
NMSI_	19	288	4	96	96	2
NMSTR	20	96	6
NMSI_	20	96	6	96	96	4
NMTAP	20	288	0
NMHLD	20	336	0	96
NMTAP	21	48	2
NMTAP	21	144	1
NMTAP	21	144	3
NMTAP	21	192	1
NMTAP	21	192	3
NMHLD	21	288	2	240
NMTAP	22	0	4
NMTAP	22	48	4
NMTAP	22	144	3
NMTAP	22	192	3
NMHLD	22	288	1	240
NMTAP	23	0	3
NMTAP	23	48	3
NMTAP	23	144	2
NMTAP	23	192	2
NMSTR	23	288	3
NMSI_	23	288	3	96	96	5
NMSTR	24	96	1
NMSI_	24	96	1	96	96	3
NMHLD	24	288	7	96
NMTAP	25	0	5
NMTAP	25	48	5
NMTAP	25	144	4
NMTAP	25	144	6
NMTAP	25	192	4
NMTAP	25	192	6
NMHLD	25	288	5	384
NMTAP	26	0	4
NMTAP	26	48	4
NMTAP	26	144	6
NMTAP	26	192	6
NMHLD	26	288	4	240
NMTAP	27	0	5
NMTAP	27	48	5
NMTAP	27	144	3
NMTAP	27	192	3
NMSTR	27	288	5
NMSI_	27	288	5	96	96	3
NMSTR	28	96	7
NMSI_	28	96	7	96	96	1
NMTAP	28	288	3
NMTAP	28	336	3
NMTAP	29	48	2
NMTAP	29	144	1
NMTAP	29	144	3
NMTAP	29	192	1
NMTAP	29	192	3
NMHLD	29	288	2	384
NMTAP	30	0	3
NMTAP	30	48	3
NMTAP	30	144	1
NMTAP	30	192	1
NMHLD	30	288	3	240
NMTAP	31	0	2
NMTAP	31	48	2
NMTAP	31	144	4
NMTAP	31	192	4
NMSTR	31	288	2
NMSI_	31	288	2	96	96	4
NMSTR	32	96	0
NMSI_	32	96	0	96	96	6
NMTAP	32	288	4
NMTAP	33	0	5
NMTAP	33	48	5
NMTAP	33	144	3
NMTAP	33	192	3
BRTAP	33	288	3
BRTAP	33	288	4
NMHLD	34	96	1	96
NMTAP	34	192	0
NMHLD	34	240	0	96
NMHLD	34	336	7	96
NMTAP	35	48	6
NMHLD	35	96	6	96
NMTAP	35	192	5
NMTAP	35	240	5
NMTAP	35	336	4
NMTAP	35	336	5
NMTAP	36	0	4
NMTAP	36	0	5
NMHLD	36	96	3	192
NMTAP	36	192	1
NMHLD	36	288	4	96
NMSTR	37	0	6
NMSCL	37	0	6	96	192	0
NMTAP	37	336	3
BXTAP	38	0	3
NMHLD	38	96	5	96
NMTAP	38	192	7
NMHLD	38	240	7	96
NMHLD	38	336	0	96
NMTAP	39	48	1
NMHLD	39	96	1	96
NMTAP	39	192	2
NMTAP	39	240	2
NMTAP	39	336	2
NMTAP	39	336	3
NMTAP	40	0	2
NMTAP	40	0	3
NMHLD	40	96	4	192
NMTAP	40	192	6
NMHLD	40	288	3	96
NMSTR	41	0	1
NMSCR	41	0	1	96	192	7
NMTAP	41	336	4
BXTAP	42	0	4
NMHLD	42	96	2	96
NMTAP	42	192	3
NMHLD	42	240	3	96
NMHLD	42	336	4	96
NMTAP	43	48	5
NMHLD	43	96	5	96
NMTAP	43	192	6
NMTAP	43	240	6
NMTAP	43	336	6
NMTAP	43	336	7
NMTAP	44	0	6
NMTAP	44	0	7
NMHLD	44	96	0	192
NMTAP	44	192	2
NMHLD	44	288	7	96
NMSTR	45	0	5
NMSCR	45	0	5	96	192	3
NMTAP	45	336	0
NMTAP	46	0	0
NMHLD	46	96	6	96
NMTAP	46	192	4
NMHLD	46	240	4	96
NMHLD	46	336	3	96
NMTAP	47	48	2
NMHLD	47	96	2	96
NMTAP	47	192	1
NMTAP	47	240	1
NMTAP	47	336	0
NMTAP	47	336	1
NMTAP	48	0	0
NMTAP	48	0	1
NMHLD	48	96	7	192
NMTAP	48	192	5
NMHLD	48	288	0	96
NMSTR	49	0	2
NMSSL	49	0	2	96	144	6
NMTAP	49	336	0
NMTAP	49	336	7
BRTAP	50	0	0
BRTAP	50	0	7
NMSTR	50	96	1
NMSI_	50	96	1	96	48	4
NMSTR	50	288	5
NMSI_	50	288	5	96	48	0
NMSTR	51	96	2
NMSI_	51	96	2	96	48	7
NMSTR	51	288	6
NMSI_	51	288	6	96	48	3
NMSTR	52	96	1
NMSXL	52	96	1	96	192	0
NMSTR	53	96	5
NMSXL	53	96	5	96	192	4
NMSTR	54	96	3
NMSI_	54	96	3	96	48	0
NMSTR	54	288	7
NMSI_	54	288	7	96	48	4
NMSTR	55	96	3
NMSLL	55	96	3	96	192	7
NMSLR	55	96	3	96	192	7
NMTAP	56	96	7
NMTAP	56	192	7
NMTAP	56	288	0
NMTAP	57	0	0
NMTAP	57	96	1
NMTAP	57	96	6
NMTAP	57	192	2
NMTAP	57	192	5
NMTAP	57	288	3
NMTAP	57	288	4
NMTTP	58	0	0	C	1	M1
NMTTP	58	0	1	B	0	M1
NMTTP	58	0	2	B	0	M1
NMTTP	58	0	5	B	0	M1
NMTTP	58	0	6	B	0	M1
NMTAP	58	336	0
NMTAP	58	336	1
NMTAP	59	0	0
NMTAP	59	0	1
NMTAP	59	96	2
NMTAP	59	96	7
NMTAP	59	192	1
NMTAP	59	192	6
NMTAP	59	240	1
NMTAP	59	240	6
NMTAP	59	336	0
NMTAP	59	336	5
NMTAP	60	0	0
NMTAP	60	0	5
NMSTR	60	96	6
NMSI_	60	96	6	96	48	3
NMSTR	60	96	7
NMSI_	60	96	7	96	48	3
EXTAP	60	288	0
EXTAP	60	288	1
EXTAP	60	336	0
EXTAP	60	336	1
NMTAP	61	48	1
NMTAP	61	48	2
NMTAP	61	144	2
NMTAP	61	144	3
NMTAP	61	192	2
NMTAP	61	192	3
NMTAP	61	288	0
NMTAP	61	288	1
NMTAP	62	0	6
NMTAP	62	0	7
NMTAP	62	96	4
NMTAP	62	96	5
NMTAP	62	192	2
NMTAP	62	192	3
NMTAP	62	288	1
NMTAP	62	288	4
NMTAP	62	336	1
NMTAP	62	336	4
NMTAP	63	96	4
NMTAP	63	96	5
NMTAP	63	192	6
NMTAP	63	192	7
NMTAP	63	240	6
NMTAP	63	240	7
NMTAP	63	336	0
NMTAP	63	336	7
NMTAP	64	0	0
NMTAP	64	0	7
NMSTR	64	96	0
NMSI_	64	96	0	96	48	4
NMSTR	64	96	1
NMSI_	64	96	1	96	48	4
EXTAP	64	288	6
EXTAP	64	288	7
EXTAP	64	336	6
EXTAP	64	336	7
NMTAP	65	48	5
NMTAP	65	48	6
NMTAP	65	144	4
NMTAP	65	144	5
NMTAP	65	192	4
NMTAP	65	192	5
NMTAP	65	288	6
NMTAP	65	288	7
NMTAP	66	0	0
NMTAP	66	0	7
NMTAP	66	48	0
NMTAP	66	48	7
NMTAP	66	144	0
NMTAP	66	144	1
NMSTR	66	192	0
NMSUR	66	192	0	96	96	5
NMSTR	66	192	1
NMSCR	66	192	1	96	96	4
BRTAP	67	96	6
BRTAP	67	96	7
NMTAP	67	192	0
NMTAP	67	192	5
NMTAP	67	240	0
NMTAP	67	240	5
NMTAP	67	336	1
NMTAP	67	336	6
NMTAP	68	0	1
NMTAP	68	0	6
NMSTR	68	96	2
NMSI_	68	96	2	96	48	0
NMSTR	68	96	7
NMSI_	68	96	7	96	48	3
EXTAP	68	288	1
EXTAP	68	288	4
EXTAP	68	336	1
EXTAP	68	336	4
NMTAP	69	48	2
NMTAP	69	48	3
NMTAP	69	144	0
NMTAP	69	144	1
NMTAP	69	192	0
NMTAP	69	192	1
NMTAP	69	288	2
NMTAP	69	288	3
NMTAP	70	0	6
NMTAP	70	0	7
NMTAP	70	96	4
NMTAP	70	96	5
NMTAP	70	192	0
NMTAP	70	192	1
NMTAP	70	288	2
NMTAP	70	288	7
NMTAP	70	336	2
NMTAP	70	336	7
NMTAP	71	96	0
NMTAP	71	96	1
NMTAP	71	192	0
NMTAP	71	192	7
NMTAP	71	240	0
NMTAP	71	240	7
NMTAP	71	336	6
NMTAP	71	336	7
NMTAP	72	0	6
NMTAP	72	0	7
NMSTR	72	96	0
NMSI_	72	96	0	96	48	4
NMSTR	72	96	5
NMSI_	72	96	5	96	48	7
EXTAP	72	288	3
EXTAP	72	288	6
EXTAP	72	336	3
EXTAP	72	336	6
NMTAP	73	48	2
NMTAP	73	48	5
NMTAP	73	144	1
NMTAP	73	144	3
NMTAP	73	192	1
NMTAP	73	192	3
NMTAP	73	288	4
NMTAP	73	288	6
NMTAP	74	0	0
NMTAP	74	0	2
NMTAP	74	48	0
NMTAP	74	48	2
NMTAP	74	144	5
NMTAP	74	144	7
NMTAP	74	192	5
NMTAP	74	192	7
BRTAP	74	288	0
BRTAP	74	288	7
EXSTR	75	48	3
NMSUR	75	48	3	96	336	4
EXHLD	75	48	5	432
NMTAP	76	288	4
NMTAP	76	336	3
NMTAP	77	0	2
NMTAP	77	0	5
BRTAP	77	96	0
BRTAP	77	96	7

T_REC_TAP	286
T_REC_BRK	10
T_REC_XTP	16
T_REC_BXX	5
T_REC_HLD	44
T_REC_XHO	1
T_REC_BHO	0
T_REC_BXH	0
T_REC_STR	31
T_REC_BST	0
T_REC_XST	1
T_REC_XBS	0
T_REC_TTP	5
T_REC_THO	0
T_REC_SLD	33
T_REC_BSL	0
T_REC_ALL	432
T_NUM_TAP	339
T_NUM_BRK	15
T_NUM_HLD	45
T_NUM_SLD	33
T_NUM_ALL	432
T_JUDGE_TAP	354
T_JUDGE_HLD	203
T_JUDGE_SLD	33
T_JUDGE_ALL	590
TTM_EACHPAIRS	115
TTM_SCR_TAP	169500
TTM_SCR_BRK	39000
TTM_SCR_HLD	45000
TTM_SCR_SLD	49500
TTM_SCR_ALL	303000
TTM_SCR_S	292500
TTM_SCR_SS	301500
TTM_RAT_ACV	10049

