VERSION	0.00.00	1.04.00
FES_MODE	0
BPM_DEF	108.000	108.000	108.000	108.000
MET_DEF	4	4
RESOLUTION	384
CLK_DEF	384
COMPATIBLE_CODE	MA2

BPM	0	0	108.000
MET	0	0	4	4

NMTTP	1	0	2	A	0	M1
NMTTP	1	24	3	A	0	M1
NMTTP	1	48	4	A	0	M1
NMTTP	1	72	5	A	0	M1
NMTTP	1	96	2	B	0	M1
NMTTP	1	120	3	B	0	M1
NMTTP	1	144	4	B	0	M1
NMTTP	1	168	5	B	0	M1
NMTHO	1	192	0	96	C	1	M1
NMSTR	2	0	1
NMSI_	2	0	1	96	48	3
NMTAP	2	48	1
NMSTR	2	96	7
NMSI_	2	96	7	96	48	5
NMTAP	2	144	7
NMSTR	2	192	0
NMSI_	2	192	0	96	48	4
NMTAP	2	240	0
NMSTR	2	288	6
NMSI_	2	288	6	96	48	4
NMTAP	2	336	6
NMSTR	3	0	0
NMSI_	3	0	0	96	48	2
NMTAP	3	48	0
NMSTR	3	96	7
NMSI_	3	96	7	96	48	3
NMTAP	3	144	7
NMTAP	3	192	1
NMTAP	3	240	1
NMHLD	3	288	2	48
NMHLD	3	288	4	48
NMTAP	4	0	3
NMSTR	4	0	5
NMSI_	4	0	5	96	48	3
NMTAP	4	48	5
NMSTR	4	96	1
NMSI_	4	96	1	96	48	7
NMTAP	4	144	1
NMSTR	4	192	6
NMSI_	4	192	6	96	48	2
NMTAP	4	240	6
NMSTR	4	288	0
NMSI_	4	288	0	96	48	6
NMTAP	4	336	0
NMSTR	5	0	4
NMSI_	5	0	4	96	48	2
NMTAP	5	48	4
NMSTR	5	96	1
NMSI_	5	96	1	96	48	5
NMTAP	5	144	1
NMTAP	5	192	6
NMTAP	5	240	6
NMHLD	5	288	3	48
NMHLD	5	288	4	48
NMTAP	6	0	2
NMTAP	6	48	0
NMTAP	6	48	1
NMSTR	6	96	0
NMSI_	6	96	0	96	48	4
NMTAP	6	96	7
NMTAP	6	144	6
EXSTR	6	192	0
NMSCL	6	192	0	96	48	5
NMSCR	6	192	0	96	48	3
EXTAP	6	288	0
NMTAP	7	0	4
NMTAP	7	0	6
NMTAP	7	48	5
NMTAP	7	96	2
NMSTR	7	96	4
NMSI_	7	96	4	96	48	0
NMTAP	7	144	3
EXSTR	7	192	4
NMSCL	7	192	4	96	48	1
NMSCR	7	192	4	96	48	7
EXTAP	7	288	4
NMTAP	8	0	0
NMTAP	8	48	0
NMTAP	8	96	1
NMTAP	8	144	2
NMTAP	8	192	3
NMTAP	8	240	4
NMTAP	8	288	5
BRSTR	8	336	0
NMSI_	8	336	0	96	96	6
BRTAP	8	336	6
CNSI_	9	144	6	0	24	1
CNSI_	9	168	1	0	48	5
CNSI_	9	216	5	0	24	2
CNSI_	9	240	2	0	48	4
NMHLD	10	0	5	96
NMTAP	10	48	4
NMHLD	10	96	7	96
NMTAP	10	144	6
NMHLD	10	192	5	96
NMTAP	10	240	4
NMSTR	10	288	7
NMSCL	10	288	7	96	168	1
NMTAP	10	312	7
NMTAP	10	336	6
NMTAP	11	0	7
NMHLD	11	192	0	96
NMTAP	11	288	1
NMHLD	12	0	2	96
NMTAP	12	48	3
NMHLD	12	96	0	96
NMTAP	12	144	1
NMHLD	12	192	2	96
NMTAP	12	240	3
NMSTR	12	288	0
NMSSL	12	288	0	96	144	4
NMTAP	12	312	0
NMTAP	12	336	1
NMTAP	13	0	0
NMTAP	13	240	2
NMTAP	13	288	1
NMTAP	13	288	3
NMTAP	13	336	5
NMTAP	14	0	4
NMHLD	14	0	6	96
NMTAP	14	48	5
NMHLD	14	96	4	96
NMTAP	14	144	5
NMHLD	14	192	7	96
NMTAP	14	240	6
NMSTR	14	288	3
NMSCL	14	288	3	96	168	5
NMTAP	14	312	3
NMTAP	14	336	5
NMTAP	15	0	3
EXTAP	15	168	4
EXHLD	15	192	4	96
NMSTR	15	288	2
NMSI_	15	288	2	96	192	5
NMSCR	15	288	2	96	192	5
NMTAP	15	336	2
NMTAP	15	360	3
NMTAP	16	0	2
NMTAP	16	240	6
NMTAP	16	288	4
NMSTR	16	288	6
NMSCR	16	288	6	96	48	7
NMTAP	16	336	5
NMTAP	17	0	6
CNSI_	17	48	7	0	48	3
EXTAP	17	144	2
EXTAP	17	168	2
EXHLD	17	192	2	96
EXHLD	17	192	4	96
NMHLD	18	0	5	96
NMTAP	18	48	4
NMHLD	18	96	1	96
NMTAP	18	144	2
NMHLD	18	192	6	96
NMTAP	18	240	7
NMSTR	18	288	2
NMSCL	18	288	2	96	192	4
NMTAP	18	312	2
NMTAP	18	336	3
NMTTP	19	0	0	C	0	M1
NMTAP	19	144	3
NMHLD	19	192	3	96
NMTAP	19	288	1
NMHLD	20	0	2	96
NMTAP	20	48	3
NMHLD	20	96	6	96
NMTAP	20	144	5
NMHLD	20	192	1	96
NMTAP	20	240	0
NMSTR	20	288	5
NMSCL	20	288	5	96	96	2
NMTAP	20	312	5
NMTAP	20	336	7
NMTAP	21	0	5
NMTAP	21	192	1
NMTAP	21	192	3
NMTAP	21	240	2
NMTAP	21	240	4
NMTAP	21	288	3
NMTAP	21	288	5
NMTAP	21	336	4
NMTAP	21	336	6
NMTAP	22	0	0
NMTAP	22	0	7
NMTAP	22	48	1
NMTAP	22	96	2
NMTAP	22	96	3
NMTAP	22	144	4
NMTAP	22	192	3
NMTAP	22	192	5
NMTAP	22	240	6
NMSTR	22	288	7
NMSCR	22	288	7	96	192	5
NMTAP	22	312	7
NMTAP	22	336	0
NMTTP	23	0	0	C	0	M1
NMTAP	23	192	6
NMTAP	23	288	1
NMTAP	23	288	7
NMSTR	23	336	0
NMSXL	23	336	0	96	96	0
NMTAP	23	360	0
NMTAP	24	0	0
NMSTR	24	144	6
NMSXR	24	144	6	96	96	5
NMTAP	24	168	6
NMTAP	24	192	6
NMSTR	24	336	7
NMSXL	24	336	7	96	240	3
NMSXR	24	336	7	96	240	3
NMTAP	24	360	7
NMTAP	25	0	7
NMTAP	26	0	4
NMTAP	26	0	5
NMHLD	26	48	4	192
NMSTR	26	48	5
NMSV_	26	48	5	96	96	3
NMTAP	26	336	4
NMTAP	26	360	4
NMTAP	27	0	5
NMTAP	27	48	4
NMHLD	27	48	6	192
NMTAP	27	168	5
NMTAP	27	192	5
NMTAP	27	240	4
NMTAP	27	288	3
NMTAP	27	288	5
NMTAP	27	336	2
NMTAP	28	0	1
NMTAP	28	0	3
NMSTR	28	48	1
NMSCR	28	48	1	96	96	4
NMHLD	28	48	3	192
NMTAP	28	336	3
NMTAP	28	360	3
NMTAP	29	0	2
NMHLD	29	48	1	144
NMTAP	29	48	3
NMSTR	29	96	3
NMSCL	29	96	3	96	48	1
NMSTR	29	192	3
NMSCR	29	192	3	96	48	5
EXTAP	30	0	6
EXTAP	30	0	7
NMHLD	30	48	6	192
NMSTR	30	48	7
NMSCL	30	48	7	96	96	4
NMTAP	30	336	5
NMTAP	30	360	5
NMTAP	31	0	3
NMHLD	31	48	2	144
NMHLD	31	48	4	48
NMTAP	31	168	3
NMTAP	31	192	3
NMTAP	31	240	2
NMTAP	31	288	2
NMTAP	31	288	3
NMTAP	31	336	0
NMTAP	31	360	1
NMTAP	32	0	2
NMTAP	32	0	3
NMHLD	32	48	2	48
NMHLD	32	48	3	48
NMTAP	32	144	7
NMTAP	32	168	6
NMTAP	32	192	4
NMTAP	32	192	5
NMHLD	32	240	4	48
NMHLD	32	240	5	48
NMTAP	32	336	1
NMTAP	32	360	2
NMTAP	33	0	3
NMTAP	33	0	4
NMTAP	33	48	5
NMTAP	33	96	6
NMTAP	33	96	7
NMTAP	33	144	0
NMTAP	33	192	1
NMTAP	33	192	7
NMTAP	33	240	2
NMTAP	33	288	3
NMTAP	33	288	4
NMTAP	34	0	3
NMTAP	34	24	4
NMTAP	34	48	2
NMTAP	34	72	5
NMTAP	34	96	1
NMTAP	34	120	6
NMTAP	34	144	0
NMTAP	34	168	7
NMTAP	34	192	0
NMTAP	34	216	1
NMTAP	34	240	2
NMTAP	34	264	3
NMTAP	34	288	4
NMTAP	34	312	5
NMTAP	34	336	6
NMTAP	34	360	7
NMSTR	35	0	0
NMSI_	35	0	0	96	48	4
NMTAP	35	48	2
NMTAP	35	96	0
NMSTR	35	96	6
NMSI_	35	96	6	96	48	3
NMTAP	35	144	5
NMSTR	35	192	2
NMSI_	35	192	2	96	48	7
NMTAP	35	192	6
NMTAP	35	240	1
NMTAP	35	288	2
EXSTR	35	288	6
NMSCR	35	288	6	96	48	1
EXSTR	35	336	5
NMSCL	35	336	5	96	48	2
EXSTR	36	0	6
NMSV_	36	0	6	96	48	1
EXSTR	36	48	5
BRSV_	36	48	5	96	48	2
EXSTR	36	96	6
NMSCR	36	96	6	96	120	5
EXTAP	36	144	5
BXTAP	36	192	6
NMSTR	37	0	4
BRSCR	37	0	4	96	48	6
NMSTR	37	48	3
BRSCL	37	48	3	96	48	1
NMSTR	37	96	4
BRSI_	37	96	4	96	48	0
NMSTR	37	144	3
BRSI_	37	144	3	96	48	7
NMTAP	37	192	4
NMTAP	37	240	3
NMTAP	37	288	5
EXTAP	37	336	0
EXTAP	37	336	6
EXSTR	38	0	7
NMSF_	38	0	7	96	96	3
NMTAP	38	288	1
NMTAP	38	288	5
NMTAP	39	0	4
NMSTR	39	0	6
NMSI_	39	0	6	96	48	3
NMTAP	39	48	7
NMSTR	39	96	0
NMSCR	39	96	0	96	48	2
NMTAP	39	96	6
NMTAP	39	144	7
NMTAP	39	192	0
NMSTR	39	192	6
NMSCL	39	192	6	96	48	4
NMTAP	39	240	7
NMSTR	39	288	1
NMSI_	39	288	1	96	48	3
NMTAP	39	288	6
NMSTR	39	336	0
NMSI_	39	336	0	96	48	4
EXTAP	40	0	1
EXSTR	40	0	7
NMSI_	40	0	7	96	48	5
EXTAP	40	48	0
EXSTR	40	96	7
NMSCL	40	96	7	96	96	0
NMTAP	40	144	0
NMTTP	40	152	0	B	0	M1
NMTTP	40	160	0	C	0	M1
NMTTP	40	168	4	B	0	M1
NMTTP	40	176	4	A	0	M1
EXTAP	40	192	7
NMTAP	41	0	0
NMTAP	41	0	4
NMTAP	41	48	2
NMTAP	41	72	3
NMSTR	41	96	1
NMSI_	41	96	1	96	48	4
NMTAP	41	144	5
NMTAP	41	192	1
NMSTR	41	192	7
NMSI_	41	192	7	96	48	2
NMTAP	41	240	6
NMSTR	41	288	3
NMSI_	41	288	3	96	48	7
NMTAP	41	288	7
NMTAP	41	336	4
NMSTR	42	0	3
NMSXL	42	0	3	96	96	6
NMSXR	42	0	3	96	96	0
NMTAP	42	240	7
NMTAP	42	288	0
NMSTR	42	288	6
NMSCL	42	288	6	96	96	2
NMTAP	42	336	1
NMTAP	42	336	5
NMSTR	43	0	2
NMSCR	43	0	2	96	96	6
NMTAP	43	0	6
NMTAP	43	96	0
NMSTR	43	192	2
NMSI_	43	192	2	96	48	5
NMTAP	43	240	3
NMTAP	43	288	2
NMSTR	43	288	6
NMSI_	43	288	6	96	48	2
NMTAP	43	336	7
BRSTR	44	0	2
NMSCL	44	0	2	96	192	3
BRTAP	44	0	6
NMHLD	44	96	0	192
NMTAP	44	336	0
NMTAP	44	336	1
NMTAP	44	360	2
NMTAP	44	360	7
NMHLD	45	0	3	96
NMHLD	45	0	6	96
NMTAP	45	144	6
NMTAP	45	144	7
NMTAP	45	168	0
NMTAP	45	168	5
NMTAP	45	192	1
NMSTR	45	192	4
BRSCR	45	192	4	96	96	0
NMSTR	45	288	0
BRSLL	45	288	0	96	96	4
NMTAP	45	336	2
NMTAP	46	0	4
CNSI_	46	96	4	0	48	2
CNSUL	46	144	2	0	96	1
NMTAP	46	336	0
NMTAP	46	336	7
NMTAP	47	0	6
NMTAP	47	0	7
NMTAP	47	48	2
NMTAP	47	48	3
NMTAP	47	96	5
NMTAP	47	96	6
NMTAP	47	144	1
NMTAP	47	144	2
NMTAP	47	192	4
NMTAP	47	192	5
NMTAP	47	240	0
NMTAP	47	240	1
NMTAP	47	288	3
NMTAP	47	288	4
BRTAP	47	336	2
BRTAP	47	336	5
NMSTR	48	0	1
NMSI_	48	0	1	96	48	3
NMTAP	48	48	0
NMSTR	48	96	7
NMSI_	48	96	7	96	48	1
NMTAP	48	144	6
NMSTR	48	192	5
NMSI_	48	192	5	96	48	7
NMTAP	48	240	4
NMSTR	48	288	3
NMSI_	48	288	3	96	48	5
NMTAP	48	336	2
NMSTR	49	0	1
NMSI_	49	0	1	96	48	3
NMTAP	49	48	0
NMSTR	49	96	7
NMSI_	49	96	7	96	48	3
NMTAP	49	144	6
NMTAP	49	192	5
NMTAP	49	240	4
NMHLD	49	288	2	48
NMHLD	49	288	4	48
NMSTR	50	0	5
NMSI_	50	0	5	96	48	7
NMTAP	50	48	4
NMSTR	50	96	3
NMSI_	50	96	3	96	48	5
NMTAP	50	144	2
NMSTR	50	192	1
NMSI_	50	192	1	96	48	3
NMTAP	50	240	0
NMSTR	50	288	7
NMSI_	50	288	7	96	48	1
NMTAP	50	336	6
NMSTR	51	0	5
NMSI_	51	0	5	96	48	7
NMTAP	51	48	4
NMSTR	51	96	3
NMSI_	51	96	3	96	48	7
NMTAP	51	144	2
NMTAP	51	192	1
NMTAP	51	240	0
NMHLD	51	288	0	48
NMHLD	51	288	6	48
NMTAP	52	0	5
NMTAP	52	48	3
NMTAP	52	96	2
NMTAP	52	96	4
NMTAP	52	144	1
NMTAP	52	144	5
NMTAP	52	192	0
NMTTP	52	192	6	E	0	M1
NMTAP	52	240	1
NMTTP	52	240	7	E	0	M1
NMTTP	52	288	0	E	0	M1
NMTAP	52	288	2
NMTTP	52	336	1	E	0	M1
NMTAP	52	336	3
NMTAP	53	0	2
NMTAP	53	48	4
NMTAP	53	96	3
NMTAP	53	96	5
NMTAP	53	144	2
NMTAP	53	144	6
NMTTP	53	192	2	E	0	M1
NMTAP	53	192	7
NMTTP	53	240	1	E	0	M1
NMTAP	53	240	6
NMTTP	53	288	0	E	0	M1
NMTAP	53	288	5
NMTAP	53	336	4
NMTTP	53	336	7	E	0	M1
NMTAP	54	0	5
NMTAP	54	24	5
NMTAP	54	48	3
NMTAP	54	72	3
NMTAP	54	96	7
NMTAP	54	120	7
NMTAP	54	144	1
NMTAP	54	168	1
NMTAP	54	192	0
NMTAP	54	216	1
NMTAP	54	240	2
NMTAP	54	264	3
NMSTR	54	288	4
BRSI_	54	288	4	96	48	2
NMTAP	54	312	5
NMTAP	54	336	6
NMTAP	54	360	7
BRTAP	55	0	0
CNSI_	55	48	2	0	168	5
CNSI_	55	216	5	0	72	1
CNSI_	55	288	1	0	192	6
CNSI_	56	96	6	0	288	0

T_REC_TAP	284
T_REC_BRK	5
T_REC_XTP	13
T_REC_BXX	1
T_REC_HLD	39
T_REC_XHO	3
T_REC_BHO	0
T_REC_BXH	0
T_REC_STR	65
T_REC_BST	2
T_REC_XST	10
T_REC_XBS	0
T_REC_TTP	22
T_REC_THO	1
T_REC_SLD	74
T_REC_BSL	8
T_REC_ALL	527
T_NUM_TAP	394
T_NUM_BRK	16
T_NUM_HLD	43
T_NUM_SLD	74
T_NUM_ALL	527
T_JUDGE_TAP	402
T_JUDGE_HLD	170
T_JUDGE_SLD	82
T_JUDGE_ALL	654
TTM_EACHPAIRS	78
TTM_SCR_TAP	197000
TTM_SCR_BRK	41600
TTM_SCR_HLD	43000
TTM_SCR_SLD	111000
TTM_SCR_ALL	392600
TTM_SCR_S	379300
TTM_SCR_SS	391000
TTM_RAT_ACV	10040

