VERSION	0.00.00	1.04.00
FES_MODE	0
BPM_DEF	108.000	108.000	108.000	108.000
MET_DEF	4	4
RESOLUTION	384
CLK_DEF	384
COMPATIBLE_CODE	MA2

BPM	0	0	108.000
MET	0	0	4	4

NMSTR	1	0	7
BRSSR	1	0	7	96	192	3
EXTAP	2	0	1
EXTAP	2	0	4
NMTAP	2	48	2
NMTAP	2	96	2
NMTAP	2	144	2
NMTAP	2	144	3
NMTAP	2	192	4
NMTAP	2	240	4
NMTAP	2	288	3
NMTAP	2	288	5
NMTAP	2	336	4
NMHLD	2	336	6	96
NMTAP	3	48	5
NMTAP	3	96	5
NMTAP	3	144	4
NMTAP	3	144	6
NMTAP	3	192	3
NMTAP	3	240	3
NMTAP	3	288	2
NMTAP	3	288	4
NMTAP	3	336	1
NMHLD	3	336	3	96
NMTAP	4	48	2
NMTAP	4	96	2
NMTAP	4	144	3
NMTAP	4	144	4
NMTAP	4	192	5
NMTAP	4	240	5
NMTAP	4	288	4
NMTAP	4	288	6
NMTAP	4	336	5
NMHLD	4	336	7	96
NMTAP	5	48	4
NMTAP	5	96	4
NMTAP	5	144	3
NMTAP	5	144	5
NMTAP	5	192	2
NMTAP	5	240	1
NMTAP	5	288	0
NMTAP	5	288	3
NMHLD	5	336	0	336
NMTAP	5	336	3
NMTTP	6	48	3	E	0	M1
NMTTP	6	96	4	E	0	M1
NMTTP	6	144	5	E	0	M1
NMTTP	6	192	6	E	0	M1
NMTAP	6	288	6
NMTAP	6	336	1
NMHLD	6	336	7	336
NMTTP	7	48	5	E	0	M1
NMTTP	7	96	4	E	0	M1
NMTTP	7	144	3	E	0	M1
NMTTP	7	192	2	E	0	M1
NMTAP	7	288	1
NMTAP	7	336	1
NMTAP	8	0	2
NMTAP	8	96	3
NMTAP	8	192	4
NMTAP	8	288	3
NMTAP	8	288	5
BRTAP	8	336	3
BRHLD	8	336	5	384
NMTTP	9	48	2	E	0	M1
NMTTP	9	96	1	E	0	M1
NMTTP	9	144	0	E	0	M1
NMTTP	9	192	7	E	0	M1
NMTTP	9	240	6	E	0	M1
NMTTP	9	288	5	E	0	M1
NMTTP	9	336	4	E	0	M1
NMSTR	10	48	2
NMSCL	10	48	2	96	96	7
NMTAP	10	96	2
NMSTR	10	240	6
NMSCL	10	240	6	96	96	3
NMTAP	10	288	6
NMSTR	11	48	1
NMSCL	11	48	1	96	96	6
NMTAP	11	96	1
NMSTR	11	240	5
NMSCL	11	240	5	96	96	2
NMTAP	11	288	5
NMSTR	12	48	1
NMSUR	12	48	1	96	96	5
NMTAP	12	96	1
NMSTR	12	240	7
NMSUL	12	240	7	96	96	3
NMTAP	12	288	7
NMTAP	13	48	2
NMTAP	13	96	2
NMHLD	13	144	1	96
NMTAP	13	240	2
NMTAP	13	288	1
NMTAP	13	336	0
NMTAP	14	0	7
NMSTR	14	48	6
NMSI_	14	48	6	96	96	2
NMTAP	14	96	6
NMSTR	14	240	1
NMSI_	14	240	1	96	96	5
NMTAP	14	288	1
NMTAP	15	48	7
NMTAP	15	96	7
NMHLD	15	144	0	96
NMHLD	15	144	6	96
NMTTP	15	336	1	E	0	M1
NMTTP	15	336	7	E	0	M1
NMTTP	16	0	2	B	0	M1
NMTTP	16	0	3	B	0	M1
NMTTP	16	0	4	B	0	M1
NMTTP	16	0	5	B	0	M1
NMTAP	16	240	0
NMTAP	16	240	1
NMSTR	16	288	0
NMSV_	16	288	0	96	120	5
NMSTR	16	288	1
NMSV_	16	288	1	96	120	4
EXTAP	17	192	3
EXTAP	17	192	6
NMTAP	17	288	3
NMTAP	17	288	6
EXTAP	18	0	4
NMSTR	18	48	5
NMSI_	18	48	5	96	96	0
NMTAP	18	96	5
NMSTR	18	240	2
NMSI_	18	240	2	96	96	5
NMTAP	18	288	2
NMSTR	19	48	7
NMSI_	19	48	7	96	96	2
NMTAP	19	96	7
NMSTR	19	240	3
NMSI_	19	240	3	96	96	7
NMTAP	19	288	3
NMSTR	20	48	6
NMSI_	20	48	6	96	96	3
NMTAP	20	96	6
NMSTR	20	240	2
NMSI_	20	240	2	96	96	7
NMTAP	20	288	2
NMTAP	21	48	6
NMTAP	21	96	5
NMHLD	21	144	4	96
NMTAP	21	144	7
NMTAP	21	240	0
NMTAP	21	288	1
NMTAP	21	336	2
NMTAP	22	0	3
NMSTR	22	48	5
NMSI_	22	48	5	96	96	0
NMTAP	22	96	5
NMSTR	22	240	1
NMSI_	22	240	1	96	96	5
NMTAP	22	288	1
NMSTR	23	48	6
NMSI_	23	48	6	96	96	2
NMTAP	23	96	6
NMTAP	23	240	0
NMSTR	23	288	0
NMSXL	23	288	0	96	192	0
NMSTR	24	96	7
NMSCL	24	96	7	96	192	4
NMSTR	24	288	0
NMSCR	24	288	0	96	192	3
BRTAP	25	192	0
NMTAP	25	288	7
NMHLD	26	0	6	96
NMHLD	26	96	5	96
NMSTR	26	192	4
NMSI_	26	192	4	96	288	0
NMHLD	26	288	3	480
NMHLD	28	0	0	96
NMHLD	28	96	1	96
NMHLD	28	192	2	96
NMSTR	28	288	3
BRSI_	28	288	3	96	240	0
NMHLD	29	0	4	384
NMHLD	30	0	0	96
NMHLD	30	96	1	96
NMSTR	30	192	2
NMSI_	30	192	2	96	96	0
NMHLD	30	288	3	288
CNSI_	31	0	0	0	96	6
CNSI_	31	96	6	0	96	4
NMTAP	31	288	2
NMSTR	31	288	3
NMSCR	31	288	3	96	96	7
NMSTR	32	96	1
NMSLR	32	96	1	96	96	5
NMSTR	32	288	7
BRSCR	32	288	7	96	288	5
NMTHO	34	0	0	192	C	0	M1
NMSTR	34	288	0
NMSV_	34	288	0	96	48	5
NMSTR	34	288	1
NMSCR	34	288	1	96	48	4
NMSTR	35	96	0
NMSCL	35	96	0	96	48	5
NMSTR	35	96	1
NMSV_	35	96	1	96	48	4
NMSTR	35	288	0
NMSXR	35	288	0	96	192	5
NMSTR	35	288	1
NMSUR	35	288	1	96	192	4
NMSTR	36	288	2
BRSI_	36	288	2	96	48	4
NMHLD	36	288	6	288
CNSI_	37	48	4	0	48	1
CNSI_	37	96	1	0	48	5
CNSI_	37	144	5	0	48	0
NMTAP	37	288	0
NMSTR	37	288	7
NMSF_	37	288	7	96	96	3
NMTAP	38	192	1
NMTAP	38	192	5
NMSTR	38	288	6
NMSI_	38	288	6	96	48	3
NMSTR	39	0	0
NMSI_	39	0	0	96	48	4
NMSTR	39	96	7
NMSI_	39	96	7	96	48	3
NMSTR	39	192	1
NMSI_	39	192	1	96	48	4
NMSTR	39	288	7
NMSCL	39	288	7	96	48	4
NMSTR	40	0	0
NMSCR	40	0	0	96	48	3
NMSTR	40	96	7
NMSSR	40	96	7	96	96	3
NMTAP	41	0	1
NMTAP	41	48	0
NMTAP	41	96	7
NMTAP	41	144	6
NMTAP	41	192	5
NMTAP	41	240	4
NMTAP	41	288	3
NMTAP	41	336	2
NMHLD	42	0	1	96
NMHLD	42	96	3	96
NMHLD	42	192	4	96
NMSTR	42	288	6
NMSI_	42	288	6	96	48	1
CNSCL	43	48	1	0	72	7
CNSI_	43	120	7	0	72	3
NMSTR	43	288	2
NMSI_	43	288	2	96	48	7
CNSCR	44	48	7	0	72	1
CNSI_	44	120	1	0	72	5
NMSTR	44	288	7
BRSF_	44	288	7	96	48	3
NMSTR	45	96	0
BRSF_	45	96	0	96	48	4
NMTAP	45	288	2
NMSTR	45	288	6
BRSI_	45	288	6	96	48	2
NMSTR	46	0	0
BRSI_	46	0	0	96	48	4
NMSTR	46	96	7
BRSI_	46	96	7	96	48	3
NMTAP	46	192	1
NMTAP	46	288	0
BRHLD	46	336	0	240
NMTTP	47	48	3	E	0	M1
NMTTP	47	96	2	E	0	M1
NMTTP	47	144	1	E	0	M1
NMTTP	47	192	0	E	0	M1
NMTTP	47	240	7	E	0	M1
NMTTP	47	288	6	E	0	M1
NMTTP	47	336	5	E	0	M1
EXTAP	48	0	1
NMTAP	48	48	0
NMTAP	48	48	2
NMTAP	48	96	0
NMTAP	48	96	2
NMTAP	48	144	1
NMTAP	48	192	0
NMTAP	48	192	6
NMTAP	48	240	0
NMTAP	48	240	6
NMHLD	48	288	5	96
NMHLD	48	336	7	48
NMTAP	49	48	5
NMTAP	49	48	7
NMTAP	49	96	5
NMTAP	49	96	7
NMTAP	49	144	6
NMTAP	49	192	1
NMTAP	49	192	7
NMTAP	49	240	1
NMTAP	49	240	7
NMHLD	49	288	2	96
NMHLD	49	336	0	48
NMTAP	50	48	0
NMTAP	50	48	2
NMTAP	50	96	1
NMTAP	50	96	7
NMTAP	50	144	6
NMTAP	50	192	3
NMTAP	50	192	5
NMTAP	50	240	4
NMTAP	50	240	6
NMHLD	50	288	7	96
NMHLD	50	336	3	48
NMTAP	51	48	4
NMTAP	51	48	6
NMTAP	51	96	4
NMTAP	51	96	6
NMTAP	51	144	7
NMTAP	51	192	0
NMTAP	51	192	6
NMTAP	51	240	1
NMTAP	51	240	7
NMHLD	51	288	2	96
NMHLD	51	336	0	96
NMTAP	52	48	2
NMTAP	52	96	1
NMTAP	52	96	7
NMTAP	52	144	6
NMTAP	52	192	4
NMTAP	52	192	5
NMTAP	52	240	3
NMHLD	52	288	2	96
NMHLD	52	336	0	96
NMTAP	53	48	1
NMTAP	53	96	2
NMTAP	53	96	7
NMTAP	53	144	6
NMTAP	53	192	6
NMTAP	53	192	7
NMTAP	53	240	5
NMTAP	53	288	2
NMTAP	53	288	4
NMTAP	53	336	4
NMTTP	54	0	1	B	0	M1
NMTTP	54	48	7	B	0	M1
NMTTP	54	96	3	B	0	M1
NMTTP	54	144	5	B	0	M1
NMTTP	54	192	1	A	0	M1
NMTTP	54	216	2	E	0	M1
NMTTP	54	240	3	E	0	M1
NMTTP	54	264	3	A	0	M1
NMTTP	54	288	7	A	0	M1
NMTTP	54	312	7	E	0	M1
NMTTP	54	336	6	E	0	M1
NMTTP	54	360	5	A	0	M1
BXSTR	55	0	0
BRSI_	55	0	0	96	672	4

T_REC_TAP	151
T_REC_BRK	2
T_REC_XTP	6
T_REC_BXX	0
T_REC_HLD	33
T_REC_XHO	0
T_REC_BHO	2
T_REC_BXH	0
T_REC_STR	51
T_REC_BST	0
T_REC_XST	0
T_REC_XBS	1
T_REC_TTP	40
T_REC_THO	1
T_REC_SLD	42
T_REC_BSL	10
T_REC_ALL	339
T_NUM_TAP	248
T_NUM_BRK	15
T_NUM_HLD	34
T_NUM_SLD	42
T_NUM_ALL	339
T_JUDGE_TAP	251
T_JUDGE_HLD	224
T_JUDGE_SLD	52
T_JUDGE_ALL	527
TTM_EACHPAIRS	51
TTM_SCR_TAP	124000
TTM_SCR_BRK	39000
TTM_SCR_HLD	34000
TTM_SCR_SLD	63000
TTM_SCR_ALL	260000
TTM_SCR_S	250750
TTM_SCR_SS	258500
TTM_RAT_ACV	10058

