VERSION	0.00.00	1.05.00
FES_MODE	0
BPM_DEF	204.000	204.000	204.000	204.000
MET_DEF	4	4
RESOLUTION	384
CLK_DEF	384
COMPATIBLE_CODE	MA2

BPM	0	0	204.000
MET	0	0	4	4

NMTAP	5	0	4
NMTAP	5	96	4
NMTAP	5	192	4
NMTAP	5	288	4
NMTAP	5	352	3
NMTAP	6	0	4
NMTAP	6	96	4
NMTAP	6	192	4
NMTAP	6	256	2
NMTAP	6	288	3
NMTAP	6	320	2
NMTAP	6	352	4
NMTAP	7	0	3
NMTAP	7	96	3
NMTAP	7	192	3
NMTAP	7	288	3
NMTAP	7	352	5
NMTAP	8	0	4
NMTAP	8	32	5
NMTAP	8	64	2
NMTAP	8	96	3
NMTAP	8	128	2
NMTAP	8	160	4
NMTAP	8	192	3
NMTTP	8	288	0	C	1	M1
NMHLD	9	0	4	96
NMTAP	9	0	6
NMTAP	9	96	5
NMTAP	9	192	1
NMHLD	9	192	3	96
NMTAP	9	288	2
NMTAP	10	0	4
NMTAP	10	0	6
NMTAP	10	64	5
NMTAP	10	96	4
NMTAP	10	160	2
NMTAP	10	192	3
NMTAP	10	288	1
NMTAP	10	288	4
NMTAP	10	352	2
NMSTR	11	0	3
NMSCR	11	0	3	96	48	6
NMTAP	11	96	1
NMSTR	11	192	7
NMSCR	11	192	7	96	48	2
NMTAP	11	288	5
NMTAP	12	0	7
BXTAP	12	96	3
BXTAP	12	96	7
BXTAP	12	192	1
BXTAP	12	192	5
NMTAP	12	288	4
NMSTR	13	0	5
NMSCR	13	0	5	96	48	0
NMTAP	13	96	1
NMSTR	13	192	2
NMSCR	13	192	2	96	48	4
NMTAP	13	288	6
NMTAP	14	0	3
NMTAP	14	0	7
NMTAP	14	64	6
NMTAP	14	96	4
NMTAP	14	160	1
NMTAP	14	192	3
NMTAP	14	288	0
NMTAP	14	288	4
NMSTR	15	0	5
NMSI_	15	0	5	96	48	0
NMTAP	15	96	1
NMSTR	15	192	2
NMSI_	15	192	2	96	48	4
NMTAP	15	288	6
NMTAP	16	0	5
NMTAP	16	32	5
NMTAP	16	64	3
NMTAP	16	96	4
NMTAP	16	128	4
NMTAP	16	160	2
NMTAP	16	192	3
NMTTP	16	288	1	B	0	M1
NMTTP	16	288	1	E	0	M1
NMTTP	16	288	2	E	0	M1
NMSTR	17	0	5
NMSLR	17	0	5	96	96	1
NMTAP	17	96	3
NMSTR	17	192	2
NMSLL	17	192	2	96	96	6
NMTAP	17	288	4
NMSTR	18	0	5
NMSCR	18	0	5	96	48	0
NMTAP	18	96	3
NMSTR	18	192	1
NMSCR	18	192	1	96	48	4
NMTAP	18	288	7
NMTAP	19	0	6
NMTAP	19	64	6
NMTAP	19	96	4
NMTAP	19	160	4
NMTAP	19	192	2
NMTAP	19	256	2
NMSTR	19	288	0
NMSCR	19	288	0	96	48	3
NMSTR	20	0	4
NMSCR	20	0	4	96	48	7
NMHLD	20	192	3	96
NMHLD	20	192	7	96
NMSTR	21	0	6
NMSLL	21	0	6	96	96	2
NMTAP	21	96	2
NMSTR	21	192	1
NMSLR	21	192	1	96	96	5
NMTAP	21	288	7
NMSTR	22	0	6
NMSCL	22	0	6	96	48	3
NMTAP	22	96	0
NMSTR	22	192	2
NMSCL	22	192	2	96	48	7
NMTAP	22	288	4
NMTAP	23	0	5
NMTAP	23	64	5
NMTAP	23	96	7
NMTAP	23	160	7
NMTAP	23	192	1
NMTAP	23	256	1
NMTAP	23	288	3
NMSTR	24	0	2
NMSI_	24	0	2	96	48	7
NMSTR	24	0	6
NMSI_	24	0	6	96	48	3
NMTAP	24	192	1
NMTAP	24	192	5
NMSTR	25	0	2
NMSCR	25	0	2	96	48	4
NMTAP	25	96	5
NMSTR	25	192	6
NMSCR	25	192	6	96	48	0
NMTAP	25	288	1
NMTAP	26	0	2
NMTAP	26	64	2
NMTAP	26	96	3
NMTAP	26	160	3
NMTAP	26	192	4
NMTAP	26	288	3
NMTAP	26	288	5
NMSTR	27	0	6
NMSI_	27	0	6	96	48	1
NMTAP	27	96	2
NMSTR	27	192	2
NMSI_	27	192	2	96	48	5
NMTAP	27	288	6
NMTAP	28	0	7
NMTAP	28	64	7
NMTAP	28	96	5
NMTAP	28	160	5
NMTAP	28	192	3
NMTAP	28	256	3
NMTAP	28	288	1
NMSTR	29	0	1
NMSCR	29	0	1	96	48	4
NMTAP	29	96	4
NMSTR	29	192	6
NMSUR	29	192	6	96	48	3
NMTAP	29	288	3
NMTAP	30	0	2
NMTAP	30	64	2
NMTAP	30	96	3
NMTAP	30	160	3
NMTAP	30	192	4
NMTAP	30	288	2
NMTAP	30	288	5
NMSTR	31	0	5
NMSCR	31	0	5	96	48	0
NMTAP	31	96	1
NMSTR	31	192	2
NMSCL	31	192	2	96	48	7
NMTAP	31	288	6
NMTAP	32	0	5
NMTAP	32	64	5
NMTAP	32	96	4
NMTAP	32	160	4
NMTAP	32	192	3
NMTAP	32	288	2
NMTAP	32	288	4
NMTAP	33	0	1
NMSTR	33	0	5
NMSI_	33	0	5	96	48	0
NMTAP	33	96	2
NMTAP	33	192	3
NMSTR	33	192	7
NMSCL	33	192	7	96	48	4
NMTAP	33	288	2
NMTAP	33	352	2
NMTAP	34	64	3
NMTAP	34	96	2
NMTAP	34	160	0
NMTAP	34	192	1
NMTAP	34	256	5
NMTAP	34	288	4
NMTAP	34	352	6
NMSTR	35	0	7
NMSI_	35	0	7	96	48	2
NMTAP	35	96	5
NMSTR	35	192	3
NMSCL	35	192	3	96	48	0
NMTAP	35	192	6
NMTAP	35	288	5
NMTAP	35	352	5
NMTAP	36	64	4
NMTAP	36	64	7
NMSTR	36	96	4
NMSCR	36	96	4	96	96	6
NMSTR	36	96	7
NMSUL	36	96	7	96	96	3
NMSTR	37	0	5
NMSCL	37	0	5	96	48	3
NMTAP	37	96	2
NMSTR	37	192	1
NMSCL	37	192	1	96	48	7
NMTAP	37	288	6
NMTAP	38	0	5
NMTAP	38	64	5
NMTAP	38	96	4
NMTAP	38	160	4
NMTAP	38	192	3
NMTAP	38	288	2
NMTAP	38	288	4
NMSTR	39	0	1
NMSI_	39	0	1	96	48	6
NMTAP	39	96	5
NMSTR	39	192	5
NMSI_	39	192	5	96	48	2
NMTAP	39	288	1
NMTAP	40	0	0
NMTAP	40	64	0
NMTAP	40	96	2
NMTAP	40	160	2
NMTAP	40	192	4
NMTAP	40	256	4
NMTAP	40	288	6
NMSTR	41	0	6
NMSCR	41	0	6	96	48	1
NMTAP	41	96	1
NMSTR	41	192	2
NMSCR	41	192	2	96	48	5
NMTAP	41	288	5
NMTAP	42	0	6
NMTAP	42	64	6
NMTAP	42	96	7
NMTAP	42	160	7
NMTAP	42	192	0
NMSTR	42	288	2
NMSCL	42	288	2	96	48	7
NMTAP	42	288	6
NMTAP	43	0	4
NMTAP	43	96	1
NMSTR	43	96	5
NMSCR	43	96	5	96	48	0
NMTAP	43	192	3
NMTAP	43	288	2
NMTAP	43	288	6
NMTAP	44	0	1
NMTAP	44	64	1
NMTAP	44	96	3
NMTAP	44	192	0
NMTAP	44	192	4
NMTAP	44	288	2
NMTAP	44	288	6
NMHLD	45	0	3	64
NMTAP	45	64	5
NMHLD	45	96	3	64
NMTAP	45	160	4
NMHLD	45	192	3	64
NMTAP	45	256	2
NMHLD	45	288	3	64
NMTAP	45	352	1
NMHLD	46	0	3	64
NMTTP	46	64	1	E	0	M1
NMHLD	46	96	3	64
NMTTP	46	160	0	E	0	M1
NMHLD	46	192	3	64
NMTTP	46	256	7	E	0	M1
NMHLD	46	288	3	64
NMTTP	46	352	6	E	0	M1
NMHLD	47	0	3	64
NMTAP	47	64	7
NMHLD	47	96	3	64
NMTAP	47	160	0
NMHLD	47	192	3	64
NMTAP	47	256	1
NMHLD	47	288	3	64
NMTAP	47	352	2
NMHLD	48	0	3	64
NMTTP	48	64	5	E	0	M1
NMHLD	48	96	3	64
NMTTP	48	160	5	B	0	M1
BXTAP	48	192	3
NMTAP	48	288	4
NMTAP	48	320	2
NMTAP	48	352	4
NMHLD	49	0	1	64
NMTAP	49	64	3
NMHLD	49	96	1	64
NMTAP	49	160	2
NMHLD	49	192	1	64
NMTAP	49	256	0
NMHLD	49	288	1	64
NMTAP	49	352	7
NMHLD	50	0	1	64
NMTTP	50	64	6	B	0	M1
NMHLD	50	96	1	64
NMTTP	50	160	5	B	0	M1
NMHLD	50	192	1	64
BXTAP	50	288	0
BXTAP	50	288	4
NMHLD	51	0	1	64
NMHLD	51	0	4	64
NMHLD	51	96	2	64
NMHLD	51	96	3	64
NMHLD	51	192	0	64
NMHLD	51	192	1	64
NMHLD	51	288	4	64
NMHLD	51	288	6	64
NMTAP	52	0	5
NMTAP	52	32	4
NMTAP	52	64	6
NMTAP	52	96	2
NMTAP	52	128	3
NMTAP	52	160	1
NMHLD	52	192	5	672
NMTAP	54	0	0
NMTAP	54	96	1
NMSTR	54	192	2
NMSV_	54	192	2	96	48	7
NMSTR	54	192	6
NMSI_	54	192	6	96	48	3
NMTAP	54	288	2
NMTAP	54	288	6
NMTAP	55	0	1
NMTAP	55	0	5
NMSTR	55	96	6
NMSUL	55	96	6	96	48	2
NMTAP	55	160	7
NMTAP	55	192	6
NMTAP	55	256	0
NMSTR	55	288	0
NMSI_	55	288	0	96	48	3
BRSTR	56	0	0
NMSI_	56	0	0	96	48	5
BRSTR	56	96	0
NMSI_	56	96	0	96	48	4
BRTAP	56	192	0
NMHLD	56	288	6	64
NMTAP	56	352	4
NMTAP	57	0	5
NMTAP	57	64	5
NMTAP	57	96	7
NMTAP	57	160	7
NMTAP	57	192	1
NMTAP	57	256	1
NMTAP	57	288	3
NMSTR	58	0	2
NMSLL	58	0	2	96	96	6
NMTAP	58	0	4
NMHLD	58	96	5	96
NMSTR	58	288	5
NMSLR	58	288	5	96	96	3
NMTAP	58	352	4
NMTAP	59	0	5
EXHLD	59	192	2	64
EXHLD	59	192	4	64
EXHLD	59	288	1	64
EXHLD	59	288	5	64
NMTAP	60	0	7
NMTAP	60	32	7
NMTAP	60	64	7
NMTAP	60	96	7
NMTAP	60	128	7
NMTAP	60	160	7
NMTAP	60	192	0
NMTAP	60	192	6
NMSTR	60	288	6
NMSCL	60	288	6	96	48	3
NMTAP	60	352	7
NMTAP	61	0	6
NMSTR	61	96	1
NMSI_	61	96	1	96	48	4
NMSTR	61	96	4
NMSI_	61	96	4	96	48	7
NMTAP	61	192	1
NMTAP	61	192	4
NMSTR	61	288	2
NMSCL	61	288	2	96	48	7
NMTAP	61	352	6
NMTAP	62	0	2
NMSTR	62	96	0
NMSV_	62	96	0	96	48	3
NMSTR	62	96	4
NMSCR	62	96	4	96	48	7
NMTAP	62	192	0
NMTAP	62	192	4
NMSTR	62	288	2
NMSCR	62	288	2	96	48	5
NMTAP	62	352	6
NMTAP	63	0	2
NMHLD	63	96	6	64
NMTAP	63	160	7
NMTAP	63	192	5
NMTAP	63	256	1
NMSTR	63	288	3
NMSI_	63	288	3	96	48	6
BRSTR	64	0	3
NMSI_	64	0	3	96	48	0
BRSTR	64	96	3
NMSI_	64	96	3	96	48	7
BRTAP	64	192	3
NMSTR	64	288	1
NMSI_	64	288	1	96	96	6
NMSTR	65	0	6
NMSI_	65	0	6	96	96	3
NMSTR	65	96	3
NMSI_	65	96	3	96	96	0
NMSTR	65	192	0
NMSI_	65	192	0	96	96	5
NMSTR	65	288	5
NMSI_	65	288	5	96	96	1
NMSTR	66	0	1
NMSCR	66	0	1	96	96	4
NMSTR	66	96	4
NMSI_	66	96	4	96	96	0
NMTAP	66	288	7
NMTAP	66	352	3
NMTAP	66	352	6
NMSTR	67	0	3
NMSCL	67	0	3	96	48	0
NMSTR	67	0	6
NMSCL	67	0	6	96	48	3
NMSTR	67	192	7
NMSI_	67	192	7	96	48	2
NMSTR	67	288	5
NMSLL	67	288	5	96	96	0
NMTTP	68	0	3	B	0	M1
NMTTP	68	0	4	B	0	M1
NMTTP	68	0	4	E	1	M1
NMTAP	68	192	1
NMTAP	68	224	0
NMTAP	68	256	2
NMTAP	68	288	6
NMTAP	68	320	7
NMTAP	68	352	5
NMSTR	69	0	0
NMSI_	69	0	0	96	48	4
NMTAP	69	64	0
NMSTR	69	96	7
NMSI_	69	96	7	96	48	3
NMTAP	69	160	7
NMSTR	69	192	1
NMSUL	69	192	1	96	48	5
NMTAP	69	256	1
NMSTR	69	288	4
NMSI_	69	288	4	96	48	7
NMTAP	69	352	4
NMSTR	70	0	2
NMSI_	70	0	2	96	48	6
NMTAP	70	64	2
NMSTR	70	96	5
NMSI_	70	96	5	96	48	0
NMTAP	70	160	5
NMSTR	70	192	1
NMSI_	70	192	1	96	48	4
NMTAP	70	256	1
NMSTR	70	288	6
NMSCL	70	288	6	96	48	3
NMTAP	70	352	6
NMSTR	71	0	2
NMSCL	71	0	2	96	48	7
NMTAP	71	64	2
NMSTR	71	96	5
NMSV_	71	96	5	96	48	0
NMTAP	71	160	5
NMTAP	71	192	1
NMSTR	71	288	2
NMSI_	71	288	2	96	48	7
NMTAP	71	288	6
BRSTR	72	0	2
NMSI_	72	0	2	96	48	4
BRSTR	72	0	5
NMSI_	72	0	5	96	48	0
BRTAP	72	96	2
BRTAP	72	96	5
BRTAP	72	192	2
BRTAP	72	192	6
NMSTR	72	288	7
NMSCL	72	288	7	96	48	4
NMSTR	73	0	2
NMSV_	73	0	2	96	48	7
NMSTR	73	96	3
NMSI_	73	96	3	96	48	6
NMSTR	73	192	1
NMSCR	73	192	1	96	48	4
NMSTR	73	288	7
NMSCL	73	288	7	96	48	4
BRSTR	74	0	7
NMSCR	74	0	7	96	48	2
BRSTR	74	96	7
NMSI_	74	96	7	96	48	3
BRTAP	74	192	7
NMSTR	74	288	1
NMSI_	74	288	1	96	48	5
NMTAP	75	0	1
NMTAP	75	0	7
NMSTR	75	96	4
NMSI_	75	96	4	96	48	0
NMSTR	75	96	6
NMSI_	75	96	6	96	48	3
NMTAP	75	192	4
NMTAP	75	192	6
NMSTR	75	288	2
NMSLL	75	288	2	96	96	3
NMSTR	75	288	6
NMSLL	75	288	6	96	96	7
NMTAP	76	192	2
NMTAP	76	192	6
NMSTR	76	288	0
BRSI_	76	288	0	96	48	5
NMSTR	76	288	1
BRSI_	76	288	1	96	48	4
NMTAP	77	0	0
NMTAP	77	0	1
NMSTR	77	96	6
BRSI_	77	96	6	96	48	3
NMSTR	77	96	7
BRSI_	77	96	7	96	48	2
NMTAP	77	192	6
NMTAP	77	192	7
NMTAP	77	288	0
NMSTR	77	288	1
BRSI_	77	288	1	96	48	5
NMSTR	78	0	0
BRSI_	78	0	0	96	32	2
NMTAP	78	0	1
NMTAP	78	96	0
NMTAP	78	96	1
CNSI_	78	128	2	0	16	4
CNSI_	78	144	4	0	48	6
BXTAP	78	192	0
NMTAP	78	288	7
NMTAP	78	320	7
NMTAP	78	352	7
NMTAP	79	0	0
NMTAP	79	0	6
NMHLD	79	96	5	64
NMTAP	79	160	1
NMHLD	79	192	3	64
NMTAP	79	256	1
NMSTR	79	288	7
NMSI_	79	288	7	96	48	3
BRSTR	80	0	0
NMSI_	80	0	0	96	48	5
BRSTR	80	0	7
NMSI_	80	0	7	96	48	5
BRSTR	80	96	0
NMSI_	80	96	0	96	48	2
BRSTR	80	96	7
NMSI_	80	96	7	96	48	2
BRTAP	80	192	0
BRTAP	80	192	7
NMTAP	80	288	1
NMSTR	80	288	3
NMSI_	80	288	3	96	48	7
NMSTR	81	0	1
NMSI_	81	0	1	96	48	5
NMTAP	81	0	3
NMTAP	81	96	1
NMSTR	81	96	6
NMSI_	81	96	6	96	48	3
NMSTR	81	192	4
NMSI_	81	192	4	96	48	0
NMTAP	81	192	6
NMTAP	81	288	4
NMSTR	81	288	5
NMSI_	81	288	5	96	48	1
NMSTR	82	0	2
NMSI_	82	0	2	96	48	7
NMSTR	82	0	5
NMSI_	82	0	5	96	48	3
NMTAP	82	96	2
NMSTR	82	96	5
NMSCR	82	96	5	96	96	3
NMHLD	82	192	0	96
NMTAP	82	192	5
NMSTR	83	0	0
NMSI_	83	0	0	96	48	4
NMTAP	83	0	5
NMTAP	83	96	0
NMSTR	83	96	6
NMSI_	83	96	6	96	48	2
NMSI_	83	96	6	96	48	3
NMTAP	83	192	6
NMTAP	83	288	1
NMHLD	83	288	4	96
NMTAP	84	0	0
NMTAP	84	12	1
NMTAP	84	24	2
NMTAP	84	36	3
NMTAP	84	48	4
NMTAP	84	60	5
NMTAP	84	72	6
NMTAP	84	84	7
NMTAP	84	96	0
NMTAP	84	108	1
NMTAP	84	120	2
NMTAP	84	132	3
NMTAP	84	144	4
NMTAP	84	156	5
NMTAP	84	168	6
NMTAP	84	180	7
NMSTR	84	192	0
NMSF_	84	192	0	96	48	4
NMTAP	84	192	4
BRTAP	84	288	0

T_REC_TAP	307
T_REC_BRK	10
T_REC_XTP	0
T_REC_BXX	8
T_REC_HLD	41
T_REC_XHO	4
T_REC_BHO	0
T_REC_BXH	0
T_REC_STR	104
T_REC_BST	12
T_REC_XST	0
T_REC_XBS	0
T_REC_TTP	15
T_REC_THO	0
T_REC_SLD	111
T_REC_BSL	6
T_REC_ALL	618
T_NUM_TAP	426
T_NUM_BRK	36
T_NUM_HLD	45
T_NUM_SLD	111
T_NUM_ALL	618
T_JUDGE_TAP	456
T_JUDGE_HLD	102
T_JUDGE_SLD	117
T_JUDGE_ALL	675
TTM_EACHPAIRS	75
TTM_SCR_TAP	213000
TTM_SCR_BRK	93600
TTM_SCR_HLD	45000
TTM_SCR_SLD	166500
TTM_SCR_ALL	518100
TTM_SCR_S	499100
TTM_SCR_SS	514500
TTM_RAT_ACV	10069

