VERSION	0.00.00	1.05.00
FES_MODE	0
BPM_DEF	204.000	204.000	204.000	204.000
MET_DEF	4	4
RESOLUTION	384
CLK_DEF	384
COMPATIBLE_CODE	MA2

BPM	0	0	204.000
MET	0	0	4	4

NMTAP	5	0	2
NMTAP	5	96	2
NMTAP	5	192	2
NMTAP	5	192	3
NMTAP	5	288	2
NMTAP	5	288	3
NMTAP	6	0	3
NMTAP	6	96	3
NMTAP	6	192	3
NMTAP	6	192	4
NMTAP	6	288	3
NMTAP	6	288	4
NMTAP	7	0	4
NMTAP	7	96	4
NMTAP	7	192	4
NMTAP	7	192	5
NMTAP	7	288	4
NMTAP	7	288	5
NMTAP	8	0	4
NMTAP	8	0	6
NMTAP	8	96	3
NMTAP	8	96	4
NMHLD	8	192	1	96
NMHLD	8	192	3	96
BRTAP	9	0	1
BRTAP	9	0	3
NMTAP	9	96	0
NMTAP	9	192	1
NMTAP	9	192	7
NMTAP	9	288	5
NMTAP	10	0	4
NMTAP	10	0	6
NMTAP	10	96	7
NMTAP	10	192	0
NMTAP	10	192	6
NMTAP	10	288	2
NMTAP	11	0	2
NMTAP	11	0	3
NMTAP	11	96	5
NMTAP	11	192	4
NMTAP	11	192	5
NMTAP	11	288	3
EXTAP	12	0	2
EXTAP	12	0	4
EXTAP	12	96	1
EXTAP	12	96	5
EXTAP	12	192	1
EXTAP	12	192	5
NMTAP	13	0	4
NMTAP	13	0	6
NMTAP	13	96	3
NMTAP	13	192	2
NMTAP	13	192	4
NMTAP	13	288	1
NMTAP	14	0	1
NMTAP	14	0	3
NMTAP	14	96	4
NMTAP	14	192	3
NMTAP	14	192	5
NMTAP	14	288	6
NMTAP	15	0	4
NMTAP	15	0	6
NMTAP	15	96	4
NMTAP	15	96	6
NMTAP	15	192	2
NMTAP	15	192	4
NMTAP	15	288	2
NMTAP	15	288	4
NMTAP	16	0	1
NMTAP	16	96	0
NMTAP	16	96	1
BXTAP	16	192	2
BXTAP	16	192	7
NMSTR	17	0	6
NMSI_	17	0	6	96	96	3
NMTAP	17	192	2
NMTAP	17	288	1
NMSTR	18	0	0
NMSI_	18	0	0	96	96	4
NMTAP	18	192	5
NMTAP	18	288	6
NMSTR	19	0	7
NMSI_	19	0	7	96	96	3
NMTAP	19	192	2
NMTAP	19	288	1
NMTAP	20	0	0
NMTAP	20	0	1
NMTAP	20	96	0
NMTAP	20	96	1
NMTAP	20	192	2
NMTAP	20	192	7
NMTAP	20	288	3
NMTAP	20	288	6
NMSTR	21	0	5
NMSI_	21	0	5	96	96	0
NMSTR	21	192	2
NMSI_	21	192	2	96	96	7
NMSTR	22	0	6
NMSI_	22	0	6	96	96	3
NMSTR	22	192	1
NMSI_	22	192	1	96	96	4
NMTAP	23	0	5
NMTAP	23	96	5
NMTAP	23	192	6
NMTAP	23	192	7
NMTAP	23	288	0
NMTAP	23	288	1
BXTAP	24	0	2
BXTAP	24	0	3
BXTAP	24	96	4
BXTAP	24	96	5
BXTAP	24	192	3
BXTAP	24	192	6
NMHLD	25	0	2	192
NMHLD	25	192	0	192
NMTTP	26	0	2	E	0	M1
NMTTP	26	96	3	E	0	M1
NMTTP	26	192	4	E	0	M1
NMHLD	27	0	7	192
NMHLD	27	192	1	192
NMTTP	28	0	2	E	0	M1
NMTTP	28	96	3	E	0	M1
NMTTP	28	192	4	E	0	M1
NMHLD	29	0	5	192
NMHLD	29	192	7	192
NMTTP	30	0	6	E	0	M1
NMTTP	30	96	5	E	0	M1
NMTTP	30	192	4	E	0	M1
NMTAP	31	0	0
NMSTR	31	96	0
NMSCR	31	96	0	96	96	3
NMTAP	32	0	7
NMSTR	32	96	7
NMSI_	32	96	7	96	96	3
NMTAP	32	288	2
NMTAP	33	0	4
NMTAP	33	0	5
NMTAP	33	96	5
NMTAP	33	96	6
NMHLD	33	192	6	96
NMHLD	33	192	7	96
NMTAP	34	0	2
NMTAP	34	0	3
NMTAP	34	96	1
NMTAP	34	96	2
NMHLD	34	192	0	96
NMHLD	34	192	1	96
NMTAP	35	0	7
BXSTR	35	96	6
NMSCL	35	96	6	96	96	3
NMSUR	35	96	6	96	96	3
BXTAP	36	0	2
BXTAP	36	0	3
BXTAP	36	96	2
BXTAP	36	96	3
BXTAP	36	192	1
BXTAP	36	192	4
NMTAP	37	0	5
NMTAP	37	96	3
NMTAP	37	96	5
NMTAP	37	192	1
NMTAP	37	288	1
NMTAP	37	288	3
NMHLD	38	0	2	96
NMHLD	38	96	3	96
NMTAP	38	192	4
NMTAP	38	288	4
NMTAP	38	288	5
NMTAP	39	0	5
NMTAP	39	96	3
NMTAP	39	96	5
NMTAP	39	192	1
NMSTR	39	288	1
NMSI_	39	288	1	96	96	3
NMSTR	39	288	3
NMSCR	39	288	3	96	96	5
NMTAP	40	192	6
NMTAP	40	288	6
NMHLD	41	0	6	96
NMHLD	41	0	7	96
NMHLD	41	192	0	96
NMHLD	41	192	1	96
NMTAP	42	0	2
NMTAP	42	96	0
NMTAP	42	96	1
NMTAP	42	192	5
NMTAP	42	288	6
NMTAP	42	288	7
BXTAP	43	0	0
BXTAP	43	0	5
BXTAP	43	96	0
BXTAP	43	96	5
BXTAP	43	192	2
BXTAP	43	192	7
BXTAP	43	288	2
BXTAP	43	288	7
BXSTR	44	0	1
NMSLR	44	0	1	96	144	0
BXSTR	44	0	6
NMSLL	44	0	6	96	144	7
NMHLD	45	0	1	96
NMTAP	45	96	0
NMHLD	45	192	6	96
NMTAP	45	288	7
BXSTR	46	0	0
BRSCR	46	0	0	96	96	3
NMTAP	46	192	5
NMTAP	46	288	6
EXTAP	47	0	2
EXTAP	47	0	7
NMTAP	47	96	1
NMTAP	47	96	6
EXTAP	47	192	0
EXTAP	47	192	5
NMTAP	47	288	1
NMTAP	47	288	6
NMSTR	48	0	1
NMSV_	48	0	1	96	96	2
NMSTR	48	0	6
NMSV_	48	0	6	96	96	5
NMHLD	49	0	1	96
NMHLD	49	96	2	96
NMTAP	49	192	3
EXTAP	49	288	7
NMHLD	50	0	6	96
NMHLD	50	96	5	96
NMTAP	50	192	4
NMTAP	50	288	0
NMTAP	51	0	0
NMTAP	51	0	1
NMTAP	51	96	2
NMTAP	51	96	3
NMTAP	51	192	4
NMTAP	51	192	5
BRSTR	51	288	6
BRSCL	51	288	6	96	192	1
BRTAP	51	288	7
NMTHO	53	0	0	384	C	1	M1
EXTAP	54	192	0
EXTAP	54	192	7
EXTAP	54	288	0
EXTAP	54	288	7
BXTAP	55	0	0
BXTAP	55	0	1
NMTAP	55	96	2
NMTAP	55	192	3
NMTAP	55	192	4
NMTAP	55	288	5
BRTAP	56	0	6
BRTAP	56	0	7
BRTAP	56	96	4
BRTAP	56	96	5
BRTAP	56	192	3
BRTAP	56	192	6
NMHLD	56	288	1	96
NMTAP	57	0	0
NMHLD	57	96	6	96
NMTAP	57	192	7
NMHLD	57	288	2	96
NMTAP	58	0	3
NMTAP	58	96	1
NMTAP	58	96	4
NMTAP	58	192	1
NMTAP	58	192	4
NMTAP	58	288	5
NMTAP	59	0	6
NMTAP	59	0	7
NMTAP	59	96	2
NMTAP	59	192	0
NMTAP	59	192	1
NMSTR	59	288	0
NMSI_	59	288	0	96	96	4
NMSTR	59	288	1
NMSI_	59	288	1	96	96	4
BRTAP	60	192	2
BRTAP	60	192	6
NMTAP	61	0	1
NMHLD	61	0	3	96
NMTAP	61	96	0
NMHLD	61	192	4	96
NMTAP	61	192	6
NMTAP	61	288	7
NMTAP	62	0	4
NMTAP	62	0	6
NMTAP	62	96	3
NMTAP	62	96	4
NMTAP	62	192	1
NMTAP	62	192	3
BRSTR	62	288	2
BRSCL	62	288	2	96	96	7
EXSTR	63	96	6
NMSCL	63	96	6	96	96	3
NMTAP	63	288	0
BRTAP	64	0	1
BRTAP	64	0	3
BRTAP	64	96	4
BRTAP	64	96	6
BRTAP	64	192	3
BRTAP	64	192	7
NMTAP	64	288	4
NMHLD	65	0	5	96
NMHLD	65	96	6	96
NMHLD	65	192	7	96
NMHLD	65	288	0	96
NMHLD	66	0	1	96
NMHLD	66	96	2	96
NMTAP	66	192	3
NMTAP	66	288	3
NMTAP	66	288	4
NMTAP	67	0	4
NMTAP	67	0	6
NMTAP	67	96	3
NMTAP	67	96	4
BRTAP	67	192	1
BRTAP	67	192	3
NMSTR	67	288	3
NMSCL	67	288	3	96	192	6
NMSTR	67	288	4
NMSUL	67	288	4	96	192	5
BXTAP	69	0	4
BXTAP	69	0	5
NMTAP	69	96	5
NMTAP	69	96	7
NMTAP	69	192	2
NMTAP	69	192	3
NMTAP	69	288	0
NMTAP	69	288	2
NMTAP	70	0	0
NMTAP	70	0	1
NMTAP	70	96	5
NMTAP	70	96	6
NMTAP	70	192	3
NMTAP	70	192	4
NMHLD	70	288	1	96
NMHLD	71	0	7	96
NMHLD	71	96	5	96
NMHLD	71	192	3	96
NMHLD	71	288	1	96
BRTAP	72	0	7
BRTAP	72	96	3
BRTAP	72	96	5
BRTAP	72	192	2
BRTAP	72	192	6
NMTAP	72	288	0
NMHLD	72	288	5	96
NMTAP	73	0	4
NMHLD	73	96	2	96
NMTAP	73	96	7
NMTAP	73	192	3
NMTAP	73	288	0
NMHLD	73	288	5	96
NMTAP	74	0	4
NMHLD	74	96	2	96
NMTAP	74	96	7
NMTAP	74	192	3
NMSTR	74	288	0
NMSI_	74	288	0	96	48	5
NMSTR	74	288	1
NMSI_	74	288	1	96	48	4
NMSTR	75	96	6
NMSI_	75	96	6	96	48	3
NMSTR	75	96	7
NMSI_	75	96	7	96	48	2
NMSTR	75	288	0
NMSUR	75	288	0	96	96	5
NMSTR	75	288	1
NMSCR	75	288	1	96	96	4
BRTAP	76	192	6
BRTAP	76	192	7
NMTAP	76	288	5
NMTAP	77	0	1
NMTAP	77	0	3
NMTAP	77	96	5
NMTAP	77	96	7
NMTAP	77	192	5
NMTAP	77	192	7
NMTAP	77	288	1
NMTAP	77	288	2
NMTAP	78	0	4
NMTAP	78	0	5
NMTAP	78	96	2
NMTAP	78	96	7
NMTAP	78	192	2
NMTAP	78	192	7
BRTAP	78	288	0
BRTAP	78	288	5
BRTAP	79	0	2
BRTAP	79	0	7
EXTAP	79	96	2
EXTAP	79	96	7
EXTAP	79	192	1
EXTAP	79	192	5
NMTAP	79	288	1
NMTAP	79	288	5
BRTAP	80	0	7
BRTAP	80	96	2
BRTAP	80	96	4
BRTAP	80	192	0
BRTAP	80	192	6
NMSTR	80	288	7
NMSCL	80	288	7	96	192	1
NMTAP	81	192	0
NMTAP	81	288	1
NMSTR	81	288	7
BRSCL	81	288	7	96	192	1
NMTAP	82	192	0
NMTAP	82	288	1
NMTAP	82	288	7
NMSTR	83	0	2
NMSI_	83	0	2	96	48	7
NMSTR	83	0	6
NMSI_	83	0	6	96	48	3
EXTAP	83	192	0
EXTAP	83	192	4
NMTAP	83	288	3
NMSTR	84	0	2
NMSI_	84	0	2	96	48	0
NMSTR	84	0	4
NMSI_	84	0	4	96	48	6
EXSTR	84	192	7
BRSF_	84	192	7	96	48	3

T_REC_TAP	210
T_REC_BRK	35
T_REC_XTP	21
T_REC_BXX	26
T_REC_HLD	44
T_REC_XHO	0
T_REC_BHO	0
T_REC_BXH	0
T_REC_STR	29
T_REC_BST	2
T_REC_XST	2
T_REC_XBS	4
T_REC_TTP	9
T_REC_THO	1
T_REC_SLD	33
T_REC_BSL	5
T_REC_ALL	421
T_NUM_TAP	271
T_NUM_BRK	72
T_NUM_HLD	45
T_NUM_SLD	33
T_NUM_ALL	421
T_JUDGE_TAP	338
T_JUDGE_HLD	108
T_JUDGE_SLD	38
T_JUDGE_ALL	484
TTM_EACHPAIRS	131
TTM_SCR_TAP	135500
TTM_SCR_BRK	187200
TTM_SCR_HLD	45000
TTM_SCR_SLD	49500
TTM_SCR_ALL	417200
TTM_SCR_S	397700
TTM_SCR_SS	410000
TTM_RAT_ACV	10175

