VERSION	0.00.00	1.05.00
FES_MODE	0
BPM_DEF	204.000	204.000	204.000	204.000
MET_DEF	4	4
RESOLUTION	384
CLK_DEF	384
COMPATIBLE_CODE	MA2

BPM	0	0	204.000
MET	0	0	4	4

NMTAP	5	0	4
NMTAP	5	192	4
NMTAP	6	0	3
NMTAP	6	192	3
NMTAP	7	0	4
NMTAP	7	192	4
NMTAP	8	0	3
NMTAP	8	0	4
NMTAP	8	192	3
NMTAP	8	192	4
NMTAP	9	0	5
NMTAP	9	96	5
NMTAP	9	192	5
NMTAP	10	0	6
NMTAP	10	96	6
NMTAP	10	192	6
NMTAP	11	0	7
NMTAP	11	96	7
NMTAP	11	192	7
NMTAP	12	0	0
NMTAP	12	0	1
EXTAP	12	192	0
EXTAP	12	192	1
NMTAP	13	0	2
NMTAP	13	96	2
NMTAP	13	192	2
NMTAP	14	0	1
NMTAP	14	96	1
NMTAP	14	192	1
NMTAP	15	0	0
NMTAP	15	96	0
NMTAP	15	192	0
NMTAP	16	0	6
NMTAP	16	0	7
BXTAP	16	192	6
BXTAP	16	192	7
NMTAP	17	0	7
NMTAP	17	96	7
NMTAP	17	192	6
NMTAP	18	0	5
NMTAP	18	96	5
NMTAP	18	192	4
NMTAP	19	0	3
NMTAP	19	96	3
NMTAP	19	192	2
NMTAP	20	0	1
NMTAP	20	96	1
EXTAP	20	192	0
EXTAP	20	192	1
NMTAP	21	0	0
NMTAP	21	96	0
NMTAP	21	192	1
NMTAP	22	0	2
NMTAP	22	96	2
NMTAP	22	192	3
NMTAP	23	0	4
NMTAP	23	96	4
NMTAP	23	192	5
NMTAP	24	0	6
NMTAP	24	96	6
BXTAP	24	192	6
BXTAP	24	192	7
NMSTR	25	0	6
NMSI_	25	0	6	96	288	3
NMTAP	26	192	2
NMSTR	27	0	1
NMSI_	27	0	1	96	288	4
NMTAP	28	192	5
NMSTR	29	0	6
NMSI_	29	0	6	96	288	2
NMTAP	30	192	1
NMSTR	31	0	0
NMSI_	31	0	0	96	288	4
NMTAP	33	0	5
NMTAP	33	96	5
NMTAP	33	192	4
NMTAP	33	192	5
NMTAP	34	0	6
NMTAP	34	96	6
NMTAP	34	192	6
NMTAP	34	192	7
NMTAP	35	0	0
NMTAP	35	96	0
NMTAP	35	192	0
NMTAP	35	192	1
BXTAP	36	0	2
BXTAP	36	0	3
NMTTP	37	0	1	B	0	L1
NMTTP	37	192	2	B	0	L1
NMTTP	38	0	3	B	0	L1
NMTTP	39	0	6	B	0	L1
NMTTP	39	192	5	B	0	L1
NMTTP	40	0	4	B	0	L1
NMTTP	41	0	1	B	0	L1
NMTTP	41	192	2	B	0	L1
NMTTP	42	0	3	B	0	L1
NMTTP	42	192	4	B	0	L1
NMTTP	43	0	5	B	0	L1
NMTTP	43	192	6	B	0	L1
NMTTP	44	0	0	C	1	L1
NMHLD	45	0	6	192
NMHLD	45	192	7	192
NMHLD	46	0	0	192
NMTAP	46	192	1
NMHLD	47	0	1	192
NMHLD	47	192	0	192
NMHLD	48	0	7	192
NMTAP	48	192	6
NMHLD	49	0	5	192
NMHLD	49	192	4	192
NMHLD	50	0	3	192
NMTAP	50	192	2
NMHLD	51	0	2	192
NMHLD	51	192	3	192
NMHLD	52	0	4	192
NMTAP	52	192	5
NMSTR	53	0	4
NMSI_	53	0	4	96	288	1
NMSTR	53	0	5
NMSI_	53	0	5	96	288	0
NMTAP	55	0	2
NMTAP	55	96	2
NMTAP	55	192	1
NMTAP	55	288	1
NMTAP	56	0	0
NMTAP	56	96	0
NMTAP	56	192	6
NMTAP	56	192	7
NMTAP	57	0	6
NMTAP	57	96	6
NMTAP	57	192	5
NMTAP	57	288	5
NMTAP	58	0	4
NMTAP	58	96	4
NMTAP	58	192	2
NMTAP	58	192	3
NMTAP	59	0	1
NMTAP	59	96	1
NMTAP	59	192	2
NMTAP	59	288	2
NMTAP	60	0	3
NMTAP	60	96	3
BXTAP	60	192	4
BXTAP	60	192	5
NMTAP	61	0	5
NMTAP	61	96	5
NMTAP	61	192	6
NMTAP	61	192	7
NMTAP	61	288	6
NMTAP	61	288	7
NMTAP	62	0	0
NMTAP	62	96	0
EXTAP	62	192	0
EXTAP	62	192	1
NMTAP	63	0	2
NMTAP	63	96	2
NMTAP	63	192	0
NMTAP	63	192	1
NMTAP	63	288	0
NMTAP	63	288	1
NMTAP	64	0	7
NMTAP	64	96	7
EXTAP	64	192	6
EXTAP	64	192	7
NMTAP	65	0	6
NMTAP	65	96	6
NMTAP	65	192	4
NMTAP	65	192	5
NMTAP	65	288	4
NMTAP	65	288	5
NMTAP	66	0	3
NMTAP	66	96	3
NMTAP	66	192	2
NMTAP	66	192	3
NMTAP	67	0	1
NMTAP	67	96	1
NMTAP	67	192	2
NMTAP	67	192	3
NMTAP	67	288	2
NMTAP	67	288	3
NMTAP	68	0	4
NMTAP	68	96	4
NMTAP	68	192	4
NMTAP	68	192	5
NMTAP	69	0	6
NMTAP	69	96	6
NMTAP	69	192	6
NMTAP	69	288	6
NMTAP	69	288	7
NMTAP	70	0	5
NMTAP	70	96	5
NMTAP	70	192	5
NMTAP	70	288	4
NMTAP	70	288	5
NMTAP	71	0	3
NMTAP	71	96	3
NMTAP	71	192	3
NMTAP	71	288	2
NMTAP	71	288	3
NMTAP	72	0	1
NMTAP	72	96	1
NMTAP	72	192	0
NMTAP	72	192	1
NMTAP	73	0	1
NMTAP	73	96	1
NMTAP	73	192	1
NMTAP	73	288	0
NMTAP	73	288	1
NMTAP	74	0	2
NMTAP	74	96	2
NMTAP	74	192	2
NMTAP	74	288	2
NMTAP	74	288	3
NMTAP	75	0	4
NMTAP	75	96	4
NMTAP	75	192	4
NMTAP	75	288	4
NMTAP	75	288	5
NMTAP	76	0	6
NMTAP	76	96	6
BRTAP	76	192	6
BRTAP	76	192	7
NMTAP	77	0	6
NMTAP	77	0	7
NMTAP	77	96	6
NMTAP	77	96	7
NMTAP	77	192	0
NMTAP	77	192	5
NMTAP	78	0	4
NMTAP	78	0	5
NMTAP	78	96	4
NMTAP	78	96	5
NMTAP	78	192	3
NMTAP	78	192	6
NMTAP	79	0	2
NMTAP	79	0	3
NMTAP	79	96	2
NMTAP	79	96	3
NMTAP	79	192	1
NMTAP	79	192	4
NMTAP	80	0	0
NMTAP	80	0	1
NMTAP	80	96	0
NMTAP	80	96	1
NMTAP	80	192	2
NMTAP	80	192	7
NMTAP	81	0	0
NMTAP	81	0	1
NMTAP	81	96	0
NMTAP	81	96	1
NMTAP	81	192	2
NMTAP	81	288	2
NMTAP	82	0	3
NMTAP	82	0	4
NMTAP	82	96	3
NMTAP	82	96	4
NMTAP	82	192	5
NMTAP	82	288	5
NMTAP	83	0	6
NMTAP	83	0	7
NMTAP	83	96	6
NMTAP	83	96	7
NMTAP	83	192	5
NMTAP	83	288	5
NMTAP	84	0	3
NMTAP	84	0	4
NMTAP	84	96	3
NMTAP	84	96	4
NMTAP	84	192	2
NMTAP	84	192	5
BXTAP	84	288	2
BXTAP	84	288	5

T_REC_TAP	215
T_REC_BRK	2
T_REC_XTP	8
T_REC_BXX	10
T_REC_HLD	12
T_REC_XHO	0
T_REC_BHO	0
T_REC_BXH	0
T_REC_STR	6
T_REC_BST	0
T_REC_XST	0
T_REC_XBS	0
T_REC_TTP	13
T_REC_THO	0
T_REC_SLD	6
T_REC_BSL	0
T_REC_ALL	272
T_NUM_TAP	242
T_NUM_BRK	12
T_NUM_HLD	12
T_NUM_SLD	6
T_NUM_ALL	272
T_JUDGE_TAP	254
T_JUDGE_HLD	48
T_JUDGE_SLD	6
T_JUDGE_ALL	308
TTM_EACHPAIRS	58
TTM_SCR_TAP	121000
TTM_SCR_BRK	31200
TTM_SCR_HLD	12000
TTM_SCR_SLD	9000
TTM_SCR_ALL	173200
TTM_SCR_S	166850
TTM_SCR_SS	172000
TTM_RAT_ACV	10069

