VERSION	0.00.00	1.05.00
FES_MODE	0
BPM_DEF	204.000	204.000	204.000	204.000
MET_DEF	4	4
RESOLUTION	384
CLK_DEF	384
COMPATIBLE_CODE	MA2

BPM	0	0	204.000
MET	0	0	4	4

NMTAP	5	0	0
NMTAP	6	0	0
NMTAP	7	0	7
NMTAP	8	0	0
NMTAP	8	0	7
NMTAP	9	0	0
NMTAP	9	192	0
NMTAP	10	0	1
NMTAP	11	0	2
NMTAP	11	192	2
NMTAP	12	0	3
NMTAP	12	0	4
NMTAP	13	0	4
NMTAP	13	192	4
NMTAP	14	0	5
NMTAP	15	0	6
NMTAP	15	192	6
EXTAP	16	0	0
EXTAP	16	0	7
NMTTP	17	0	0	E	0	L1
NMTTP	18	0	0	B	0	L1
NMTTP	18	0	7	B	0	L1
NMTTP	19	0	1	B	0	L1
NMTTP	19	0	6	B	0	L1
NMTTP	20	0	2	B	0	L1
NMTTP	20	0	5	B	0	L1
NMTTP	21	0	3	B	0	L1
NMTTP	21	0	4	B	0	L1
NMTTP	22	0	2	B	0	L1
NMTTP	22	0	5	B	0	L1
NMTTP	23	0	0	C	1	L1
BXTAP	25	0	7
NMTAP	25	192	7
NMTAP	26	0	6
NMTAP	26	192	6
NMTAP	27	0	5
NMTAP	27	192	5
NMTAP	28	0	3
NMTAP	28	0	4
NMTAP	29	0	3
NMTAP	29	192	3
NMTAP	30	0	2
NMTAP	30	192	2
NMTAP	31	0	1
NMTAP	31	192	1
NMTAP	32	0	0
NMTAP	32	0	7
NMTAP	33	0	6
NMTAP	33	192	6
NMTAP	34	0	0
NMTAP	34	0	7
NMTAP	35	0	1
NMTAP	35	192	1
NMTAP	36	0	0
NMTAP	36	0	7
NMHLD	37	0	0	192
NMHLD	37	0	1	192
NMTAP	38	0	0
NMTAP	38	0	1
NMHLD	39	0	2	192
NMHLD	39	0	3	192
NMTAP	40	0	2
NMTAP	40	0	3
NMHLD	41	0	4	192
NMHLD	41	0	5	192
NMTAP	42	0	4
NMTAP	42	0	5
NMHLD	43	0	6	192
NMHLD	43	0	7	192
NMTAP	44	0	6
NMTAP	44	0	7
EXSTR	45	0	7
NMSI_	45	0	7	96	288	3
NMSTR	47	0	0
NMSI_	47	0	0	96	288	4
NMSTR	49	0	6
NMSI_	49	0	6	96	288	2
NMSTR	51	0	1
NMSI_	51	0	1	96	288	5
NMTAP	53	0	7
NMTAP	53	192	7
EXTAP	54	0	0
EXTAP	54	0	7
BXTAP	55	0	0
NMTAP	55	96	0
NMTAP	55	192	0
NMTAP	56	0	7
NMTAP	56	192	7
NMTAP	57	0	6
NMTAP	57	96	6
NMTAP	57	192	6
NMTAP	58	0	5
NMTAP	58	192	5
NMTAP	59	0	4
NMTAP	59	96	4
NMTAP	59	192	4
BXTAP	60	0	3
BXTAP	60	0	4
NMTAP	61	0	3
NMTAP	61	96	3
NMTAP	61	192	3
NMTAP	62	0	2
NMTAP	62	192	2
NMTAP	63	0	1
NMTAP	63	96	1
NMTAP	63	192	1
NMTAP	64	0	0
NMTAP	64	192	0
NMTAP	65	0	7
NMTAP	65	96	7
NMTAP	65	192	7
NMTAP	66	0	6
NMTAP	66	0	7
NMTAP	66	192	6
NMTAP	66	192	7
NMTAP	67	0	0
NMTAP	67	96	0
NMTAP	67	192	0
BRTAP	68	0	0
BRTAP	68	0	7
BXTAP	69	0	0
NMTAP	69	96	0
NMTAP	69	192	0
NMTAP	70	0	1
NMTAP	70	96	1
NMTAP	70	192	1
NMTAP	71	0	2
NMTAP	71	96	2
NMTAP	71	192	2
NMTAP	72	0	3
NMTAP	72	0	4
NMTAP	72	192	3
NMTAP	72	192	4
NMTAP	73	0	4
NMTAP	73	96	4
NMTAP	73	192	4
NMTAP	74	0	5
NMTAP	74	96	5
NMTAP	74	192	5
NMTAP	75	0	6
NMTAP	75	96	6
NMTAP	75	192	6
NMTAP	76	0	0
NMTAP	76	0	7
NMTAP	76	192	0
NMTAP	76	192	7
NMTAP	77	0	7
NMTAP	77	96	7
NMTAP	77	192	7
NMTAP	78	0	6
NMTAP	78	96	6
NMTAP	78	192	6
NMTAP	78	192	7
NMTAP	79	0	5
NMTAP	79	96	5
NMTAP	79	192	5
NMTAP	80	0	4
NMTAP	80	96	4
NMTAP	80	192	3
NMTAP	80	192	4
NMTAP	81	0	2
NMTAP	81	96	2
NMTAP	81	192	2
NMTAP	82	0	1
NMTAP	82	96	1
NMTAP	82	192	0
NMTAP	82	192	1
NMTAP	83	0	6
NMTAP	83	96	6
NMTAP	83	192	6
NMTAP	83	192	7
EXTAP	84	0	0
EXTAP	84	0	7
EXTAP	84	96	0
EXTAP	84	96	7
EXTAP	84	192	0
EXTAP	84	192	7
BXTAP	84	288	0
BXTAP	84	288	7

T_REC_TAP	132
T_REC_BRK	2
T_REC_XTP	10
T_REC_BXX	7
T_REC_HLD	8
T_REC_XHO	0
T_REC_BHO	0
T_REC_BXH	0
T_REC_STR	3
T_REC_BST	0
T_REC_XST	1
T_REC_XBS	0
T_REC_TTP	12
T_REC_THO	0
T_REC_SLD	4
T_REC_BSL	0
T_REC_ALL	179
T_NUM_TAP	158
T_NUM_BRK	9
T_NUM_HLD	8
T_NUM_SLD	4
T_NUM_ALL	179
T_JUDGE_TAP	167
T_JUDGE_HLD	32
T_JUDGE_SLD	4
T_JUDGE_ALL	203
TTM_EACHPAIRS	32
TTM_SCR_TAP	79000
TTM_SCR_BRK	23400
TTM_SCR_HLD	8000
TTM_SCR_SLD	6000
TTM_SCR_ALL	116400
TTM_SCR_S	112050
TTM_SCR_SS	115500
TTM_RAT_ACV	10077

