VERSION	0.00.00	1.05.00
FES_MODE	0
BPM_DEF	147.000	147.000	147.000	147.000
MET_DEF	4	4
RESOLUTION	384
CLK_DEF	384
COMPATIBLE_CODE	MA2

BPM	0	0	147.000
MET	0	0	4	4
MET	5	0	4	6
MET	6	192	4	4

NMHLD	1	0	2	72
NMHLD	1	72	4	72
NMTAP	1	144	3
NMHLD	1	192	5	72
NMHLD	1	264	3	72
NMTAP	1	336	4
NMHLD	2	0	1	72
NMHLD	2	72	3	72
NMTAP	2	144	2
NMHLD	2	192	6	72
NMHLD	2	264	4	72
NMTAP	2	336	5
NMHLD	3	0	0	72
NMHLD	3	72	2	72
NMTAP	3	144	3
NMHLD	3	192	6	144
NMTAP	3	336	4
NMTAP	3	360	5
NMTAP	4	0	3
NMTAP	4	24	4
NMTAP	4	72	2
NMTAP	4	72	3
NMSTR	4	120	1
NMSI_	4	120	1	96	72	3
NMTAP	4	144	0
NMTTP	4	192	0	C	1	M1
CNSI_	4	288	3	0	96	0
CNSI_	5	0	0	0	48	4
NMSTR	5	96	5
NMSI_	5	96	5	96	96	3
NMTTP	5	192	0	C	1	M1
CNSI_	5	288	3	0	48	7
CNSI_	5	336	7	0	96	2
NMSTR	6	96	1
NMSCR	6	96	1	96	48	4
NMTAP	6	192	5
NMTAP	6	288	5
NMTAP	7	0	5
NMTAP	7	48	4
NMSTR	7	96	3
NMSUL	7	96	3	96	120	2
NMTAP	7	96	5
NMTAP	7	144	6
NMTAP	7	192	7
NMTAP	7	288	7
NMTAP	8	0	1
NMTAP	8	0	7
NMTAP	8	48	6
NMTAP	8	96	0
NMTAP	8	96	5
NMTAP	8	144	4
NMSTR	8	192	0
NMSUL	8	192	0	96	144	5
NMTAP	8	192	3
NMTAP	8	288	3
NMTAP	9	0	3
NMTAP	9	96	4
NMTAP	9	96	6
BRTAP	9	192	6
BRSTR	9	192	7
NMSCR	9	192	7	96	48	2
NMTAP	9	288	5
NMTAP	9	288	7
BRTAP	10	0	3
BRSTR	10	0	4
NMSCR	10	0	4	96	48	7
NMSTR	10	96	2
NMSI_	10	96	2	96	48	4
NMTAP	10	96	4
BRTAP	10	192	6
NMTAP	10	288	4
NMTAP	10	288	5
NMTAP	11	0	5
NMTAP	11	48	4
NMTAP	11	96	3
NMTAP	11	96	5
NMSTR	11	192	1
NMSCR	11	192	1	96	96	4
NMTAP	11	192	5
NMTAP	11	288	5
NMTAP	12	0	5
NMTAP	12	48	4
NMTAP	12	96	5
NMTAP	12	144	3
NMTAP	12	192	2
NMTAP	12	192	4
NMTAP	12	240	1
NMHLD	12	264	1	48
NMHLD	12	312	3	48
NMSTR	12	360	2
NMSI_	12	360	2	96	48	5
NMTAP	13	96	7
NMTAP	13	192	4
NMTAP	13	192	6
NMTAP	13	264	3
NMTAP	13	264	4
NMTAP	13	336	1
NMTAP	13	336	3
NMTAP	14	0	0
NMTAP	14	0	6
BXTAP	14	96	1
BXTAP	14	96	5
NMTAP	14	192	2
NMTAP	14	240	2
NMSTR	14	288	3
NMSUR	14	288	3	96	72	0
NMTAP	14	336	3
NMTAP	15	0	2
NMTAP	15	96	2
NMTAP	15	144	1
NMTAP	15	168	0
NMHLD	15	192	1	72
NMTAP	15	264	3
NMTAP	15	288	2
NMTAP	15	336	2
NMSTR	15	336	3
NMSXL	15	336	3	96	96	5
NMTAP	16	0	2
NMTAP	16	0	3
NMTAP	16	96	1
NMTAP	16	144	0
NMHLD	16	192	7	72
NMTAP	16	264	6
NMTAP	16	288	7
NMTAP	16	336	6
NMTAP	16	336	7
NMSTR	17	0	0
NMSUR	17	0	0	96	96	5
NMTAP	17	0	5
NMTAP	17	96	6
NMTAP	17	144	7
NMHLD	17	192	7	72
NMTAP	17	264	5
NMTAP	17	288	5
NMTAP	17	336	4
NMTAP	17	336	6
NMTAP	18	0	7
NMTAP	18	48	0
NMTAP	18	48	6
NMTAP	18	96	1
NMTAP	18	96	5
NMTAP	18	192	1
NMTAP	18	240	1
NMSTR	18	288	3
NMSUR	18	288	3	96	72	0
NMTAP	18	336	3
NMTAP	19	0	2
NMTAP	19	96	1
NMTAP	19	144	2
NMTAP	19	168	0
NMHLD	19	192	2	72
NMTAP	19	264	3
NMTAP	19	288	2
NMTAP	19	336	2
NMTAP	19	336	3
NMSTR	20	0	1
NMSCR	20	0	1	96	48	4
NMTAP	20	0	4
NMTAP	20	96	6
NMTAP	20	144	6
NMHLD	20	192	7	72
NMTAP	20	264	4
NMTAP	20	288	5
NMTAP	20	336	3
NMTAP	20	336	6
NMHLD	21	0	2	72
NMTAP	21	72	3
NMTAP	21	96	2
NMTAP	21	144	1
NMTAP	21	144	4
NMSTR	21	192	1
NMSUR	21	192	1	96	96	6
NMTAP	21	192	4
BRHLD	21	264	7	216
NMSTR	22	96	6
NMSXL	22	96	6	96	192	3
NMTAP	22	120	5
NMTAP	22	144	4
NMTAP	22	168	3
NMHLD	22	192	2	192
NMTAP	23	48	1
NMTAP	23	48	4
NMSTR	23	96	0
NMSXL	23	96	0	96	192	3
NMTAP	23	96	5
NMTAP	23	144	6
NMHLD	23	192	7	96
NMTAP	24	0	7
NMSTR	24	96	7
NMSLR	24	96	7	96	144	3
NMTAP	24	192	3
CNSI_	24	336	3	0	72	5
NMHLD	25	0	0	96
NMHLD	25	96	6	96
NMHLD	25	192	4	72
NMTAP	25	264	5
NMSTR	25	288	4
NMSCR	25	288	4	96	96	7
NMHLD	25	336	3	144
NMTAP	25	336	5
NMHLD	26	192	0	72
NMHLD	26	264	2	72
NMTAP	26	336	3
NMSTR	27	0	1
NMSCR	27	0	1	96	96	4
NMTAP	27	0	4
NMTAP	27	144	5
NMTAP	27	168	6
NMHLD	27	192	7	72
NMHLD	27	264	5	72
NMTAP	27	336	6
NMSTR	28	0	6
NMSI_	28	0	6	96	48	0
NMSI_	28	0	6	96	48	4
NMHLD	28	192	1	48
NMHLD	28	192	3	48
NMHLD	28	288	3	48
NMHLD	28	288	4	48
NMHLD	29	0	4	48
NMHLD	29	0	6	48
NMHLD	29	96	0	48
NMHLD	29	96	7	48
NMTAP	29	192	4
NMTAP	29	192	6
NMTAP	29	264	3
NMTAP	29	264	4
NMTAP	29	336	1
NMTAP	29	336	3
BRTAP	30	0	0
BRTAP	30	0	7
NMTAP	30	192	2
NMTAP	30	192	6
NMTAP	30	240	1
NMSTR	30	264	7
NMSCR	30	264	7	96	120	6
NMTAP	30	288	0
NMTAP	30	312	6
BXHLD	30	360	4	120
NMTTP	30	360	7	A	1	M1
NMTAP	31	192	5
NMTAP	31	192	7
NMTAP	31	240	6
NMSTR	31	264	0
NMSCL	31	264	0	96	120	1
NMTAP	31	288	7
NMTAP	31	312	1
NMTTP	31	360	0	A	1	M1
BXHLD	31	360	3	120
NMTAP	32	192	0
NMTAP	32	192	2
NMTAP	32	240	1
NMSTR	32	264	0
NMSV_	32	264	0	96	48	5
NMTAP	32	288	1
NMTAP	32	312	7
NMTTP	32	360	0	A	1	M1
BRTAP	32	360	5
NMTAP	33	48	6
NMSTR	33	96	6
NMSI_	33	96	6	96	48	3
NMTAP	33	144	4
NMSTR	33	192	3
NMSLR	33	192	3	96	96	0
EXSTR	33	264	1
NMSI_	33	264	1	96	48	5
EXTAP	33	336	1
NMTAP	34	48	7
NMTAP	34	96	4
NMTAP	34	96	7
NMSTR	34	192	6
NMSI_	34	192	6	96	48	4
NMSTR	34	240	3
NMSI_	34	240	3	96	48	7
NMTAP	34	288	6
NMTAP	34	336	3
NMHLD	35	0	5	72
NMHLD	35	72	7	72
NMTAP	35	144	0
NMHLD	35	192	0	72
NMHLD	35	264	2	72
NMTAP	35	336	3
NMSTR	36	0	1
NMSI_	36	0	1	96	48	3
NMSTR	36	0	4
NMSI_	36	0	4	96	48	6
NMTAP	36	192	3
NMTAP	36	192	6
NMTAP	36	240	5
NMSTR	36	264	4
NMSCR	36	264	4	96	48	7
NMTAP	36	312	2
NMTAP	36	336	3
NMSTR	37	0	1
NMSI_	37	0	1	96	48	5
NMTAP	37	96	1
NMSTR	37	96	6
NMSI_	37	96	6	96	48	3
NMTAP	37	192	6
NMHLD	37	192	7	96
NMTAP	37	336	0
NMTAP	37	336	4
NMTAP	37	360	1
NMTAP	37	360	5
BRSTR	38	0	2
NMSI_	38	0	2	96	48	7
BRSTR	38	0	6
NMSI_	38	0	6	96	48	3
NMTAP	38	96	2
NMTAP	38	96	6
NMTAP	38	192	1
NMTAP	38	192	5
NMTAP	38	240	6
NMSTR	38	264	0
BRSCL	38	264	0	96	120	1
NMTAP	38	288	7
NMTAP	38	312	1
NMTTP	38	360	0	A	1	M1
BXHLD	38	360	3	120
NMTAP	39	192	0
NMTAP	39	192	2
NMTAP	39	240	1
NMSTR	39	264	7
BRSCR	39	264	7	96	120	6
NMTAP	39	288	0
NMTAP	39	312	6
BXHLD	39	360	4	120
NMTTP	39	360	7	A	1	M1
NMTAP	40	192	5
NMTAP	40	192	7
NMTAP	40	240	6
NMSTR	40	264	7
BRSV_	40	264	7	96	48	2
NMTAP	40	288	6
NMTAP	40	312	0
BRTAP	40	360	2
NMTTP	40	360	7	A	1	M1
NMTAP	41	48	1
NMSTR	41	96	1
NMSI_	41	96	1	96	48	4
NMTAP	41	144	3
NMSTR	41	192	4
NMSLL	41	192	4	96	96	7
EXSTR	41	264	6
NMSI_	41	264	6	96	48	2
EXTAP	41	336	6
NMTAP	42	48	0
NMTAP	42	96	0
NMTAP	42	96	3
NMTAP	42	192	1
NMTAP	42	192	3
NMTAP	42	240	2
NMTAP	42	288	4
NMTAP	42	288	6
NMSTR	42	336	5
NMSCL	42	336	5	96	48	2
NMTAP	43	48	1
NMSTR	43	96	0
NMSI_	43	96	0	96	48	5
NMSTR	43	192	2
NMSI_	43	192	2	96	48	7
NMSTR	43	288	4
NMSI_	43	288	4	96	48	0
EXTAP	44	0	6
EXSTR	44	72	5
NMSCR	44	72	5	96	216	3
EXTAP	44	144	5
NMTTP	44	192	1	B	0	M1
NMTTP	44	192	1	E	0	M1
NMTTP	44	192	2	E	1	M1
NMTAP	45	0	0
NMSTR	45	96	6
NMSI_	45	96	6	96	48	3
NMSTR	45	96	7
NMSI_	45	96	7	96	48	3
NMTTP	45	192	6	A	0	M1
NMTTP	45	192	7	A	0	M1
NMTTP	45	192	7	D	1	M1
NMSTR	45	288	0
NMSI_	45	288	0	96	48	4
NMSTR	45	288	1
NMSI_	45	288	1	96	48	4
NMTTP	46	0	0	A	0	M1
NMTTP	46	0	1	A	0	M1
NMTTP	46	0	1	D	1	M1
NMHLD	46	192	7	672
NMTAP	48	0	5
NMTAP	48	48	5
NMTAP	48	96	5
NMTAP	48	120	4
NMTAP	48	144	3
NMTAP	48	168	2
NMHLD	48	192	1	72
NMHLD	48	264	0	72
NMSTR	48	336	2
NMSCR	48	336	2	96	48	5
NMTAP	49	48	6
NMTAP	49	96	6
NMHLD	49	192	6	72
NMHLD	49	264	7	72
NMSTR	49	336	6
NMSCR	49	336	6	96	48	1
NMTAP	50	48	4
NMTAP	50	96	4
NMHLD	50	192	3	72
NMHLD	50	264	2	72
NMSTR	50	336	1
NMSCL	50	336	1	96	48	6
NMTAP	51	48	4
NMTAP	51	96	4
NMHLD	51	192	5	72
NMHLD	51	264	6	72
NMSTR	51	336	7
NMSUL	51	336	7	96	48	2
BRTAP	52	48	0
BRTAP	52	96	1
NMHLD	52	192	1	72
NMTAP	52	264	3
NMTAP	52	288	2
NMSTR	52	336	1
NMSCR	52	336	1	96	72	5
NMTAP	52	336	3
NMTAP	53	48	6
NMHLD	53	96	6	96
NMHLD	53	192	4	72
NMTAP	53	264	5
NMTAP	53	288	4
NMTAP	53	336	3
NMSTR	53	336	5
NMSCR	53	336	5	96	72	1
NMTAP	54	48	2
NMHLD	54	96	2	96
NMHLD	54	192	3	72
NMTAP	54	264	1
NMTAP	54	288	3
NMHLD	54	336	0	192
NMHLD	54	336	4	192
NMTAP	55	192	1
NMTAP	55	192	3
NMTAP	55	240	2
NMTAP	55	288	4
NMTAP	55	288	6
NMTAP	55	336	5
NMTAP	56	0	2
NMTAP	56	24	3
NMTAP	56	72	0
NMTAP	56	72	7
NMTAP	56	120	5
BRTAP	56	144	4
NMTAP	56	192	2
NMTAP	56	192	7
NMTAP	56	240	1
NMSTR	56	264	0
NMSI_	56	264	0	96	72	6
NMTAP	56	288	2
NMTAP	56	312	3
NMTTP	56	360	0	A	1	M1
BXHLD	56	360	3	120
CNSI_	57	48	6	0	24	4
CNSCL	57	72	4	0	24	1
NMTAP	57	192	0
NMTAP	57	192	5
NMTAP	57	240	6
NMSTR	57	264	7
NMSI_	57	264	7	96	48	1
NMTAP	57	288	5
NMTAP	57	312	4
BXHLD	57	360	4	120
NMTTP	57	360	7	A	1	M1
CNSI_	58	24	1	0	24	3
CNSCR	58	48	3	0	48	6
NMTAP	58	192	3
NMTAP	58	192	7
NMTAP	58	240	2
NMSTR	58	264	0
NMSI_	58	264	0	96	48	4
NMTAP	58	288	1
NMTAP	58	312	7
NMTTP	58	360	0	A	1	M1
BRTAP	58	360	5
NMTAP	59	48	6
NMTAP	59	96	3
NMTAP	59	96	6
NMTAP	59	144	2
NMSTR	59	144	5
NMSXL	59	144	5	96	144	0
EXTAP	59	192	1
NMTAP	59	192	4
EXSTR	59	264	1
NMSCR	59	264	1	96	48	4
EXTAP	59	336	1
NMTAP	60	48	7
NMTAP	60	96	3
NMTAP	60	96	7
NMSTR	60	192	6
NMSI_	60	192	6	96	48	0
NMSTR	60	240	2
NMSI_	60	240	2	96	48	4
NMTAP	60	288	6
NMTAP	60	336	2
NMHLD	61	0	7	72
NMHLD	61	72	5	72
NMTAP	61	144	3
NMHLD	61	192	2	72
NMTAP	61	192	4
NMHLD	61	264	0	72
NMTAP	61	336	7
NMSTR	62	0	0
NMSI_	62	0	0	96	48	2
NMSTR	62	0	6
NMSI_	62	0	6	96	48	4
NMTAP	62	192	1
NMTAP	62	192	3
NMTAP	62	240	2
NMSTR	62	264	3
NMSCL	62	264	3	96	48	0
NMTAP	62	312	5
NMTAP	62	336	4
NMSTR	63	0	6
NMSI_	63	0	6	96	48	2
NMSTR	63	96	0
NMSI_	63	96	0	96	48	4
NMTAP	63	96	6
NMTAP	63	192	0
NMHLD	63	192	7	96
NMTAP	63	336	3
NMTAP	63	336	6
NMTAP	63	360	2
NMTAP	63	360	5
BRSTR	64	0	1
NMSI_	64	0	1	96	48	4
BRSTR	64	0	4
NMSI_	64	0	4	96	48	7
NMTAP	64	96	1
NMTAP	64	96	4
NMTAP	64	192	2
NMTAP	64	216	3
NMTAP	64	240	1
NMSTR	64	264	5
NMSCL	64	264	5	96	120	6
NMTAP	64	288	4
NMTAP	64	312	6
NMTTP	64	360	5	A	1	M1
BRHLD	64	360	7	120
NMTAP	65	192	5
NMTAP	65	216	4
NMTAP	65	240	6
NMSTR	65	264	2
NMSCR	65	264	2	96	120	1
NMTAP	65	288	3
NMTAP	65	312	1
BRHLD	65	360	0	120
NMTTP	65	360	2	A	1	M1
NMTAP	66	192	1
NMTAP	66	216	3
NMTAP	66	240	2
NMSTR	66	264	5
NMSI_	66	264	5	96	48	0
NMTAP	66	288	4
NMTAP	66	312	6
NMTTP	66	360	5	A	1	M1
BRTAP	66	360	7
NMTAP	67	48	7
NMTAP	67	96	0
NMTAP	67	96	6
NMTAP	67	144	1
NMSTR	67	144	5
NMSXR	67	144	5	96	144	2
NMTAP	67	192	2
NMTAP	67	192	4
EXSTR	67	264	1
NMSCL	67	264	1	96	48	6
BXTAP	67	336	1
NMTAP	68	48	3
NMTAP	68	96	3
NMTAP	68	96	7
NMTAP	68	192	0
NMTAP	68	192	2
NMTAP	68	240	1
NMTAP	68	288	4
NMTAP	68	288	6
NMSTR	68	336	5
NMSCL	68	336	5	96	48	2
NMTAP	69	48	0
NMSTR	69	96	0
NMSI_	69	96	0	96	48	5
NMTAP	69	144	0
NMSTR	69	192	2
NMSI_	69	192	2	96	48	7
NMTAP	69	240	2
NMSTR	69	288	4
NMSI_	69	288	4	96	48	1
NMTAP	69	336	4
EXTAP	70	0	5
EXSTR	70	72	6
NMSCR	70	72	6	96	216	5
EXTAP	70	144	6
NMTTP	70	192	3	B	1	M1
NMTTP	70	192	3	E	0	M1
NMTTP	70	192	4	E	0	M1
NMTAP	71	0	0
NMSTR	71	96	6
NMSI_	71	96	6	96	48	2
NMSTR	71	96	7
NMSI_	71	96	7	96	48	4
NMTTP	71	192	6	A	0	M1
NMTTP	71	192	7	A	0	M1
NMTTP	71	192	7	D	1	M1
NMSTR	71	288	0
NMSI_	71	288	0	96	48	3
NMSTR	71	288	1
NMSI_	71	288	1	96	48	5
NMTTP	72	0	0	A	0	M1
NMTTP	72	0	1	A	0	M1
NMTTP	72	0	1	D	1	M1
NMTAP	72	96	4
NMTAP	72	96	6
NMHLD	72	192	5	72
NMTAP	72	264	4
NMTAP	72	288	5
NMHLD	72	336	3	72
NMTAP	73	24	4
NMTAP	73	48	3
NMTAP	73	96	2
NMTAP	73	96	4
NMTAP	73	144	1
NMTAP	73	144	3
NMHLD	73	192	2	72
NMTAP	73	264	3
NMTAP	73	288	2
NMHLD	73	336	4	72
NMTAP	74	24	3
NMTAP	74	48	4
NMTAP	74	96	3
NMTAP	74	96	5
NMTAP	74	144	4
NMTAP	74	144	6
NMTAP	74	192	5
NMTAP	74	216	4
NMTAP	74	240	6
NMTAP	74	264	2
NMTAP	74	288	3
NMTAP	74	312	1
NMTAP	74	336	6
NMTAP	74	360	4
NMSTR	75	0	5
NMSI_	75	0	5	96	48	0
NMTAP	75	24	0
NMTAP	75	48	3
NMTAP	75	72	2
NMTTP	75	96	5	A	1	M1
BRTAP	75	192	1
BRTAP	75	192	7
BRTAP	75	216	1
BRTAP	75	216	7
BRTAP	75	240	1
BRTAP	75	240	7

T_REC_TAP	334
T_REC_BRK	18
T_REC_XTP	8
T_REC_BXX	3
T_REC_HLD	67
T_REC_XHO	0
T_REC_BHO	3
T_REC_BXH	6
T_REC_STR	75
T_REC_BST	6
T_REC_XST	6
T_REC_XBS	0
T_REC_TTP	33
T_REC_THO	0
T_REC_SLD	85
T_REC_BSL	3
T_REC_ALL	647
T_NUM_TAP	456
T_NUM_BRK	39
T_NUM_HLD	67
T_NUM_SLD	85
T_NUM_ALL	647
T_JUDGE_TAP	483
T_JUDGE_HLD	173
T_JUDGE_SLD	88
T_JUDGE_ALL	744
TTM_EACHPAIRS	101
TTM_SCR_TAP	228000
TTM_SCR_BRK	101400
TTM_SCR_HLD	67000
TTM_SCR_SLD	127500
TTM_SCR_ALL	523900
TTM_SCR_S	504400
TTM_SCR_SS	520000
TTM_RAT_ACV	10075

