VERSION	0.00.00	1.05.00
FES_MODE	0
BPM_DEF	147.000	147.000	147.000	147.000
MET_DEF	4	4
RESOLUTION	384
CLK_DEF	384
COMPATIBLE_CODE	MA2

BPM	0	0	147.000
MET	0	0	4	4
MET	5	0	4	6
MET	6	192	4	4

NMSTR	1	0	2
NMSCR	1	0	2	96	96	5
NMSTR	2	0	5
NMSCL	2	0	5	96	96	2
NMSTR	3	0	2
NMSCL	3	0	2	96	96	7
NMTAP	3	336	6
NMTAP	4	0	6
NMTAP	4	72	0
NMTAP	4	72	7
NMTAP	4	144	1
BXSTR	4	192	1
NMSUR	4	192	1	96	192	4
NMTHO	5	192	0	192	C	0	M1
NMHLD	6	192	0	96
NMHLD	6	192	7	96
NMTAP	7	0	1
NMTAP	7	48	1
NMTAP	7	96	3
NMTAP	7	192	2
NMTAP	7	192	3
NMTAP	7	288	4
NMTAP	7	288	5
NMTAP	8	0	6
NMTAP	8	48	6
NMTAP	8	96	4
NMTAP	8	192	4
NMTAP	8	192	5
NMTAP	8	288	2
NMTAP	8	288	3
NMTAP	9	0	2
NMTAP	9	0	3
NMTAP	9	96	0
NMTAP	9	96	1
NMHLD	9	192	6	96
NMHLD	9	192	7	96
NMHLD	10	0	4	96
NMHLD	10	0	5	96
NMTAP	10	192	6
NMHLD	10	288	6	96
NMTAP	11	0	4
NMTAP	11	48	4
NMTAP	11	96	5
NMTAP	11	192	2
NMTAP	11	192	4
NMHLD	11	288	1	96
NMTAP	12	0	3
NMTAP	12	48	3
NMTAP	12	96	2
NMTAP	12	192	3
NMSTR	12	192	5
NMSI_	12	192	5	96	96	0
NMSTR	13	0	1
NMSI_	13	0	1	96	96	4
NMHLD	13	192	5	72
NMHLD	13	264	3	72
NMTAP	13	336	4
NMTAP	14	0	4
NMTAP	14	96	3
NMTAP	14	96	5
NMTAP	14	192	3
NMTAP	14	240	2
NMHLD	14	288	1	96
NMTAP	15	0	0
NMTAP	15	48	7
NMHLD	15	96	6	96
NMTAP	15	192	4
NMTAP	15	240	3
NMHLD	15	288	2	96
NMTAP	16	0	3
NMTAP	16	96	2
NMTAP	16	96	3
NMTAP	16	192	4
NMTAP	16	240	5
NMHLD	16	288	6	96
NMTAP	17	0	7
NMTAP	17	48	0
NMHLD	17	96	1	96
NMSTR	17	192	3
NMSI_	17	192	3	96	96	0
NMTAP	18	96	1
NMTAP	18	96	7
NMTAP	18	192	1
NMTAP	18	240	2
NMTAP	18	288	4
NMTAP	18	336	5
NMTAP	19	0	4
NMTAP	19	0	6
NMTAP	19	96	0
NMTAP	19	96	7
NMTAP	19	192	6
NMTAP	19	240	5
NMTAP	19	288	3
NMTAP	19	336	2
NMTAP	20	0	1
NMTAP	20	0	3
NMTAP	20	96	0
NMTAP	20	96	7
NMTAP	20	192	1
NMTAP	20	240	2
NMTAP	20	288	4
NMTAP	20	336	5
NMTAP	21	0	4
NMSTR	21	0	6
NMSUL	21	0	6	96	192	3
NMTAP	22	0	2
NMSTR	22	96	1
NMSCL	22	96	1	96	96	6
NMTAP	22	96	3
NMSTR	22	288	5
NMSI_	22	288	5	96	96	1
NMSTR	23	96	2
NMSCR	23	96	2	96	96	5
NMSTR	23	288	6
NMSUL	23	288	6	96	192	3
NMHLD	24	192	1	96
NMHLD	24	288	0	96
NMHLD	25	0	7	96
NMHLD	25	96	6	96
NMTAP	25	192	7
NMTAP	25	264	5
NMTAP	25	264	6
NMTAP	25	336	4
NMTAP	25	336	5
NMTAP	26	0	4
NMTAP	26	0	5
NMTAP	26	96	3
NMTAP	26	96	6
NMHLD	26	192	1	72
NMHLD	26	264	3	72
NMTAP	26	336	2
NMTAP	27	0	2
NMTAP	27	96	7
NMHLD	27	192	6	72
NMHLD	27	264	4	72
NMTAP	27	336	5
NMTAP	28	0	5
NMTAP	28	96	0
NMTAP	28	192	1
NMTAP	28	192	3
NMTAP	28	288	4
NMTAP	28	288	6
NMTAP	29	0	0
NMTAP	29	0	1
NMTAP	29	96	6
NMTAP	29	96	7
NMHLD	29	192	1	72
NMTAP	29	264	0
NMTAP	29	336	2
NMTAP	29	336	7
BRTAP	30	0	2
BRTAP	30	0	7
NMTAP	30	192	0
NMTAP	30	192	1
NMTAP	30	240	0
NMTAP	30	240	1
NMHLD	30	288	2	192
NMSTR	30	312	3
NMSCL	30	312	3	96	96	7
NMTAP	31	192	6
NMTAP	31	192	7
NMTAP	31	240	6
NMTAP	31	240	7
NMHLD	31	288	5	192
NMSTR	31	312	4
NMSCR	31	312	4	96	96	0
NMTAP	32	192	0
NMTAP	32	192	1
NMTAP	32	240	0
NMTAP	32	240	1
NMHLD	32	288	2	192
NMSTR	32	312	3
NMSCL	32	312	3	96	96	7
BRTAP	33	192	6
BRTAP	33	192	7
BRTAP	33	264	4
BRTAP	33	264	5
BRTAP	33	336	3
BRTAP	33	336	6
NMTAP	34	192	2
NMTAP	34	240	1
NMTAP	34	288	0
NMTAP	34	336	7
NMHLD	35	0	6	72
NMHLD	35	72	5	72
NMTAP	35	144	4
NMHLD	35	192	3	72
NMHLD	35	264	2	72
NMTAP	35	336	1
NMSTR	36	0	1
NMSI_	36	0	1	96	48	5
NMHLD	36	192	6	72
NMTAP	36	264	7
NMTAP	36	336	0
NMTAP	36	336	5
NMTAP	37	0	0
NMTAP	37	0	5
NMSTR	37	96	2
NMSUR	37	96	2	96	96	0
NMSTR	37	96	3
NMSCR	37	96	3	96	96	7
NMTTP	38	0	2	B	1	M1
NMTTP	38	0	2	E	0	M1
NMTTP	38	0	3	E	0	M1
NMTAP	38	192	6
NMTAP	38	192	7
NMTAP	38	240	6
NMTAP	38	240	7
NMHLD	38	288	5	192
NMSTR	38	312	4
NMSCR	38	312	4	96	96	0
NMTAP	39	192	0
NMTAP	39	192	1
NMTAP	39	240	0
NMTAP	39	240	1
NMHLD	39	288	2	192
NMSTR	39	312	3
NMSCL	39	312	3	96	96	7
NMTAP	40	192	6
NMTAP	40	192	7
NMTAP	40	240	6
NMTAP	40	240	7
NMHLD	40	288	5	192
NMSTR	40	312	4
NMSCR	40	312	4	96	96	0
BRTAP	41	192	2
BRTAP	41	192	3
BRTAP	41	264	4
BRTAP	41	264	5
BRTAP	41	336	3
BRTAP	41	336	6
NMTAP	42	192	6
NMTAP	42	240	7
NMTAP	42	288	0
NMHLD	42	336	1	96
NMTAP	43	48	0
NMTAP	43	96	7
NMTAP	43	144	6
NMTAP	43	192	4
NMTAP	43	192	5
NMTAP	43	288	4
NMTAP	43	288	5
NMTAP	44	0	1
NMTAP	44	0	3
NMTAP	44	72	0
NMTAP	44	72	7
NMTAP	44	144	3
NMTAP	44	144	5
NMSTR	44	192	3
NMSLR	44	192	3	96	192	7
NMHLD	44	192	5	288
NMSTR	45	192	6
NMSI_	45	192	6	96	48	2
NMSTR	45	192	7
NMSI_	45	192	7	96	48	3
BRTAP	46	0	1
BRTAP	46	0	4
NMTHO	46	192	0	384	C	0	M1
NMTAP	48	0	0
NMTAP	48	0	7
NMTAP	48	48	0
NMTAP	48	48	7
BRTAP	48	96	1
BRTAP	48	96	6
NMHLD	48	192	2	72
NMHLD	48	264	1	72
NMSTR	48	336	0
NMSI_	48	336	0	96	48	5
NMSI_	48	336	0	96	48	6
NMHLD	49	192	5	72
NMHLD	49	264	6	72
NMSTR	49	336	7
NMSI_	49	336	7	96	48	1
NMSI_	49	336	7	96	48	2
NMHLD	50	192	0	72
NMHLD	50	264	1	72
NMSTR	50	336	2
NMSI_	50	336	2	96	48	4
NMSI_	50	336	2	96	48	5
NMTAP	51	192	6
NMTAP	51	192	7
NMTAP	51	264	0
NMTAP	51	264	1
BRTAP	51	336	2
BRTAP	51	336	7
NMHLD	52	192	6	72
NMTAP	52	264	4
NMSTR	52	336	3
NMSI_	52	336	3	96	48	1
NMSTR	52	336	5
NMSI_	52	336	5	96	48	7
NMHLD	53	192	1	72
NMTAP	53	264	3
NMSTR	53	336	2
NMSI_	53	336	2	96	48	0
NMSTR	53	336	4
NMSI_	53	336	4	96	48	6
NMTTP	54	192	6	B	0	M1
NMTTP	54	192	7	B	0	M1
NMTTP	54	192	7	E	0	M1
NMTTP	54	264	1	B	0	M1
NMTTP	54	264	2	B	0	M1
NMTTP	54	264	2	E	0	M1
NMTHO	54	336	0	240	C	1	M1
EXTAP	56	96	0
EXTAP	56	96	7
NMTAP	56	192	2
NMTAP	56	192	3
NMTAP	56	240	2
NMTAP	56	240	3
NMHLD	56	288	1	192
NMSTR	56	312	0
NMSCR	56	312	0	96	96	4
NMTAP	57	192	4
NMTAP	57	192	5
NMTAP	57	240	4
NMTAP	57	240	5
NMHLD	57	288	6	192
NMSTR	57	312	7
NMSCL	57	312	7	96	96	3
NMTAP	58	192	2
NMTAP	58	192	3
NMTAP	58	240	2
NMTAP	58	240	3
NMHLD	58	288	1	192
NMSTR	58	312	0
NMSCR	58	312	0	96	96	4
BRTAP	59	192	5
BRTAP	59	192	7
BRTAP	59	264	0
BRTAP	59	264	7
BRHLD	59	336	0	144
BRHLD	59	336	2	144
NMTAP	60	192	6
NMTAP	60	240	5
NMTAP	60	288	4
NMTAP	60	336	3
NMHLD	61	0	2	72
NMHLD	61	72	1	72
NMTAP	61	144	0
NMHLD	61	192	7	72
NMHLD	61	264	6	72
NMTAP	61	336	5
NMTAP	62	0	4
NMSTR	62	0	5
NMSI_	62	0	5	96	48	0
NMHLD	62	192	2	72
NMTAP	62	264	3
NMTAP	62	336	1
NMTAP	62	336	4
NMSTR	63	0	1
NMSI_	63	0	1	96	48	4
NMTAP	63	0	4
NMSTR	63	96	5
NMSCR	63	96	5	96	96	2
BRTAP	64	0	0
BRTAP	64	0	7
NMTAP	64	192	6
NMTAP	64	192	7
NMTAP	64	240	6
NMTAP	64	240	7
NMHLD	64	288	5	192
NMSTR	64	312	4
NMSLR	64	312	4	96	96	0
NMTAP	65	192	0
NMTAP	65	192	1
NMTAP	65	240	0
NMTAP	65	240	1
NMHLD	65	288	2	192
NMSTR	65	312	3
NMSLL	65	312	3	96	96	7
NMTAP	66	192	6
NMTAP	66	192	7
NMTAP	66	240	6
NMTAP	66	240	7
NMHLD	66	288	5	192
NMSTR	66	312	4
NMSLR	66	312	4	96	96	0
BRTAP	67	192	1
BRTAP	67	192	3
BRTAP	67	264	3
BRTAP	67	264	4
BRHLD	67	336	4	144
BRHLD	67	336	6	144
NMTAP	68	192	6
NMTAP	68	240	5
NMTAP	68	288	4
NMHLD	68	336	3	96
NMTAP	69	48	0
NMTAP	69	96	7
NMTAP	69	144	6
NMTAP	69	192	4
NMTAP	69	192	5
NMTAP	69	288	4
NMTAP	69	288	5
NMTAP	70	0	1
NMTAP	70	0	3
NMTAP	70	72	3
NMTAP	70	72	4
NMTAP	70	144	3
NMTAP	70	144	6
NMSTR	70	192	3
NMSI_	70	192	3	96	96	7
NMHLD	70	192	6	288
CNSI_	71	0	7	0	96	5
NMSTR	71	192	4
NMSI_	71	192	4	96	48	0
NMSTR	71	192	5
NMSI_	71	192	5	96	48	1
BRTAP	72	0	2
BRTAP	72	0	7
NMTAP	72	192	1
NMTAP	72	192	3
NMTAP	72	264	3
NMTAP	72	264	4
NMHLD	72	336	4	72
NMHLD	72	336	6	72
NMTAP	73	96	7
NMTAP	73	144	7
NMTAP	73	192	4
NMTAP	73	192	6
NMTAP	73	264	3
NMTAP	73	264	4
NMHLD	73	336	1	72
NMHLD	73	336	3	72
NMTAP	74	96	0
NMTAP	74	144	0
NMTAP	74	192	1
NMTAP	74	192	7
NMTAP	74	264	2
NMTAP	74	264	3
NMTAP	74	336	0
NMTAP	74	336	6
NMTAP	75	24	4
NMTAP	75	24	5
NMTAP	75	96	2
NMTAP	75	96	6
NMTAP	75	144	2
NMTAP	75	144	6
BXTAP	75	192	1
BXTAP	75	216	7
BXTAP	75	240	1

T_REC_TAP	237
T_REC_BRK	32
T_REC_XTP	2
T_REC_BXX	3
T_REC_HLD	62
T_REC_XHO	0
T_REC_BHO	4
T_REC_BXH	0
T_REC_STR	42
T_REC_BST	0
T_REC_XST	0
T_REC_XBS	1
T_REC_TTP	9
T_REC_THO	3
T_REC_SLD	46
T_REC_BSL	0
T_REC_ALL	441
T_NUM_TAP	290
T_NUM_BRK	40
T_NUM_HLD	65
T_NUM_SLD	46
T_NUM_ALL	441
T_JUDGE_TAP	326
T_JUDGE_HLD	185
T_JUDGE_SLD	46
T_JUDGE_ALL	557
TTM_EACHPAIRS	111
TTM_SCR_TAP	145000
TTM_SCR_BRK	104000
TTM_SCR_HLD	65000
TTM_SCR_SLD	69000
TTM_SCR_ALL	383000
TTM_SCR_S	367650
TTM_SCR_SS	379000
TTM_RAT_ACV	10105

