VERSION	0.00.00	1.04.00
FES_MODE	0
BPM_DEF	100.000	100.000	100.000	100.000
MET_DEF	4	4
RESOLUTION	384
CLK_DEF	387
COMPATIBLE_CODE	MA2

BPM	0	0	100.000
MET	0	0	4	4

NMTTP	1	0	7	E	0	M1
NMTTP	1	6	0	E	0	M1
NMTTP	1	6	0	D	0	M1
NMTTP	1	6	7	B	0	M1
NMTTP	1	6	7	A	0	M1
NMTTP	1	12	0	B	0	M1
NMTTP	1	12	0	A	0	M1
NMTTP	1	12	1	E	0	M1
NMTTP	1	12	1	D	0	M1
NMTTP	1	18	1	B	0	M1
NMTTP	1	18	1	A	0	M1
NMTTP	1	18	2	E	0	M1
NMTTP	1	18	2	D	0	M1
NMTTP	1	24	2	B	0	M1
NMTTP	1	24	2	A	0	M1
NMTTP	1	24	3	E	0	M1
NMTTP	1	24	3	D	0	M1
NMTTP	1	72	6	E	0	M1
NMTTP	1	78	6	B	0	M1
NMTTP	1	78	6	A	0	M1
NMTTP	1	78	7	E	0	M1
NMTTP	1	78	7	D	0	M1
NMTTP	1	84	0	E	0	M1
NMTTP	1	84	0	D	0	M1
NMTTP	1	84	7	B	0	M1
NMTTP	1	84	7	A	0	M1
NMTTP	1	90	0	B	0	M1
NMTTP	1	90	0	A	0	M1
NMTTP	1	90	1	E	0	M1
NMTTP	1	90	1	D	0	M1
NMTTP	1	96	1	B	0	M1
NMTTP	1	96	1	A	0	M1
NMTTP	1	96	2	E	0	M1
NMTTP	1	96	2	D	0	M1
NMTTP	1	144	5	E	0	M1
NMTTP	1	150	5	B	0	M1
NMTTP	1	150	5	A	0	M1
NMTTP	1	150	6	E	0	M1
NMTTP	1	150	6	D	0	M1
NMTTP	1	156	6	B	0	M1
NMTTP	1	156	6	A	0	M1
NMTTP	1	156	7	E	0	M1
NMTTP	1	156	7	D	0	M1
NMTTP	1	162	0	E	0	M1
NMTTP	1	162	0	D	0	M1
NMTTP	1	162	7	B	0	M1
NMTTP	1	162	7	A	0	M1
NMTTP	1	168	0	B	0	M1
NMTTP	1	168	0	A	0	M1
NMTTP	1	168	1	E	0	M1
NMTTP	1	168	1	D	0	M1
NMTHO	1	240	0	48	C	1	M1
NMTTP	1	288	2	B	0	M1
NMTTP	1	288	2	A	0	M1
NMTTP	1	288	3	B	0	M1
NMTTP	1	288	3	A	0	M1
NMTTP	1	288	4	B	0	M1
NMTTP	1	288	4	A	0	M1
NMTTP	1	288	5	B	0	M1
NMTTP	1	288	5	A	0	M1
NMTAP	2	0	1
NMTAP	2	0	7
NMTTP	2	48	4	B	0	M1
NMTTP	2	48	4	E	0	M1
NMTTP	2	48	4	A	0	M1
NMTTP	2	48	4	D	0	M1
NMTTP	2	48	5	E	0	M1
NMTTP	2	48	5	D	0	M1
NMSTR	2	96	0
NMSI_	2	96	0	96	24	6
NMTAP	2	96	6
NMTTP	2	144	3	B	0	M1
NMTTP	2	144	3	E	0	M1
NMTTP	2	144	3	A	0	M1
NMTTP	2	144	3	D	0	M1
NMTTP	2	144	4	E	0	M1
NMTTP	2	144	4	D	0	M1
CNSI_	2	216	6	0	24	2
CNSI_	2	240	2	0	24	4
CNSCL	2	264	4	0	24	3
CNSI_	2	288	3	0	24	5
CNSI_	2	312	5	0	24	1
NMTAP	2	336	7
NMTAP	3	0	0
NMTAP	3	0	6
NMTTP	3	48	3	B	0	M1
NMTTP	3	48	3	E	0	M1
NMTTP	3	48	3	A	0	M1
NMTTP	3	48	3	D	0	M1
NMTTP	3	48	4	E	0	M1
NMTTP	3	48	4	D	0	M1
NMTAP	3	96	1
NMSTR	3	96	7
NMSI_	3	96	7	96	24	1
NMTTP	3	144	4	B	0	M1
NMTTP	3	144	4	E	0	M1
NMTTP	3	144	4	A	0	M1
NMTTP	3	144	4	D	0	M1
NMTTP	3	144	5	E	0	M1
NMTTP	3	144	5	D	0	M1
CNSI_	3	216	1	0	24	5
CNSI_	3	240	5	0	24	3
CNSCR	3	264	3	0	24	4
CNSI_	3	288	4	0	24	2
CNSI_	3	312	2	0	24	6
NMTAP	3	336	0
NMTAP	4	0	2
NMTAP	4	0	4
NMTTP	4	48	0	E	0	M1
NMTTP	4	48	0	D	0	M1
NMTTP	4	48	7	B	0	M1
NMTTP	4	48	7	E	0	M1
NMTTP	4	48	7	A	0	M1
NMTTP	4	48	7	D	0	M1
NMSTR	4	96	3
NMSI_	4	96	3	96	24	5
NMTAP	4	96	5
NMTTP	4	144	0	B	0	M1
NMTTP	4	144	0	E	0	M1
NMTTP	4	144	0	A	0	M1
NMTTP	4	144	0	D	0	M1
NMTTP	4	144	1	E	0	M1
NMTTP	4	144	1	D	0	M1
CNSI_	4	216	5	0	24	1
CNSI_	4	240	1	0	24	7
CNSCR	4	264	7	0	24	0
CNSI_	4	288	0	0	24	6
CNSI_	4	312	6	0	24	2
NMTAP	4	336	4
NMTAP	5	0	3
NMTAP	5	0	5
NMTTP	5	48	0	B	0	M1
NMTTP	5	48	0	E	0	M1
NMTTP	5	48	0	A	0	M1
NMTTP	5	48	0	D	0	M1
NMTTP	5	48	1	E	0	M1
NMTTP	5	48	1	D	0	M1
NMSTR	5	96	4
NMSSL	5	96	4	96	48	0
NMTAP	5	96	5
NMTAP	5	144	3
NMTAP	5	144	6
NMTAP	5	168	4
NMTAP	5	168	5
CNSCL	5	240	0	0	24	7
CNSSR	5	264	7	0	48	3
NMTAP	6	0	0
NMTAP	6	0	6
NMTTP	6	48	3	B	0	M1
NMTTP	6	48	3	E	0	M1
NMTTP	6	48	3	A	0	M1
NMTTP	6	48	3	D	0	M1
NMTTP	6	48	4	E	0	M1
NMTTP	6	48	4	D	0	M1
NMTAP	6	96	1
NMSTR	6	96	7
NMSI_	6	96	7	96	24	5
NMTTP	6	144	2	B	0	M1
NMTTP	6	144	2	E	0	M1
NMTTP	6	144	2	A	0	M1
NMTTP	6	144	2	D	0	M1
NMTTP	6	144	3	E	0	M1
NMTTP	6	144	3	D	0	M1
CNSI_	6	216	5	0	24	1
CNSI_	6	240	1	0	24	3
CNSCL	6	264	3	0	24	2
CNSI_	6	288	2	0	24	4
CNSI_	6	312	4	0	24	0
NMTAP	6	336	1
NMTAP	7	0	2
NMTAP	7	0	7
NMTTP	7	48	4	B	0	M1
NMTTP	7	48	4	E	0	M1
NMTTP	7	48	4	A	0	M1
NMTTP	7	48	4	D	0	M1
NMTTP	7	48	5	E	0	M1
NMTTP	7	48	5	D	0	M1
NMSTR	7	96	0
NMSI_	7	96	0	96	24	2
NMTAP	7	96	6
NMTTP	7	144	5	B	0	M1
NMTTP	7	144	5	E	0	M1
NMTTP	7	144	5	A	0	M1
NMTTP	7	144	5	D	0	M1
NMTTP	7	144	6	E	0	M1
NMTTP	7	144	6	D	0	M1
CNSI_	7	216	2	0	24	6
CNSI_	7	240	6	0	24	4
CNSCR	7	264	4	0	24	5
CNSI_	7	288	5	0	24	3
CNSI_	7	312	3	0	24	7
NMTAP	7	336	6
NMTAP	8	0	0
NMTAP	8	0	5
NMTAP	8	48	3
NMTAP	8	48	6
NMTAP	8	96	2
NMTAP	8	96	7
NMTAP	8	144	1
NMTAP	8	144	4
NMTTP	8	192	0	D	0	M1
NMTTP	8	192	6	D	0	M1
NMTTP	8	198	0	A	0	M1
NMTTP	8	198	5	A	0	M1
NMTTP	8	204	1	D	0	M1
NMTTP	8	204	5	D	0	M1
NMTTP	8	210	1	A	0	M1
NMTTP	8	210	4	A	0	M1
NMTTP	8	240	0	E	0	M1
NMTTP	8	240	6	E	0	M1
NMTTP	8	246	0	B	0	M1
NMTTP	8	246	5	B	0	M1
NMTTP	8	252	1	B	0	M1
NMTTP	8	252	4	B	0	M1
NMTTP	8	258	2	E	0	M1
NMTTP	8	258	4	E	0	M1
NMTTP	8	288	0	D	0	M1
NMTTP	8	288	2	D	0	M1
NMTTP	8	294	2	A	0	M1
NMTTP	8	294	7	A	0	M1
NMTTP	8	300	3	D	0	M1
NMTTP	8	300	7	D	0	M1
NMTTP	8	306	3	A	0	M1
NMTTP	8	306	6	A	0	M1
NMTTP	8	336	0	E	0	M1
NMTTP	8	336	2	E	0	M1
NMTTP	8	342	2	B	0	M1
NMTTP	8	342	7	B	0	M1
NMTTP	8	348	3	B	0	M1
NMTTP	8	348	6	B	0	M1
NMTTP	8	354	4	E	0	M1
NMTTP	8	354	6	E	0	M1
NMTAP	9	0	0
NMTAP	9	0	4
NMTAP	9	24	0
NMTAP	9	24	4
NMTAP	9	48	1
NMTAP	9	48	5
NMTAP	9	72	1
NMTAP	9	72	5
NMTAP	9	96	2
NMTAP	9	96	6
NMTAP	9	120	2
NMTAP	9	120	6
NMTAP	9	144	3
NMTAP	9	144	7
NMTAP	9	168	3
NMTAP	9	168	7
NMTAP	9	192	0
NMTAP	9	192	4
NMTAP	9	198	3
NMTAP	9	204	2
NMTAP	9	210	1
NMTAP	9	216	0
NMTAP	9	222	7
NMTAP	9	228	6
NMTAP	9	234	5
NMTTP	9	240	0	C	1	M1
NMTAP	9	240	4
BRSTR	10	0	0
BRSCR	10	0	0	96	24	2
BXTAP	10	0	3
BXTAP	10	48	4
BRSTR	10	48	7
BRSCL	10	48	7	96	24	5
BRSTR	10	96	0
BRSI_	10	96	0	96	24	3
BXTAP	10	96	3
BXTAP	10	144	4
BRSTR	10	144	7
BRSI_	10	144	7	96	24	4
BRSTR	10	192	0
BRSCR	10	192	0	96	24	2
BXTAP	10	192	3
BXTAP	10	240	4
BRSTR	10	240	7
BRSCL	10	240	7	96	24	5
BRSTR	10	288	0
BRSI_	10	288	0	96	24	3
BXTAP	10	288	3
BXTAP	10	336	4
BRSTR	10	336	7
BRSI_	10	336	7	96	24	4
BRSTR	11	0	0
BRSCR	11	0	0	96	24	2
BXTAP	11	0	3
BXTAP	11	48	4
BRTAP	11	48	7
BRSTR	11	96	0
NMSSL	11	96	0	96	48	4
BXTAP	11	96	3
EXTAP	11	168	7
EXTAP	11	192	7
BRTAP	11	240	5
BRTAP	11	264	5
BRTAP	11	288	6
BRTAP	11	312	6
BRTAP	11	336	7
BRTAP	11	360	7
NMTAP	12	0	0
BRHLD	12	0	6	192
NMTAP	12	24	0
NMTAP	12	48	1
NMTAP	12	72	1
NMTAP	12	96	2
NMTAP	12	120	2
NMTAP	12	144	1
NMTAP	12	150	0
NMTAP	12	156	7
NMTAP	12	168	5
NMTAP	12	174	4
NMTAP	12	180	3
NMTAP	12	186	2
BRHLD	12	192	1	192
NMTAP	12	216	7
NMTAP	12	240	6
NMTAP	12	264	6
NMTAP	12	288	5
NMTAP	12	312	5
NMTAP	12	336	6
NMTAP	12	342	7
NMTAP	12	348	0
NMTAP	12	360	2
NMTAP	12	366	3
NMTAP	12	372	4
NMTAP	12	378	5
BRTAP	13	0	6
NMTAP	13	24	2
NMTAP	13	24	7
NMTAP	13	48	2
NMTAP	13	48	7
NMTAP	13	72	0
NMTAP	13	72	3
NMTAP	13	96	1
NMTAP	13	96	4
NMTAP	13	120	0
NMTAP	13	120	3
NMTAP	13	144	2
NMTAP	13	144	7
NMTAP	13	168	1
NMTAP	13	168	6
NMTAP	13	192	0
NMTAP	13	198	7
NMTAP	13	204	6
NMTAP	13	210	5
NMTAP	13	216	4
NMTAP	13	222	3
NMTAP	13	228	2
NMTAP	13	234	1
NMTAP	13	240	0
NMTAP	13	246	7
NMTAP	13	252	6
NMTAP	13	258	5
NMTTP	13	264	0	C	1	M1
BRTAP	13	264	4
BXTAP	14	0	4
BRSTR	14	0	7
BRSCL	14	0	7	96	24	5
BRSTR	14	48	0
BRSCR	14	48	0	96	24	2
BXTAP	14	48	3
BXTAP	14	96	4
BRSTR	14	96	7
BRSI_	14	96	7	96	24	4
BRSTR	14	144	0
BRSI_	14	144	0	96	24	3
BXTAP	14	144	3
BXTAP	14	192	4
BRSTR	14	192	7
BRSCL	14	192	7	96	24	5
BRSTR	14	240	0
BRSCR	14	240	0	96	24	2
BXTAP	14	240	3
BXTAP	14	288	4
BRSTR	14	288	7
BRSI_	14	288	7	96	24	4
BRSTR	14	336	0
BRSI_	14	336	0	96	24	3
BXTAP	14	336	3
BXTAP	15	0	4
BRSTR	15	0	7
BRSCL	15	0	7	96	24	5
BRTAP	15	48	0
BXTAP	15	48	3
BXTAP	15	96	4
BRSTR	15	96	7
NMSSR	15	96	7	96	48	3
EXTAP	15	168	0
EXTAP	15	192	0
BRTAP	15	240	2
BRTAP	15	264	2
BRTAP	15	288	1
BRTAP	15	312	1
BRTAP	15	336	0
BRTAP	15	360	0
BRHLD	16	0	1	192
NMTAP	16	0	7
NMTAP	16	24	7
NMTAP	16	48	6
NMTAP	16	72	6
NMTAP	16	96	5
NMTAP	16	120	5
NMTAP	16	144	6
NMTAP	16	150	7
NMTAP	16	156	0
NMTAP	16	168	2
NMTAP	16	174	3
NMTAP	16	180	4
NMTAP	16	186	5
BRHLD	16	192	6	192
NMTAP	16	216	0
NMTAP	16	240	1
NMTAP	16	264	1
NMTAP	16	288	2
NMTAP	16	312	2
NMTAP	16	336	1
NMTAP	16	342	0
NMTAP	16	348	7
NMTAP	16	360	5
NMTAP	16	366	4
NMTAP	16	372	3
NMTAP	16	378	2
BRTAP	17	0	1
NMTAP	17	24	0
NMTAP	17	24	6
NMTAP	17	48	7
NMTAP	17	54	6
NMTAP	17	60	5
NMTAP	17	66	4
NMTAP	17	72	3
NMTAP	17	78	2
NMTAP	17	84	1
NMTAP	17	90	0
NMTAP	17	96	7
NMTAP	17	102	6
NMTAP	17	108	5
NMTAP	17	114	4
NMTAP	17	120	3
NMTAP	17	126	2
NMTAP	17	132	1
NMTAP	17	138	0
NMTAP	17	144	7
NMTTP	17	192	0	A	0	M1
NMTTP	17	198	1	A	0	M1
NMTTP	17	204	2	A	0	M1
NMTTP	17	210	3	A	0	M1
NMTTP	17	216	4	A	0	M1
NMTTP	17	222	5	A	0	M1
NMTTP	17	228	6	A	0	M1
NMTTP	17	234	7	A	0	M1
NMTTP	17	240	0	B	0	M1
NMTTP	17	246	1	B	0	M1
NMTTP	17	252	2	B	0	M1
NMTTP	17	258	3	B	0	M1
NMTTP	17	264	4	B	0	M1
NMTTP	17	270	5	B	0	M1
NMTTP	17	276	6	B	0	M1
NMTTP	17	282	7	B	0	M1
NMTTP	17	288	0	B	1	M1
NMTTP	18	288	0	B	0	M1
NMTTP	18	288	0	C	1	M1
NMTTP	18	288	0	E	0	M1
NMTTP	18	288	1	B	0	M1
NMTTP	18	288	1	E	0	M1
NMTTP	18	288	2	B	0	M1
NMTTP	18	288	2	E	0	M1
NMTTP	18	288	3	B	0	M1
NMTTP	18	288	3	E	0	M1
NMTTP	18	288	4	B	0	M1
NMTTP	18	288	4	E	0	M1
NMTTP	18	288	5	B	0	M1
NMTTP	18	288	5	E	0	M1
NMTTP	18	288	6	B	0	M1
NMTTP	18	288	6	E	0	M1
NMTTP	18	288	7	B	0	M1
NMTTP	18	288	7	E	0	M1
NMHLD	19	0	0	84
NMHLD	19	48	6	84
EXTAP	19	90	1
NMHLD	19	96	2	84
EXTAP	19	138	5
NMHLD	19	144	4	60
EXTAP	19	186	1
NMHLD	19	192	0	36
EXTAP	19	210	5
NMHLD	19	216	6	36
EXTAP	19	234	1
NMHLD	19	240	2	36
EXTAP	19	258	7
NMHLD	19	264	0	36
EXTAP	19	282	3
NMHLD	19	288	4	42
EXTAP	19	306	7
NMHLD	19	312	6	24
BXTAP	19	336	3
NMHLD	20	0	7	84
NMHLD	20	48	1	84
EXTAP	20	90	6
NMHLD	20	96	5	84
EXTAP	20	138	2
NMHLD	20	144	3	60
EXTAP	20	186	6
NMHLD	20	192	7	36
EXTAP	20	210	2
NMHLD	20	216	1	36
EXTAP	20	234	6
NMHLD	20	240	5	36
EXTAP	20	258	0
NMHLD	20	264	7	36
EXTAP	20	282	4
NMHLD	20	288	3	42
EXTAP	20	306	0
NMHLD	20	312	1	24
BXTAP	20	336	4
NMHLD	21	0	0	84
NMHLD	21	48	6	84
EXTAP	21	90	1
NMHLD	21	96	2	84
EXTAP	21	138	5
NMHLD	21	144	4	60
EXTAP	21	186	1
NMHLD	21	192	0	36
EXTAP	21	210	5
NMHLD	21	216	6	36
EXTAP	21	234	1
NMHLD	21	240	2	36
EXTAP	21	258	7
NMHLD	21	264	0	36
EXTAP	21	282	3
NMHLD	21	288	4	42
EXTAP	21	306	7
NMHLD	21	312	6	24
BXTAP	21	336	3
NMHLD	22	0	3	18
NMHLD	22	0	7	18
NMHLD	22	24	2	18
NMHLD	22	24	6	18
NMHLD	22	48	1	18
NMHLD	22	48	5	18
NMHLD	22	72	0	18
NMHLD	22	72	4	18
NMHLD	22	96	3	18
NMHLD	22	96	7	18
NMHLD	22	120	0	18
NMHLD	22	120	4	18
NMHLD	22	144	1	18
NMHLD	22	144	5	18
NMHLD	22	168	2	18
NMHLD	22	168	6	18
BRSTR	22	192	3
BRSCL	22	192	3	96	24	0
BRSTR	22	192	7
BRSCL	22	192	7	96	24	4
BRTAP	22	288	3
BRTAP	22	288	7
NMTTP	22	294	3	D	0	M1
NMTTP	22	294	7	D	0	M1
NMTTP	22	300	2	D	0	M1
NMTTP	22	300	6	D	0	M1
NMTTP	22	306	1	D	0	M1
NMTTP	22	306	5	D	0	M1
NMHLD	23	0	0	84
NMHLD	23	48	6	84
EXTAP	23	90	1
NMHLD	23	96	2	84
EXTAP	23	138	5
NMHLD	23	144	4	60
EXTAP	23	186	1
NMHLD	23	192	0	36
EXTAP	23	210	5
NMHLD	23	216	6	36
EXTAP	23	234	1
NMHLD	23	240	2	42
EXTAP	23	258	7
NMHLD	23	264	0	18
NMHLD	23	288	3	18
NMHLD	23	288	7	18
NMHLD	23	312	0	18
NMHLD	23	312	2	18
BRTAP	23	336	3
BRTAP	23	336	7
NMHLD	24	0	7	84
NMHLD	24	48	1	84
EXTAP	24	90	6
NMHLD	24	96	5	84
EXTAP	24	138	2
NMHLD	24	144	3	60
EXTAP	24	186	6
NMHLD	24	192	7	36
EXTAP	24	210	2
NMHLD	24	216	1	36
EXTAP	24	234	6
NMHLD	24	240	5	42
EXTAP	24	258	0
NMHLD	24	264	7	18
NMHLD	24	288	0	18
NMHLD	24	288	4	18
NMHLD	24	312	5	18
NMHLD	24	312	7	18
BRTAP	24	336	0
BRTAP	24	336	4
NMHLD	25	0	0	84
NMHLD	25	48	6	84
EXTAP	25	90	1
NMHLD	25	96	2	84
EXTAP	25	138	5
NMHLD	25	144	4	60
EXTAP	25	186	1
NMHLD	25	192	0	36
EXTAP	25	210	5
NMHLD	25	216	6	36
EXTAP	25	234	1
NMHLD	25	240	2	42
EXTAP	25	258	7
NMHLD	25	264	0	18
NMHLD	25	288	3	18
NMHLD	25	288	7	18
NMHLD	25	312	0	18
NMHLD	25	312	2	18
BRTAP	25	336	3
BRTAP	25	336	7
NMHLD	26	0	0	18
NMHLD	26	0	3	18
NMHLD	26	24	2	18
NMHLD	26	24	7	18
NMHLD	26	48	1	18
NMHLD	26	48	6	18
NMHLD	26	72	0	18
NMHLD	26	72	5	18
NMHLD	26	96	4	18
NMHLD	26	96	7	18
NMHLD	26	120	0	18
NMHLD	26	120	5	18
NMHLD	26	144	1	18
NMHLD	26	144	6	18
NMHLD	26	168	2	18
NMHLD	26	168	7	18
NMSTR	26	192	0
BRSI_	26	192	0	96	24	5
NMSTR	26	192	3
BRSI_	26	192	3	96	24	0
BRTAP	26	288	0
BRTAP	26	288	3
NMTTP	27	0	0	B	0	M1
NMTTP	27	0	0	C	1	M1
NMTTP	27	0	0	E	0	M1
NMTTP	27	0	1	B	0	M1
NMTTP	27	0	1	E	0	M1
NMTTP	27	0	2	B	0	M1
NMTTP	27	0	2	E	0	M1
NMTTP	27	0	3	B	0	M1
NMTTP	27	0	3	E	0	M1
NMTTP	27	0	4	B	0	M1
NMTTP	27	0	4	E	0	M1
NMTTP	27	0	5	B	0	M1
NMTTP	27	0	5	E	0	M1
NMTTP	27	0	6	B	0	M1
NMTTP	27	0	6	E	0	M1
NMTTP	27	0	7	B	0	M1
NMTTP	27	0	7	E	0	M1
NMTTP	27	72	0	B	0	M1
NMTTP	27	72	0	C	1	M1
NMTTP	27	72	0	E	0	M1
NMTTP	27	72	1	B	0	M1
NMTTP	27	72	1	E	0	M1
NMTTP	27	72	2	B	0	M1
NMTTP	27	72	2	E	0	M1
NMTTP	27	72	3	B	0	M1
NMTTP	27	72	3	E	0	M1
NMTTP	27	72	4	B	0	M1
NMTTP	27	72	4	E	0	M1
NMTTP	27	72	5	B	0	M1
NMTTP	27	72	5	E	0	M1
NMTTP	27	72	6	B	0	M1
NMTTP	27	72	6	E	0	M1
NMTTP	27	72	7	B	0	M1
NMTTP	27	72	7	E	0	M1
NMTTP	27	144	0	B	0	M1
NMTTP	27	144	0	C	1	M1
NMTTP	27	144	0	E	0	M1
NMTTP	27	144	1	B	0	M1
NMTTP	27	144	1	E	0	M1
NMTTP	27	144	2	B	0	M1
NMTTP	27	144	2	E	0	M1
NMTTP	27	144	3	B	0	M1
NMTTP	27	144	3	E	0	M1
NMTTP	27	144	4	B	0	M1
NMTTP	27	144	4	E	0	M1
NMTTP	27	144	5	B	0	M1
NMTTP	27	144	5	E	0	M1
NMTTP	27	144	6	B	0	M1
NMTTP	27	144	6	E	0	M1
NMTTP	27	144	7	B	0	M1
NMTTP	27	144	7	E	0	M1
NMTTP	27	192	2	D	1	M1
NMTTP	27	216	1	A	0	M1
NMTTP	27	216	1	D	0	M1
NMTTP	27	216	2	E	0	M1
NMTTP	27	216	2	A	0	M1
NMTTP	27	216	3	D	0	M1
NMTTP	27	288	6	D	1	M1
NMTTP	27	312	5	A	0	M1
NMTTP	27	312	5	D	0	M1
NMTTP	27	312	6	E	0	M1
NMTTP	27	312	6	A	0	M1
NMTTP	27	312	7	D	0	M1
EXSTR	28	0	0
NMSV_	28	0	0	96	24	5
EXTAP	28	32	0
NMTAP	28	48	7
NMTAP	28	80	7
EXSTR	28	96	0
NMSV_	28	96	0	96	24	3
EXTAP	28	128	0
NMTAP	28	144	1
NMTAP	28	176	1
EXSTR	28	192	0
NMSV_	28	192	0	96	24	5
EXTAP	28	224	0
NMTAP	28	240	7
NMTAP	28	272	7
EXSTR	28	288	0
NMSV_	28	288	0	96	24	3
EXTAP	28	320	0
NMTAP	28	336	1
NMTAP	28	368	1
EXSTR	29	0	0
NMSV_	29	0	0	96	24	5
EXTAP	29	32	0
NMTAP	29	48	7
NMTAP	29	80	7
EXTAP	29	96	0
EXTAP	29	128	0
NMTAP	29	144	1
NMTAP	29	176	1
EXTAP	29	192	0
NMTAP	29	208	3
NMTAP	29	224	2
EXTAP	29	240	7
NMTAP	29	256	4
NMTAP	29	272	5
EXTAP	29	288	2
NMTAP	29	304	3
NMTAP	29	320	0
EXTAP	29	336	5
NMTAP	29	352	4
NMTAP	29	368	6
EXSTR	30	0	7
NMSV_	30	0	7	96	24	2
EXTAP	30	32	7
NMTAP	30	48	0
NMTAP	30	80	0
EXSTR	30	96	7
NMSV_	30	96	7	96	24	4
EXTAP	30	128	7
NMTAP	30	144	6
NMTAP	30	176	6
EXSTR	30	192	7
NMSV_	30	192	7	96	24	2
EXTAP	30	224	7
NMTAP	30	240	0
NMTAP	30	272	0
EXSTR	30	288	7
NMSV_	30	288	7	96	24	4
EXTAP	30	320	7
NMTAP	30	336	6
NMTAP	30	368	6
EXSTR	31	0	7
NMSV_	31	0	7	96	24	2
EXTAP	31	32	7
NMTAP	31	48	0
NMTAP	31	80	0
EXSTR	31	96	7
BRSUR	31	96	7	96	48	0
EXTAP	31	128	7
NMTAP	31	144	6
NMTAP	31	176	6
NMTTP	31	288	0	C	0	M1
NMTTP	31	288	2	B	0	M1
NMTTP	31	288	2	A	0	M1
NMTTP	31	288	3	B	0	M1
NMTTP	31	288	3	E	0	M1
NMTTP	31	288	3	A	0	M1
NMTTP	31	288	3	D	0	M1
NMTTP	31	288	4	B	0	M1
NMTTP	31	288	4	E	0	M1
NMTTP	31	288	4	A	0	M1
NMTTP	31	288	4	D	1	M1
NMTTP	31	288	5	B	0	M1
NMTTP	31	288	5	E	0	M1
NMTTP	31	288	5	A	0	M1
NMTTP	31	288	5	D	0	M1
NMSTR	32	0	0
NMSCR	32	0	0	96	24	3
NMTAP	32	32	0
BXTAP	32	48	5
NMTAP	32	80	5
NMSTR	32	96	7
NMSCL	32	96	7	96	24	4
NMTAP	32	128	7
BXTAP	32	144	2
NMTAP	32	176	2
NMSTR	32	192	0
NMSCR	32	192	0	96	24	3
NMTAP	32	224	0
BXTAP	32	240	5
NMTAP	32	272	5
NMSTR	32	288	7
NMSCL	32	288	7	96	24	4
NMTAP	32	320	7
BXTAP	32	336	2
NMTAP	32	368	2
NMSTR	33	0	0
NMSCR	33	0	0	96	24	3
NMTAP	33	32	0
BXTAP	33	48	5
NMTAP	33	80	5
NMTAP	33	96	7
NMTAP	33	128	7
BXTAP	33	144	2
NMTAP	33	176	2
EXTAP	33	192	6
NMTAP	33	208	4
NMTAP	33	224	7
BXTAP	33	240	1
NMTAP	33	256	3
NMTAP	33	272	0
EXTAP	33	288	6
NMTAP	33	304	5
NMTAP	33	320	7
BXTAP	33	336	1
NMTAP	33	352	2
NMTAP	33	368	0
NMSTR	34	0	4
NMSCR	34	0	4	96	24	7
NMTAP	34	32	4
BXTAP	34	48	1
NMTAP	34	80	1
NMSTR	34	96	3
NMSCL	34	96	3	96	24	0
NMTAP	34	128	3
BXTAP	34	144	6
NMTAP	34	176	6
NMSTR	34	192	4
NMSCR	34	192	4	96	24	7
NMTAP	34	224	4
BXTAP	34	240	1
NMTAP	34	272	1
NMTAP	34	288	3
NMTAP	34	320	3
BXTAP	34	336	6
NMTAP	34	368	6
NMTAP	35	0	2
NMTAP	35	16	3
NMTAP	35	32	2
NMTAP	35	48	5
NMTAP	35	64	4
NMTAP	35	80	5
NMTTP	35	96	2	E	1	M1
NMTTP	35	112	3	E	0	M1
NMTTP	35	128	1	E	0	M1
NMTTP	35	144	6	E	0	M1
NMTTP	35	160	5	E	0	M1
NMTTP	35	176	7	E	0	M1
NMTAP	35	192	2
NMTAP	35	208	3
NMTAP	35	224	1
NMTAP	35	240	5
NMTAP	35	256	4
NMTAP	35	272	6
NMTTP	35	288	2	E	1	M1
NMTTP	35	304	3	E	0	M1
NMTTP	35	320	1	E	0	M1
NMTTP	35	336	6	E	0	M1
NMTTP	35	352	5	E	0	M1
NMTTP	35	368	7	E	0	M1
NMTAP	36	0	1
NMTAP	36	16	0
NMTAP	36	32	1
NMTAP	36	48	6
NMTAP	36	64	7
NMTAP	36	80	6
NMTTP	36	96	2	E	1	M1
NMTTP	36	112	3	E	0	M1
NMTTP	36	128	1	E	0	M1
NMTTP	36	144	6	E	0	M1
NMTTP	36	160	5	E	0	M1
NMTTP	36	176	7	E	0	M1
NMTAP	36	192	2
NMTAP	36	208	3
NMTAP	36	224	2
NMTAP	36	240	0
NMTAP	36	256	1
NMTAP	36	272	0
NMTTP	36	288	1	E	1	M1
NMTTP	36	304	7	E	0	M1
NMTTP	36	320	0	E	0	M1
NMTTP	36	336	5	E	0	M1
NMTTP	36	352	3	E	0	M1
NMTTP	36	368	4	E	0	M1
NMTAP	37	0	1
NMTAP	37	12	3
NMTAP	37	24	1
NMTAP	37	36	3
NMTAP	37	48	6
NMTAP	37	60	4
NMTAP	37	72	6
NMTAP	37	84	4
NMTAP	37	96	2
NMTAP	37	108	3
NMTAP	37	120	2
NMTAP	37	132	3
NMTAP	37	144	5
NMTAP	37	156	4
NMTAP	37	168	5
NMTAP	37	180	4
NMTAP	37	192	2
NMTAP	37	204	3
NMTAP	37	216	1
NMTAP	37	228	3
NMTAP	37	240	5
NMTAP	37	252	4
NMTAP	37	264	6
NMTAP	37	276	4
NMTAP	37	288	3
NMTAP	37	294	2
NMTAP	37	300	1
NMTAP	37	306	0
NMTAP	37	312	7
NMTAP	37	318	6
NMTAP	37	324	5
NMTAP	37	330	4
NMTAP	37	336	3
NMTAP	37	342	2
NMTAP	37	348	1
NMTAP	37	354	0
NMTAP	37	360	7
NMTAP	37	366	6
NMTTP	37	372	0	C	1	M1
NMTAP	37	372	5
NMSTR	38	96	4
BRSCR	38	96	4	96	24	7
NMSTR	38	120	7
BRSI_	38	120	7	96	24	4
NMSTR	38	144	0
BRSCR	38	144	0	96	24	3
NMSTR	38	168	3
BRSI_	38	168	3	96	24	0
BRTAP	38	336	0
BRTAP	38	336	4
BRTAP	38	342	1
BRTAP	38	342	5
BRTAP	38	348	2
BRTAP	38	348	6
BRTAP	38	354	3
BRTAP	38	354	7

T_REC_TAP	281
T_REC_BRK	35
T_REC_XTP	65
T_REC_BXX	37
T_REC_HLD	98
T_REC_XHO	0
T_REC_BHO	4
T_REC_BXH	0
T_REC_STR	20
T_REC_BST	22
T_REC_XST	11
T_REC_XBS	0
T_REC_TTP	302
T_REC_THO	1
T_REC_SLD	26
T_REC_BSL	27
T_REC_ALL	929
T_NUM_TAP	679
T_NUM_BRK	125
T_NUM_HLD	99
T_NUM_SLD	26
T_NUM_ALL	929
T_JUDGE_TAP	773
T_JUDGE_HLD	222
T_JUDGE_SLD	53
T_JUDGE_ALL	1048
TTM_EACHPAIRS	92
TTM_SCR_TAP	339500
TTM_SCR_BRK	325000
TTM_SCR_HLD	99000
TTM_SCR_SLD	39000
TTM_SCR_ALL	802500
TTM_SCR_S	766300
TTM_SCR_SS	790000
TTM_RAT_ACV	10158

