VERSION	0.00.00	1.04.00
FES_MODE	0
BPM_DEF	100.000	100.000	100.000	100.000
MET_DEF	4	4
RESOLUTION	384
CLK_DEF	384
COMPATIBLE_CODE	MA2

BPM	0	0	100.000
MET	0	0	4	4

BXTAP	1	0	4
BXTAP	1	0	6
BXTAP	1	72	1
BXTAP	1	72	3
BXTAP	1	144	3
BXTAP	1	144	4
NMTTP	1	288	0	C	1	M1
NMTTP	1	288	3	B	0	M1
NMTTP	1	288	4	B	0	M1
EXTAP	2	0	1
EXTAP	2	48	0
EXTAP	2	48	1
NMTAP	2	96	6
NMTAP	2	144	6
NMTAP	2	144	7
NMHLD	2	192	5	144
NMTAP	2	240	4
NMTAP	2	288	3
NMTAP	2	336	4
NMTAP	3	0	6
NMTAP	3	48	6
NMTAP	3	48	7
NMTAP	3	96	1
NMTAP	3	144	0
NMTAP	3	144	1
NMHLD	3	192	2	144
NMTAP	3	240	3
NMTAP	3	288	4
NMTAP	3	336	3
NMTAP	4	0	1
NMTAP	4	48	0
NMTAP	4	48	4
NMTAP	4	96	5
NMTAP	4	144	3
NMTAP	4	144	6
NMHLD	4	192	2	144
NMTAP	4	240	3
NMTAP	4	288	1
NMTAP	4	336	3
NMTAP	5	0	0
NMTAP	5	0	4
NMTAP	5	48	1
NMTAP	5	48	5
NMTAP	5	96	2
NMTAP	5	96	6
NMTAP	5	144	3
NMTAP	5	144	7
NMSTR	5	192	0
BRSXR	5	192	0	96	48	6
NMSTR	5	192	4
BRSXR	5	192	4	96	48	2
NMTAP	6	0	5
NMTAP	6	48	4
NMTAP	6	48	5
NMTAP	6	96	2
NMTAP	6	144	2
NMTAP	6	144	3
NMHLD	6	192	1	144
NMTAP	6	240	0
NMTAP	6	288	7
NMTAP	6	336	0
NMTAP	7	0	2
NMTAP	7	48	2
NMTAP	7	48	3
NMTAP	7	96	5
NMTAP	7	144	4
NMTAP	7	144	5
NMHLD	7	192	6	144
NMTAP	7	240	7
NMTAP	7	288	0
NMTAP	7	336	7
NMTAP	8	0	5
NMTAP	8	48	4
NMTAP	8	48	6
NMTAP	8	96	2
NMTAP	8	144	1
NMTAP	8	144	3
NMTAP	8	192	6
NMTAP	8	240	5
NMTAP	8	240	7
NMTAP	8	288	1
NMTAP	8	336	0
NMTAP	8	336	2
NMTAP	9	0	3
NMTAP	9	0	7
NMTAP	9	48	2
NMTAP	9	48	6
NMTAP	9	96	1
NMTAP	9	96	5
NMTAP	9	144	0
NMTAP	9	144	4
NMTAP	9	192	3
NMTAP	9	192	7
NMTTP	9	240	3	B	1	M1
NMTTP	9	240	3	A	0	M1
NMTTP	9	240	7	B	0	M1
NMTTP	9	240	7	A	0	M1
BRTAP	10	0	0
BRTAP	10	0	6
BRTAP	10	48	1
BRTAP	10	48	7
BRTAP	10	96	0
BRTAP	10	96	6
NMTAP	10	144	0
NMTAP	10	144	6
BRTAP	10	192	2
BRTAP	10	192	7
BRTAP	10	240	0
BRTAP	10	240	5
BRTAP	10	288	2
BRTAP	10	288	7
NMTAP	10	336	2
NMTAP	10	336	7
BRTAP	11	0	6
BRTAP	11	0	7
BRTAP	11	48	0
BRTAP	11	48	1
BRTAP	11	96	6
BRTAP	11	96	7
NMTAP	11	144	6
NMTAP	11	144	7
NMHLD	11	192	5	96
BRTAP	11	240	0
BRTAP	11	288	0
BRTAP	11	336	3
BRTAP	11	336	6
NMTAP	12	0	4
NMTAP	12	0	5
NMTAP	12	48	3
NMTAP	12	48	6
NMTAP	12	96	2
NMTAP	12	96	3
NMTAP	12	144	1
NMTAP	12	144	4
NMTAP	12	192	6
NMTAP	12	192	7
NMTAP	12	240	0
NMTAP	12	240	5
NMTAP	12	288	0
NMTAP	12	288	1
NMTAP	12	336	2
NMTAP	12	336	7
NMTAP	13	0	3
NMTAP	13	0	6
NMTAP	13	48	2
NMTAP	13	48	5
NMTAP	13	96	1
NMTAP	13	96	4
NMSTR	13	144	0
NMSCR	13	144	0	96	48	3
NMSTR	13	144	3
NMSCR	13	144	3	96	48	6
NMTAP	13	192	0
NMTAP	13	192	3
BRTAP	14	0	1
BRTAP	14	0	7
BRTAP	14	48	0
BRTAP	14	48	6
BRTAP	14	96	1
BRTAP	14	96	7
NMTAP	14	144	1
NMTAP	14	144	7
BRTAP	14	192	0
BRTAP	14	192	5
BRTAP	14	240	2
BRTAP	14	240	7
BRTAP	14	288	0
BRTAP	14	288	5
NMTAP	14	336	0
NMTAP	14	336	5
BRTAP	15	0	0
BRTAP	15	0	1
BRTAP	15	48	6
BRTAP	15	48	7
BRTAP	15	96	0
BRTAP	15	96	1
NMTAP	15	144	0
NMTAP	15	144	1
NMHLD	15	192	2	96
BRTAP	15	240	7
BRTAP	15	288	7
BRTAP	15	336	0
BRTAP	15	336	5
NMTAP	16	0	2
NMTAP	16	0	3
NMTAP	16	48	2
NMTAP	16	48	3
NMTAP	16	96	5
NMTAP	16	96	6
NMTAP	16	144	5
NMTAP	16	144	6
NMTAP	16	192	0
NMTAP	16	192	1
NMTAP	16	240	0
NMTAP	16	240	1
NMTAP	16	288	1
NMTAP	16	288	2
NMTAP	16	336	2
NMTAP	16	336	3
NMTAP	17	0	3
NMTAP	17	0	4
NMTAP	17	48	4
NMTAP	17	48	5
NMTAP	17	96	5
NMTAP	17	96	6
NMTAP	17	144	6
NMTAP	17	144	7
NMTAP	17	192	0
NMTAP	17	192	7
NMTTP	17	256	0	C	1	M1
NMTTP	17	256	2	B	0	M1
NMTTP	17	256	3	B	0	M1
NMTTP	17	256	3	E	0	M1
NMTTP	17	256	4	B	0	M1
NMTTP	17	256	5	B	0	M1
NMTTP	17	256	5	E	0	M1
BRTAP	18	288	2
BRTAP	18	288	5
NMTAP	19	0	6
NMHLD	19	48	6	240
NMTAP	19	96	4
NMTAP	19	144	4
NMTAP	19	192	5
NMTAP	19	240	5
NMTAP	19	288	4
NMTAP	19	336	4
NMTAP	19	336	5
NMTAP	20	0	3
NMHLD	20	48	3	240
NMTAP	20	96	2
NMTAP	20	144	2
NMTAP	20	192	1
NMTAP	20	240	1
NMTAP	20	288	2
NMTAP	20	336	2
NMTAP	20	336	3
NMTAP	21	0	1
NMTAP	21	0	4
NMHLD	21	48	1	240
NMTAP	21	48	4
NMTAP	21	96	3
NMTAP	21	144	3
NMTAP	21	192	2
NMTAP	21	240	2
NMSTR	21	288	4
BRSI_	21	288	4	96	24	2
BRSV_	21	288	4	96	24	1
NMTAP	21	336	4
NMSTR	22	96	0
NMSF_	22	96	0	96	24	4
NMTAP	22	144	0
BRTAP	22	288	2
BRTAP	22	288	6
NMTAP	23	0	1
NMHLD	23	0	5	96
NMTAP	23	48	7
NMHLD	23	96	1	96
NMTAP	23	144	3
NMHLD	23	192	5	144
NMTAP	23	240	3
NMTAP	23	288	4
NMTAP	23	336	2
NMHLD	24	0	0	96
NMTAP	24	0	4
NMTAP	24	48	2
NMHLD	24	96	4	96
NMTAP	24	144	7
NMHLD	24	192	0	144
NMTAP	24	240	2
NMTAP	24	288	3
NMTAP	24	336	5
NMTAP	25	0	2
NMHLD	25	0	6	96
NMTAP	25	48	4
NMHLD	25	96	2	96
NMTAP	25	144	3
NMTAP	25	192	5
NMTAP	25	240	3
NMTAP	25	240	6
NMSTR	25	288	7
NMSI_	25	288	7	96	48	4
NMTAP	25	336	7
NMTAP	26	0	1
NMTAP	26	48	1
NMSTR	26	96	0
NMSI_	26	96	0	96	48	3
NMTAP	26	144	0
NMTAP	26	192	4
EXTAP	26	288	3
EXTAP	26	288	4
NMTAP	27	0	2
NMTAP	27	0	5
NMTAP	27	48	6
NMTAP	27	72	6
NMTAP	27	72	7
NMTAP	27	120	1
NMTAP	27	144	0
NMTAP	27	144	1
BXHLD	27	192	2	48
BXHLD	27	192	7	48
BXHLD	27	288	0	48
BXHLD	27	288	5	48
NMSTR	28	0	6
NMSI_	28	0	6	96	48	4
NMSTR	28	0	7
NMSI_	28	0	7	96	48	3
NMTAP	28	48	6
NMTAP	28	48	7
NMSTR	28	192	0
NMSI_	28	192	0	96	48	4
NMSTR	28	192	1
NMSI_	28	192	1	96	48	3
NMTAP	28	240	0
NMTAP	28	240	1
NMSTR	29	0	6
NMSCL	29	0	6	96	48	3
NMSTR	29	0	7
NMSV_	29	0	7	96	48	2
NMTAP	29	48	6
NMTAP	29	48	7
NMTAP	29	192	0
NMTAP	29	192	1
NMTAP	29	240	0
NMTAP	29	240	1
NMTAP	29	288	2
NMTAP	29	288	3
NMTAP	29	336	3
NMTAP	29	336	4
NMHLD	30	0	4	96
NMTAP	30	0	5
NMTAP	30	48	7
NMHLD	30	96	5	96
NMTAP	30	144	7
NMHLD	30	192	3	96
NMTAP	30	240	0
NMHLD	30	288	4	96
NMTAP	30	336	0
NMHLD	31	0	2	96
NMTAP	31	48	0
NMHLD	31	96	3	96
NMTAP	31	144	0
NMSTR	31	192	4
BRSF_	31	192	4	96	24	0
NMSTR	32	0	0
NMSI_	32	0	0	96	48	4
NMSTR	32	0	1
NMSI_	32	0	1	96	48	3
NMTAP	32	48	0
NMTAP	32	48	1
NMSTR	32	192	6
NMSI_	32	192	6	96	48	4
NMSTR	32	192	7
NMSI_	32	192	7	96	48	3
NMTAP	32	240	6
NMTAP	32	240	7
NMSTR	33	0	0
NMSV_	33	0	0	96	48	5
NMSTR	33	0	1
NMSCR	33	0	1	96	48	4
NMTAP	33	48	0
NMTAP	33	48	1
BRTAP	33	192	6
BRTAP	33	192	7
NMTAP	33	240	6
NMTAP	33	240	7
NMTAP	33	288	4
NMTAP	33	288	5
NMTAP	33	336	3
NMTAP	33	336	4
NMTAP	34	0	2
NMHLD	34	0	3	96
NMTAP	34	48	0
NMHLD	34	96	2	96
NMTAP	34	144	0
NMHLD	34	192	4	96
NMTAP	34	240	7
NMHLD	34	288	3	96
NMTAP	34	336	7
NMSTR	35	0	6
NMSI_	35	0	6	96	48	2
NMTAP	35	48	6
NMSTR	35	96	1
NMSI_	35	96	1	96	48	5
NMTAP	35	144	1
NMSTR	35	192	7
NMSI_	35	192	7	96	48	3
NMTAP	35	240	7
NMSTR	35	288	0
NMSI_	35	288	0	96	48	4
NMTAP	35	336	0
BRSTR	36	0	6
BRSI_	36	0	6	96	48	2
BRTAP	36	48	6
BRSTR	36	96	1
BRSI_	36	96	1	96	48	5
BRTAP	36	144	1
BRTAP	36	192	7
BRTAP	36	240	7
BRTAP	36	288	3
BRTAP	36	288	6
BRTAP	36	336	3
BRTAP	36	336	6
NMHLD	37	0	5	72
NMHLD	37	24	4	72
NMHLD	37	96	6	72
NMHLD	37	120	7	72
NMHLD	37	192	3	72
NMHLD	37	216	2	72
NMHLD	37	288	0	72
NMHLD	37	312	1	48
NMTAP	38	192	2
NMTAP	38	216	3
NMTAP	38	240	4
NMTAP	38	264	5
NMTTP	38	336	0	B	0	M1
NMTTP	38	336	0	C	0	M1
NMTTP	38	336	0	E	0	M1
NMTTP	38	336	0	D	1	M1
NMTTP	38	336	1	B	0	M1
NMTTP	38	336	2	B	0	M1
NMTTP	38	336	3	B	0	M1
NMTTP	38	336	3	E	0	M1
NMTTP	38	336	4	B	0	M1
NMTTP	38	336	5	B	0	M1
NMTTP	38	336	5	E	0	M1
NMTTP	38	336	6	B	0	M1
NMTTP	38	336	7	B	0	M1

T_REC_TAP	236
T_REC_BRK	58
T_REC_XTP	5
T_REC_BXX	6
T_REC_HLD	36
T_REC_XHO	0
T_REC_BHO	0
T_REC_BXH	4
T_REC_STR	25
T_REC_BST	2
T_REC_XST	0
T_REC_XBS	0
T_REC_TTP	27
T_REC_THO	0
T_REC_SLD	21
T_REC_BSL	7
T_REC_ALL	427
T_NUM_TAP	293
T_NUM_BRK	77
T_NUM_HLD	36
T_NUM_SLD	21
T_NUM_ALL	427
T_JUDGE_TAP	359
T_JUDGE_HLD	175
T_JUDGE_SLD	28
T_JUDGE_ALL	562
TTM_EACHPAIRS	119
TTM_SCR_TAP	146500
TTM_SCR_BRK	200200
TTM_SCR_HLD	36000
TTM_SCR_SLD	31500
TTM_SCR_ALL	414200
TTM_SCR_S	394350
TTM_SCR_SS	406500
TTM_RAT_ACV	10189

