VERSION	0.00.00	1.04.00
FES_MODE	0
BPM_DEF	127.000	127.000	127.000	127.000
MET_DEF	4	4
RESOLUTION	384
CLK_DEF	384
COMPATIBLE_CODE	MA2

BPM	0	0	127.000
MET	0	0	4	4

NMTAP	1	0	3
NMTAP	1	32	4
NMTAP	1	64	3
NMTAP	1	96	5
NMTAP	1	128	4
NMTAP	1	160	3
NMHLD	1	192	2	96
NMTTP	1	288	5	A	0	M1
NMTTP	1	288	6	E	0	M1
NMTTP	1	336	2	E	0	M1
NMTTP	1	336	2	A	0	M1
NMTAP	2	0	4
NMTAP	2	48	4
NMTAP	2	96	2
NMTAP	2	144	2
NMTAP	2	192	5
NMTAP	2	240	4
NMTAP	2	288	3
NMTAP	2	336	2
NMTAP	3	0	4
NMTAP	3	48	4
NMTAP	3	96	3
NMTAP	3	144	3
NMTAP	3	192	5
NMTAP	3	240	5
NMTAP	3	288	4
NMTAP	3	336	3
NMTAP	4	0	2
NMTAP	4	0	4
NMTAP	4	48	2
NMTAP	4	96	3
NMTAP	4	144	5
NMTAP	4	192	4
NMTAP	4	240	3
NMHLD	4	288	3	48
NMHLD	4	288	4	48
NMTAP	5	0	5
NMTAP	5	24	4
NMTAP	5	72	2
NMTAP	5	96	3
NMTAP	5	144	3
NMTAP	5	144	4
NMSTR	5	192	4
NMSI_	5	192	4	96	48	2
NMSTR	5	192	5
NMSI_	5	192	5	96	48	7
NMTAP	5	240	3
NMTAP	5	240	6
NMHLD	6	0	0	48
NMHLD	6	0	1	48
NMHLD	6	96	6	48
NMHLD	6	96	7	48
NMTAP	6	192	0
NMTAP	6	192	1
NMTAP	6	240	2
NMTAP	6	264	3
NMTAP	6	312	5
NMTAP	6	336	4
NMHLD	7	0	4	48
NMHLD	7	0	6	48
NMHLD	7	96	1	48
NMHLD	7	96	3	48
NMTAP	7	192	4
NMTAP	7	192	5
NMTAP	7	240	6
NMTAP	7	264	7
NMTAP	7	312	1
NMTAP	7	336	0
NMHLD	8	0	2	48
NMHLD	8	0	3	48
NMHLD	8	96	4	48
NMHLD	8	96	5	48
NMTAP	8	192	1
NMTAP	8	192	4
NMTAP	8	240	2
NMTAP	8	264	3
NMTAP	8	312	5
NMTAP	8	336	4
NMHLD	9	0	3	48
NMHLD	9	0	5	48
NMHLD	9	96	2	48
NMHLD	9	96	4	48
NMSTR	9	192	3
NMSI_	9	192	3	96	48	5
NMTAP	9	192	4
NMTAP	9	240	2
NMTAP	9	288	1
NMTAP	9	336	2
NMHLD	10	0	3	48
NMHLD	10	0	6	48
NMHLD	10	96	1	48
NMHLD	10	96	4	48
NMTAP	10	192	3
NMTAP	10	192	6
NMTAP	10	240	5
NMTAP	10	264	4
NMTAP	10	312	2
NMTAP	10	336	3
BRHLD	11	0	1	48
NMHLD	11	0	3	48
NMHLD	11	96	4	48
NMHLD	11	96	6	48
NMTAP	11	192	3
NMTAP	11	192	7
NMTAP	11	240	6
NMTAP	11	264	4
NMTAP	11	312	1
NMTAP	11	336	3
BRHLD	12	0	2	48
NMHLD	12	0	4	48
NMHLD	12	96	3	48
NMHLD	12	96	5	48
NMTAP	12	192	2
NMTAP	12	192	4
NMTAP	12	240	1
NMTAP	12	264	0
NMTAP	12	312	6
NMTAP	12	336	7
NMTAP	13	0	6
BRTAP	13	0	7
NMTAP	13	48	5
BRSTR	13	96	3
BRSXR	13	96	3	96	120	4
NMSTR	13	96	4
NMSXL	13	96	4	96	120	3
NMTAP	13	144	2
BXTAP	13	192	3
EXTAP	13	192	4
NMTAP	14	0	5
NMTAP	14	48	5
NMSTR	14	96	4
NMSI_	14	96	4	96	48	2
NMTAP	14	96	6
NMTAP	14	144	5
NMSTR	14	192	4
NMSI_	14	192	4	96	48	7
NMTAP	14	192	6
EXTAP	14	288	1
NMTAP	14	336	2
EXSTR	15	0	3
NMSCL	15	0	3	96	48	1
EXTAP	15	48	3
NMTAP	15	96	7
NMHLD	15	144	6	48
NMTAP	15	192	0
NMTAP	15	216	0
NMHLD	15	264	1	72
NMTAP	15	264	5
NMTAP	15	336	3
NMTAP	16	0	2
NMTAP	16	0	4
NMTAP	16	48	3
NMTAP	16	96	2
NMTAP	16	96	7
NMTAP	16	144	1
NMTAP	16	168	0
NMTAP	16	192	1
NMTAP	16	216	0
NMTAP	16	264	2
NMTAP	16	264	7
NMTAP	16	312	6
NMTAP	16	336	6
NMTAP	17	0	3
NMTAP	17	0	5
NMTAP	17	48	2
NMTAP	17	72	2
NMTAP	17	120	0
NMTAP	17	144	0
NMTAP	17	192	6
NMTAP	17	192	7
NMTAP	17	240	0
NMTAP	17	240	5
NMHLD	17	288	1	96
NMTAP	17	288	4
NMTAP	18	0	2
NMTAP	18	48	2
NMTAP	18	96	1
NMSTR	18	96	3
NMSI_	18	96	3	96	48	5
NMTAP	18	144	2
NMTAP	18	192	1
NMSTR	18	192	3
NMSI_	18	192	3	96	48	0
NMTAP	18	288	6
NMTAP	18	336	5
BRTAP	19	0	1
BRTAP	19	0	4
BRTAP	19	48	1
BRTAP	19	48	4
BRTAP	19	96	2
BRTAP	19	96	3
BRTAP	19	144	3
BRTAP	19	144	4
NMTAP	19	192	5
NMTAP	19	216	4
NMTAP	19	264	3
NMHLD	19	264	6	72
NMSTR	20	0	6
NMSI_	20	0	6	96	48	3
NMTAP	20	48	6
NMTAP	20	96	2
NMTAP	20	144	2
NMTAP	20	192	1
NMTAP	20	216	3
NMTAP	20	264	0
NMTAP	20	264	7
NMTAP	20	312	5
NMTAP	20	336	4
NMHLD	21	0	3	48
NMHLD	21	0	6	48
NMTAP	21	72	3
NMTAP	21	72	6
NMTAP	21	120	2
NMSTR	21	144	3
NMSI_	21	144	3	96	48	7
EXTAP	21	240	0
EXTAP	21	288	0
NMSTR	22	0	1
NMSCR	22	0	1	96	96	6
NMSTR	22	96	6
NMSCL	22	96	6	96	96	1
NMTAP	22	192	1
NMTAP	22	288	6
NMTAP	23	0	5
NMTAP	23	48	5
NMTAP	23	96	4
NMTAP	23	96	6
NMTAP	23	144	3
NMTAP	23	144	5
NMTAP	23	192	2
NMTAP	23	192	4
NMTTP	23	240	1	B	0	M1
NMTTP	23	240	2	E	0	M1
NMTTP	23	288	1	B	0	M1
NMTTP	23	288	2	E	0	M1
NMSTR	24	0	6
NMSCL	24	0	6	96	96	1
NMSTR	24	96	1
NMSCR	24	96	1	96	96	6
NMTAP	24	192	6
NMTAP	24	288	1
NMTAP	25	0	2
NMTAP	25	48	2
NMTAP	25	96	3
NMTAP	25	96	4
NMTAP	25	144	4
NMTAP	25	144	5
NMTAP	25	192	4
NMTAP	25	192	5
NMTTP	25	240	3	B	0	M1
NMTTP	25	240	4	E	0	M1
NMTTP	25	240	6	B	0	M1
NMTTP	25	240	6	E	0	M1
NMTTP	25	288	3	B	0	M1
NMTTP	25	288	4	E	0	M1
NMTTP	25	288	6	B	0	M1
NMTTP	25	288	6	E	0	M1
NMSTR	26	0	1
NMSLR	26	0	1	96	96	6
NMSTR	26	96	6
NMSLL	26	96	6	96	96	1
NMTAP	26	192	1
NMTAP	26	288	6
NMTAP	27	0	2
NMTAP	27	0	6
NMTAP	27	48	5
NMTAP	27	96	3
NMTAP	27	96	4
NMTAP	27	144	2
NMTAP	27	192	1
NMTAP	27	192	4
NMTAP	27	240	2
NMSTR	27	288	3
NMSCR	27	288	3	96	96	6
NMTAP	27	288	7
NMSTR	28	0	6
NMSCR	28	0	6	96	96	1
NMTAP	28	96	1
NMTAP	28	192	4
NMTAP	28	288	3
NMTAP	28	336	3
NMTAP	29	0	2
NMTAP	29	0	4
NMTAP	29	48	2
NMTAP	29	48	4
NMTAP	29	96	1
NMTAP	29	120	3
NMTAP	29	168	2
NMTAP	29	168	4
NMTAP	29	216	5
NMTAP	29	240	3
NMSTR	29	288	1
BRSI_	29	288	1	96	48	5
NMSTR	29	288	7
NMSI_	29	288	7	96	48	5
BRSTR	30	0	1
BRSI_	30	0	1	96	48	3
BRSTR	30	0	7
NMSI_	30	0	7	96	48	3
NMTAP	30	96	1
NMTAP	30	96	7
NMTAP	30	192	2
NMTAP	30	192	4
NMTAP	30	240	1
NMTAP	30	264	0
NMTAP	30	312	6
NMTAP	30	336	7
NMTAP	31	0	3
NMTAP	31	0	5
NMTAP	31	48	1
NMTAP	31	96	2
NMSTR	31	96	4
NMSXL	31	96	4	96	96	4
BRSXR	31	96	4	96	96	4
NMTAP	31	144	6
EXTAP	31	336	3
EXTAP	31	336	5
EXTAP	32	0	3
EXTAP	32	0	5
NMTAP	32	48	1
NMTAP	32	72	0
NMTAP	32	120	2
NMTAP	32	120	7
NMTAP	32	168	4
NMTAP	32	168	6
NMTAP	32	216	3
NMTAP	32	216	4
NMTAP	32	264	2
NMSTR	32	288	3
NMSI_	32	288	3	96	48	7
NMTAP	32	336	2
NMTAP	32	336	4
NMSTR	33	0	5
NMSCR	33	0	5	96	48	0
NMTAP	33	48	6
NMSTR	33	96	2
NMSXL	33	96	2	96	96	3
NMSLL	33	96	2	96	96	3
NMTAP	33	144	3
NMSTR	34	0	1
NMSI_	34	0	1	96	48	4
NMSTR	34	48	5
NMSI_	34	48	5	96	48	0
NMTAP	34	96	1
NMTAP	34	144	5
NMTAP	34	192	3
NMHLD	34	216	3	48
NMTAP	34	264	7
NMTAP	34	312	4
NMTAP	34	312	5
NMTAP	34	336	4
NMTAP	34	336	5
NMSTR	35	0	6
NMSI_	35	0	6	96	48	4
NMSTR	35	48	2
NMSI_	35	48	2	96	48	0
NMSTR	35	96	6
BRSI_	35	96	6	96	48	2
NMTAP	35	144	2
BRTAP	35	192	6
CNSI_	35	240	2	0	48	7
NMTAP	35	336	0
NMTAP	36	0	1
NMTAP	36	0	7
NMTAP	36	48	5
NMTAP	36	72	4
NMTAP	36	120	6
NMTAP	36	120	7
NMTAP	36	168	0
NMTAP	36	168	1
NMTAP	36	216	2
NMTAP	36	216	3
NMHLD	36	264	1	312
NMTAP	36	264	4
NMTTP	36	336	1	B	0	M1
NMTTP	36	336	1	E	0	M1
NMTTP	37	0	5	E	0	M1
NMTTP	37	48	6	B	0	M1
NMTTP	37	48	7	E	0	M1
NMTTP	37	96	3	E	0	M1
NMTTP	37	144	0	C	0	M1
BRTAP	37	192	7
EXTAP	37	240	0
EXTAP	37	240	6
EXSTR	37	288	2
NMSCL	37	288	2	96	48	7
EXSTR	37	288	4
NMSCR	37	288	4	96	48	7
NMSTR	38	0	2
NMSV_	38	0	2	96	48	4
NMTAP	38	0	4
NMTAP	38	96	2
NMTAP	38	96	4
NMHLD	38	192	6	48
NMTAP	38	240	4
NMTAP	38	264	4
NMTAP	38	288	5
NMTAP	38	312	5
NMTAP	38	336	3
NMSTR	39	0	2
NMSI_	39	0	2	96	48	7
NMTAP	39	0	4
NMSTR	39	48	6
NMSI_	39	48	6	96	48	3
NMTAP	39	96	2
NMTAP	39	144	6
BRTAP	39	192	0
NMTAP	39	240	2
NMTAP	39	264	3
NMTAP	39	312	5
NMTAP	39	336	4
NMTAP	40	0	2
NMSTR	40	0	6
NMSCL	40	0	6	96	48	3
NMTAP	40	48	5
NMSTR	40	96	1
NMSI_	40	96	1	96	48	4
NMTAP	40	144	0
NMTAP	40	192	5
NMTAP	40	240	7
NMTAP	40	264	7
NMTAP	40	312	1
NMTAP	40	336	1
NMTAP	41	0	2
NMTAP	41	0	6
NMSTR	41	48	3
NMSCL	41	48	3	96	72	5
NMTAP	41	48	5
NMTAP	41	96	2
NMTAP	41	96	4
NMTAP	41	144	1
NMTAP	41	144	3
EXTAP	41	240	4
EXTAP	41	288	2
EXTAP	41	288	6
NMTAP	42	0	0
NMSTR	42	0	1
NMSCL	42	0	1	96	48	6
NMTAP	42	48	2
NMTAP	42	96	4
NMTAP	42	144	4
NMTAP	42	192	0
NMTAP	42	192	5
NMTAP	42	240	2
NMTAP	42	264	3
NMTAP	42	312	6
NMTAP	42	336	4
NMSTR	43	0	1
NMSCR	43	0	1	96	48	4
NMTAP	43	0	3
NMTAP	43	48	0
NMTAP	43	96	7
NMTAP	43	144	7
NMTAP	43	192	3
NMTAP	43	192	6
NMTAP	43	240	5
NMTAP	43	264	4
NMTAP	43	312	1
NMTAP	43	336	3
NMSTR	44	0	2
NMSI_	44	0	2	96	48	0
NMSTR	44	0	6
NMSI_	44	0	6	96	48	0
NMTAP	44	48	3
NMTAP	44	48	5
NMSTR	44	96	2
NMSI_	44	96	2	96	48	4
NMSTR	44	96	6
NMSI_	44	96	6	96	48	4
EXTAP	44	192	2
EXTAP	44	192	6
CNSI_	44	240	4	0	48	0
CNSI_	44	240	4	0	48	0
EXTAP	44	336	0
EXTAP	44	336	7
NMTAP	45	0	1
NMTAP	45	0	6
NMSTR	45	48	2
BRSXR	45	48	2	96	144	4
NMSTR	45	48	5
NMSXL	45	48	5	96	144	3
NMTAP	45	96	3
NMTAP	45	96	4
EXTAP	45	144	2
EXTAP	45	144	5
NMTAP	46	0	1
NMTAP	46	24	4
NMTAP	46	48	2
NMTAP	46	72	3
NMTAP	46	96	1
NMTAP	46	120	4
NMTAP	46	144	2
NMTAP	46	168	3
NMSTR	46	192	1
NMSI_	46	192	1	96	48	4
EXTAP	46	240	0
EXTAP	46	240	2
EXTAP	46	288	0
EXTAP	47	0	4
EXTAP	47	0	6
NMTAP	47	48	3
NMTAP	47	48	4
NMTAP	47	96	2
NMTAP	47	120	3
NMTAP	47	168	0
NMSTR	47	192	7
BRSI_	47	192	7	96	48	3
NMTAP	47	216	1
NMTAP	47	240	6
NMTAP	47	264	2
EXTAP	47	288	7

T_REC_TAP	302
T_REC_BRK	12
T_REC_XTP	26
T_REC_BXX	1
T_REC_HLD	38
T_REC_XHO	0
T_REC_BHO	2
T_REC_BXH	0
T_REC_STR	45
T_REC_BST	3
T_REC_XST	3
T_REC_XBS	0
T_REC_TTP	23
T_REC_THO	0
T_REC_SLD	46
T_REC_BSL	7
T_REC_ALL	508
T_NUM_TAP	399
T_NUM_BRK	25
T_NUM_HLD	38
T_NUM_SLD	46
T_NUM_ALL	508
T_JUDGE_TAP	415
T_JUDGE_HLD	50
T_JUDGE_SLD	53
T_JUDGE_ALL	518
TTM_EACHPAIRS	108
TTM_SCR_TAP	199500
TTM_SCR_BRK	65000
TTM_SCR_HLD	38000
TTM_SCR_SLD	69000
TTM_SCR_ALL	371500
TTM_SCR_S	357950
TTM_SCR_SS	369000
TTM_RAT_ACV	10067

