VERSION	0.00.00	1.04.00
FES_MODE	0
BPM_DEF	171.000	171.000	171.000	171.000
MET_DEF	4	4
RESOLUTION	384
CLK_DEF	384
COMPATIBLE_CODE	MA2

BPM	0	0	171.000
MET	0	0	4	4
MET	13	0	4	2
MET	13	192	4	4

NMTAP	1	0	3
NMTAP	1	48	3
NMTAP	1	96	2
NMTAP	1	96	4
NMTAP	1	144	2
NMTAP	1	144	4
NMTAP	1	192	3
NMTAP	1	288	2
NMTAP	1	288	4
NMTAP	2	0	3
NMTAP	2	96	2
NMTAP	2	96	4
NMTAP	2	192	3
NMTAP	2	240	3
NMSTR	2	288	2
NMSXR	2	288	2	96	192	0
NMSTR	2	288	4
NMSXL	2	288	4	96	192	6
NMTTP	3	0	2	A	0	M1
NMTTP	3	0	3	A	1	M1
NMTTP	3	0	3	D	0	M1
NMTTP	3	0	4	A	0	M1
NMTTP	3	0	4	D	0	M1
NMSTR	3	288	7
NMSI_	3	288	7	96	48	4
BXSTR	4	0	0
NMSI_	4	0	0	96	48	5
BXSTR	4	96	7
NMSI_	4	96	7	96	48	2
BXSTR	4	192	3
NMSCL	4	192	3	96	48	0
BXTAP	4	288	5
NMTAP	5	0	7
NMTAP	5	48	7
NMTAP	5	96	0
NMTAP	5	144	5
NMTAP	5	192	1
NMTAP	5	192	4
NMTAP	5	240	2
NMTAP	5	264	3
NMTAP	5	288	2
NMTAP	5	336	3
NMTAP	5	336	4
NMTAP	6	0	5
NMTAP	6	48	5
NMTAP	6	72	4
NMTAP	6	96	6
NMTAP	6	144	3
NMTAP	6	144	7
NMTAP	6	192	1
NMTAP	6	216	0
NMTAP	6	240	1
NMTAP	6	264	0
NMTAP	6	288	1
NMTAP	6	336	2
NMTAP	6	336	3
NMTAP	7	0	5
NMTAP	7	24	4
NMTAP	7	48	6
NMTAP	7	96	3
NMTAP	7	96	7
NMTAP	7	144	2
NMTAP	7	192	1
NMTAP	7	192	3
NMTAP	7	240	4
NMTAP	7	288	3
NMTAP	7	288	5
NMTAP	7	336	6
NMTAP	8	0	2
NMTAP	8	0	7
NMTAP	8	48	1
NMTAP	8	72	0
NMTAP	8	96	1
NMTAP	8	120	0
NMTAP	8	144	1
NMTAP	8	168	0
NMTAP	8	192	1
NMTAP	8	216	2
NMTAP	8	240	3
NMTAP	8	264	4
NMTAP	8	288	7
NMTAP	8	312	6
NMTAP	8	336	5
NMTAP	8	360	4
BRTAP	9	0	0
NMTAP	9	96	7
NMTAP	9	144	7
NMTAP	9	192	3
NMTAP	9	192	6
NMTAP	9	240	5
NMTAP	9	264	4
NMTAP	9	288	5
NMTAP	9	336	3
NMTAP	9	336	4
NMTAP	10	0	2
NMTAP	10	48	2
NMTAP	10	72	3
NMTAP	10	96	1
NMTAP	10	144	0
NMTAP	10	144	4
NMTAP	10	192	6
NMTAP	10	216	7
NMTAP	10	240	6
NMTAP	10	264	7
NMTAP	10	288	6
NMTAP	10	336	4
NMTAP	10	336	5
NMTAP	11	0	2
NMTAP	11	24	3
NMTAP	11	48	2
NMTAP	11	96	1
NMTAP	11	96	4
NMTAP	11	144	2
NMTAP	11	192	3
NMTAP	11	192	6
NMTAP	11	240	5
NMTAP	11	288	2
NMTAP	11	288	4
NMTAP	11	336	1
NMTAP	12	0	0
NMTAP	12	0	5
NMTAP	12	48	6
NMTAP	12	72	7
NMSTR	12	96	6
NMSCR	12	96	6	96	144	4
NMTAP	12	120	7
NMTAP	12	144	6
NMTAP	12	168	7
NMTAP	12	192	6
NMTTP	13	0	0	C	0	M1
NMTTP	13	0	4	B	0	M1
NMTTP	13	0	5	B	0	M1
NMTTP	13	0	5	E	1	M1
NMSTR	13	192	6
NMSSR	13	192	6	96	120	2
NMTAP	13	240	6
NMTAP	13	288	0
NMTAP	13	336	0
NMHLD	14	0	1	96
NMTAP	14	96	3
NMHLD	14	144	4	96
NMTAP	14	240	3
NMSTR	14	288	2
NMSV_	14	288	2	96	48	4
NMTAP	14	336	6
EXTAP	15	0	7
CNSCL	15	48	4	0	48	3
CNSV_	15	96	3	0	48	5
EXTAP	15	96	7
NMSTR	15	192	6
NMSSR	15	192	6	96	120	2
NMTAP	15	240	6
NMTAP	15	288	2
NMTAP	15	336	1
NMHLD	16	0	0	96
NMTAP	16	96	3
NMHLD	16	144	3	96
NMTAP	16	240	2
NMTAP	16	288	3
NMTAP	16	336	4
NMTTP	17	0	2	A	0	M1
NMTTP	17	0	3	E	0	M1
NMTTP	17	0	3	A	0	M1
NMTTP	17	0	6	A	0	M1
NMTTP	17	0	7	E	0	M1
NMTTP	17	0	7	A	0	M1
NMTTP	17	96	0	A	0	M1
NMTTP	17	96	1	E	0	M1
NMTTP	17	96	1	A	0	M1
NMTTP	17	96	4	A	0	M1
NMTTP	17	96	5	E	0	M1
NMTTP	17	96	5	A	0	M1
NMSTR	17	192	6
NMSI_	17	192	6	96	48	3
NMTAP	17	288	0
NMTAP	17	336	1
NMSTR	18	0	2
NMSCR	18	0	2	96	48	5
NMTAP	18	96	0
NMTAP	18	144	7
NMSTR	18	192	6
NMSSR	18	192	6	96	96	2
NMTAP	18	288	1
EXTAP	18	336	1
NMSTR	19	96	2
NMSV_	19	96	2	96	96	3
NMSTR	19	96	6
NMSLR	19	96	6	96	96	4
NMSTR	20	0	1
NMSI_	20	0	1	96	48	7
NMSLR	20	0	1	96	48	5
EXTAP	20	192	6
EXSTR	20	240	6
NMSUL	20	240	6	96	48	1
BXTAP	20	336	7
NMTAP	21	96	0
NMTAP	21	96	6
NMSTR	21	192	2
NMSCR	21	192	2	96	96	6
NMTAP	21	192	7
NMSTR	21	288	6
NMSCR	21	288	6	96	96	2
NMSTR	22	0	2
NMSLL	22	0	2	96	96	6
NMSTR	22	96	6
NMSLL	22	96	6	96	96	2
NMSTR	22	192	2
NMSUR	22	192	2	96	96	0
NMSTR	22	288	0
NMSUL	22	288	0	96	96	2
NMSTR	23	0	2
NMSCR	23	0	2	96	96	5
NMTAP	23	96	0
NMTAP	23	192	7
NMTAP	23	288	4
NMTAP	23	288	6
NMTAP	23	336	5
NMTAP	24	0	1
NMTAP	24	0	3
NMTAP	24	48	2
NMTAP	24	96	3
NMTAP	24	96	4
NMTAP	24	144	5
NMTAP	24	192	4
NMTAP	24	192	6
NMSTR	24	240	7
NMSI_	24	240	7	96	48	3
NMTAP	24	288	0
NMHLD	24	336	1	96
NMTAP	25	48	2
NMTAP	25	96	3
NMTAP	25	144	2
NMTAP	25	144	4
NMSTR	25	192	1
NMSI_	25	192	1	96	48	4
NMTAP	25	192	5
NMTAP	25	288	7
NMTAP	25	336	7
NMTAP	26	0	3
NMSTR	26	0	6
NMSI_	26	0	6	96	48	3
NMTAP	26	96	1
NMTAP	26	144	1
NMSTR	26	192	0
NMSV_	26	192	0	96	48	3
NMSV_	26	192	0	96	48	5
NMTAP	26	288	0
NMSTR	27	0	1
NMSCR	27	0	1	96	48	4
NMTAP	27	0	7
NMTAP	27	96	1
NMTAP	27	96	7
EXHLD	27	192	5	96
BXHLD	27	192	6	96
NMTAP	27	336	1
NMTAP	27	336	2
BRHLD	28	0	1	96
NMHLD	28	0	2	96
NMTAP	28	144	5
NMTAP	28	144	7
NMTAP	28	192	5
BRTAP	28	192	7
BRSTR	28	288	0
NMSI_	28	288	0	96	48	4
NMTAP	28	288	2
BXHLD	29	0	0	480
NMSTR	30	96	5
NMSI_	30	96	5	96	48	0
BRSTR	30	192	2
NMSI_	30	192	2	96	48	7
BRSTR	30	288	4
NMSI_	30	288	4	96	48	0
BRTAP	31	0	3
NMSTR	31	96	1
BRSCR	31	96	1	96	48	4
NMTAP	31	144	0
BRTAP	31	192	1
NMSTR	31	192	7
BRSI_	31	192	7	96	48	3
NMSTR	31	288	0
BRSI_	31	288	0	96	48	4
BRTAP	31	288	7
NMSTR	32	0	0
BRSCL	32	0	0	96	48	5
BRSTR	32	0	7
BRSCR	32	0	7	96	48	2
BRTAP	32	96	0
NMTAP	32	96	7
NMSTR	32	192	3
NMSI_	32	192	3	96	48	7
NMSTR	32	240	2
NMSI_	32	240	2	96	48	6
NMTAP	32	288	3
NMTAP	32	336	2
NMTAP	33	0	0
NMSTR	33	96	4
NMSI_	33	96	4	96	48	0
NMSTR	33	96	6
NMSI_	33	96	6	96	48	3
NMTAP	33	192	4
NMTAP	33	192	6
NMTAP	33	288	1
NMTAP	33	288	2
NMTAP	33	336	3
NMTAP	34	0	4
NMSTR	34	0	5
NMSI_	34	0	5	96	48	0
NMTAP	34	48	6
NMTAP	34	96	3
NMTAP	34	96	5
NMSTR	34	192	1
BRSI_	34	192	1	96	48	5
NMSTR	34	240	0
BRSI_	34	240	0	96	48	4
NMSTR	34	288	1
BRSCL	34	288	1	96	48	6
NMTAP	34	336	0
BRTAP	35	0	1
NMSTR	35	96	5
NMSI_	35	96	5	96	48	1
NMTAP	35	144	4
NMSTR	35	192	3
NMSI_	35	192	3	96	48	0
NMTAP	35	192	5
NMTAP	35	288	3
NMSTR	35	288	7
NMSV_	35	288	7	96	48	2
NMTAP	35	336	6
NMTAP	36	0	5
NMSTR	36	0	7
NMSV_	36	0	7	96	48	4
EXTAP	36	96	0
NMTAP	36	96	7
NMSTR	36	192	1
NMSI_	36	192	1	96	48	5
NMSTR	36	240	5
NMSI_	36	240	5	96	48	1
NMSTR	36	288	1
NMSI_	36	288	1	96	48	4
NMTAP	36	336	7
NMSTR	37	0	6
NMSI_	37	0	6	96	48	2
CNSI_	37	48	4	0	48	0
EXTAP	37	96	6
NMSTR	37	192	1
NMSCL	37	192	1	96	48	6
NMTAP	37	240	2
NMTAP	37	288	3
NMTAP	37	336	4
NMSTR	38	0	5
NMSI_	38	0	5	96	48	3
NMTAP	38	96	3
NMSTR	38	96	5
NMSI_	38	96	5	96	48	1
NMTAP	38	144	1
NMSTR	38	192	0
NMSI_	38	192	0	96	48	4
NMTAP	38	192	5
BRSTR	38	288	0
NMSXL	38	288	0	96	48	2
NMSXR	38	288	0	96	48	6
BRTAP	39	0	0
NMTTP	39	0	0	C	1	M1
NMSTR	41	96	2
NMSXR	41	96	2	96	192	0
NMSTR	41	96	4
NMSXL	41	96	4	96	192	6
NMTTP	41	192	2	A	0	M1
NMTTP	41	192	3	A	1	M1
NMTTP	41	192	3	D	0	M1
NMTTP	41	192	4	A	0	M1
NMTTP	41	192	4	D	0	M1
NMSTR	42	96	7
NMSI_	42	96	7	96	48	4
BRSTR	42	192	0
NMSI_	42	192	0	96	48	5
BRSTR	42	288	7
NMSI_	42	288	7	96	48	2
BRSTR	43	0	3
NMSCL	43	0	3	96	48	0
BRTAP	43	96	5
NMTAP	43	192	7
NMTAP	43	240	7
NMTAP	43	288	0
NMTAP	43	288	6
NMTAP	43	336	5
NMTAP	44	0	1
NMTAP	44	0	4
NMTAP	44	48	2
NMTAP	44	72	3
NMTAP	44	96	2
NMTAP	44	144	3
NMTAP	44	144	4
NMTAP	44	192	4
NMTAP	44	192	5
NMTAP	44	240	6
NMTAP	44	264	7
NMTAP	44	288	6
NMTAP	44	336	0
NMTAP	44	336	5
NMTAP	45	0	1
NMTAP	45	24	4
NMTAP	45	48	2
NMTAP	45	72	3
NMHLD	45	96	2	48
NMTAP	45	144	4
NMTAP	45	168	3
NMTAP	45	192	5
NMTAP	45	216	4
NMTAP	45	240	5
NMTAP	45	288	3
NMTAP	45	288	6
NMTAP	45	336	2
NMTAP	46	0	1
NMTAP	46	0	4
NMTAP	46	48	5
NMTAP	46	96	2
NMTAP	46	96	6
NMTAP	46	144	1
NMTAP	46	192	0
NMTAP	46	192	7
NMTAP	46	240	1
NMTAP	46	264	0
NMTAP	46	288	1
NMTAP	46	312	0
NMTAP	46	336	1
NMTAP	46	360	0
NMTAP	47	0	1
NMTAP	47	24	7
NMTAP	47	48	1
NMTAP	47	72	7
NMTAP	47	96	2
NMTAP	47	120	6
NMTAP	47	144	3
NMTAP	47	168	5
BRTAP	47	192	2
NMTAP	47	216	4
NMTAP	47	240	3
NMTAP	47	264	4
NMSTR	47	288	2
BRSI_	47	288	2	96	48	7
BRSTR	48	0	2
BRSI_	48	0	2	96	48	4
NMTAP	48	96	2
NMSTR	48	96	6
BRSI_	48	96	6	96	48	2
NMSTR	48	192	6
BRSCL	48	192	6	96	48	3
NMSTR	48	192	7
BRSI_	48	192	7	96	48	3
NMTAP	48	288	6
NMTAP	48	288	7
BRTAP	49	0	2
BRSTR	49	48	0
BRSI_	49	48	0	96	48	3
BRSTR	49	96	6
BRSI_	49	96	6	96	48	2
BRTAP	49	144	0
BRSTR	49	192	6
BRSV_	49	192	6	96	48	0
BRSV_	49	192	6	96	48	4
NMTAP	50	0	1
NMTAP	50	48	2
NMTAP	50	72	3
NMTAP	50	96	2
NMTAP	50	144	7
NMTAP	50	192	4
NMTAP	50	192	5
NMTAP	50	240	6
NMTAP	50	264	7
NMSTR	50	288	6
BRSI_	50	288	6	96	48	4
NMSTR	50	336	0
BRSI_	50	336	0	96	48	2
BRSTR	51	0	6
BRSI_	51	0	6	96	48	2
BRSTR	51	48	0
BRSI_	51	48	0	96	48	4
BRSTR	51	96	6
BRSCR	51	96	6	96	48	1
BRTAP	51	144	0
BRTAP	51	192	6
EXTAP	51	288	2
NMSTR	51	288	3
NMSI_	51	288	3	96	48	7
NMTAP	51	336	1
NMSTR	52	0	0
NMSI_	52	0	0	96	48	3
NMTAP	52	0	3
NMTAP	52	96	0
NMSTR	52	96	4
NMSV_	52	96	4	96	48	1
NMTAP	52	144	5
NMSTR	52	192	4
NMSV_	52	192	4	96	48	7
NMTAP	52	192	6
EXTAP	52	288	3
NMTAP	52	288	4
NMSTR	53	0	1
NMSI_	53	0	1	96	48	5
NMSTR	53	48	5
NMSI_	53	48	5	96	48	1
NMSTR	53	96	1
NMSCR	53	96	1	96	48	4
NMTAP	53	144	7
NMSTR	53	192	6
NMSI_	53	192	6	96	48	2
CNSI_	53	240	4	0	48	0
EXTAP	53	288	6
NMTAP	54	0	0
NMTAP	54	0	6
NMTAP	54	48	5
NMTAP	54	72	4
NMTAP	54	96	6
NMTAP	54	144	0
NMSTR	54	192	1
NMSI_	54	192	1	96	48	4
NMTAP	54	192	7
NMTAP	54	240	2
NMTAP	54	264	3
NMTAP	54	288	1
NMTAP	54	336	7
NMSTR	55	0	0
NMSCR	55	0	0	96	48	2
NMSTR	55	0	6
NMSI_	55	0	6	96	48	2
BRSTR	55	96	0
NMSI_	55	96	0	96	48	4
BRSTR	55	96	6
NMSCL	55	96	6	96	48	4
BRTAP	55	192	0
BRTAP	55	192	6
NMTAP	55	288	2
NMTAP	55	288	3
NMTAP	55	336	1
NMTAP	55	336	4
NMSTR	56	0	0
NMSCR	56	0	0	96	48	3
NMTAP	56	0	5
NMSTR	56	96	0
NMSCL	56	96	0	96	48	5
NMTTP	56	96	5	B	0	M1
NMTTP	56	96	6	B	0	M1
NMTTP	56	96	6	E	0	M1
NMSTR	56	192	0
NMSI_	56	192	0	96	48	4
NMTTP	56	192	1	B	0	M1
NMTTP	56	192	2	B	0	M1
NMTTP	56	192	2	E	0	M1
NMTAP	56	288	0
NMTAP	56	288	7
NMTAP	57	0	7
NMTAP	57	48	7
NMSTR	57	96	0
NMSUL	57	96	0	96	48	4
NMSTR	57	96	6
NMSUR	57	96	6	96	48	2
NMTAP	57	144	1
NMTAP	57	144	5
BRTAP	57	192	0
BRTAP	57	192	6
EXSTR	57	288	1
NMSCL	57	288	1	96	48	7
NMTAP	58	0	1
NMSTR	58	0	4
NMSXR	58	0	4	96	96	4
EXTAP	58	96	0
NMSTR	58	96	4
BRSXL	58	96	4	96	96	4
NMTAP	58	192	0
NMTAP	58	288	2
NMSTR	59	0	3
NMSI_	59	0	3	96	48	7
NMTAP	59	0	5
NMTAP	59	48	6
NMSTR	59	96	7
NMSF_	59	96	7	96	48	3
NMTTP	59	192	0	C	0	M1
NMTTP	59	192	2	B	0	M1
NMTTP	59	192	3	B	0	M1
NMTTP	59	192	4	B	0	M1
EXTAP	59	192	7
NMTAP	59	288	0
NMTAP	59	336	0
NMTAP	60	0	1
NMSTR	60	0	7
NMSCR	60	0	7	96	48	2
NMSTR	60	96	3
NMSI_	60	96	3	96	48	7
NMTAP	60	96	7
NMTAP	60	192	3
NMSTR	60	192	5
NMSCL	60	192	5	96	48	2
NMTAP	60	288	0
NMTAP	60	288	5
NMSTR	61	0	1
NMSI_	61	0	1	96	48	5
NMSTR	61	0	5
NMSI_	61	0	5	96	48	1
NMTAP	61	48	2
NMTAP	61	48	6
NMSTR	61	96	1
NMSV_	61	96	1	96	48	3
NMSTR	61	96	5
NMSV_	61	96	5	96	48	7
BRTAP	61	288	1
BRTAP	61	288	5
NMSTR	62	0	2
NMSI_	62	0	2	96	48	5
NMTAP	62	0	6
NMTAP	62	48	0
NMTAP	62	48	4
NMTAP	62	96	2
NMTAP	62	96	6
NMTAP	62	144	0
NMTAP	62	192	2
NMSTR	62	192	6
NMSI_	62	192	6	96	48	1
NMTAP	62	240	0
NMTAP	62	240	4
NMTAP	62	288	2
NMTAP	62	288	6
NMTAP	62	336	4
NMSTR	63	0	2
BRSCL	63	0	2	96	48	0
NMSTR	63	0	6
BRSCL	63	0	6	96	48	4
BXSTR	63	96	2
BRSF_	63	96	2	96	48	6
BXTAP	63	96	6
NMTTP	63	192	0	C	1	M1
BXTAP	63	192	2
NMTTP	63	192	5	B	0	M1
NMTTP	63	192	6	B	0	M1
NMTTP	63	192	7	B	0	M1

T_REC_TAP	314
T_REC_BRK	20
T_REC_XTP	11
T_REC_BXX	4
T_REC_HLD	7
T_REC_XHO	1
T_REC_BHO	1
T_REC_BXH	2
T_REC_STR	90
T_REC_BST	17
T_REC_XST	2
T_REC_XBS	4
T_REC_TTP	41
T_REC_THO	0
T_REC_SLD	91
T_REC_BSL	26
T_REC_ALL	631
T_NUM_TAP	458
T_NUM_BRK	74
T_NUM_HLD	8
T_NUM_SLD	91
T_NUM_ALL	631
T_JUDGE_TAP	503
T_JUDGE_HLD	29
T_JUDGE_SLD	117
T_JUDGE_ALL	649
TTM_EACHPAIRS	104
TTM_SCR_TAP	229000
TTM_SCR_BRK	192400
TTM_SCR_HLD	8000
TTM_SCR_SLD	136500
TTM_SCR_ALL	565900
TTM_SCR_S	541750
TTM_SCR_SS	558500
TTM_RAT_ACV	10132

