VERSION	0.00.00	1.04.00
FES_MODE	0
BPM_DEF	171.000	171.000	171.000	171.000
MET_DEF	4	4
RESOLUTION	384
CLK_DEF	384
COMPATIBLE_CODE	MA2

BPM	0	0	171.000
MET	0	0	4	4
MET	13	0	4	2
MET	13	192	4	4
MET	47	192	4	2
MET	48	0	4	4

EXSTR	2	288	2
NMSCL	2	288	2	96	96	0
EXSTR	2	288	4
NMSCR	2	288	4	96	96	6
CNSV_	3	96	0	0	192	3
CNSV_	3	96	6	0	192	3
NMTAP	4	0	2
NMTAP	4	0	4
NMTAP	4	96	2
NMTAP	4	96	4
BRTAP	4	192	0
BRTAP	4	192	6
NMTAP	5	0	2
NMTAP	5	96	2
NMTAP	5	96	3
NMTAP	5	192	1
NMTAP	5	240	1
NMTAP	5	288	0
NMTAP	6	0	6
NMTAP	6	96	6
NMTAP	6	96	7
NMTAP	6	192	5
NMTAP	6	240	5
NMTAP	6	288	4
NMHLD	7	0	6	96
NMHLD	7	96	4	96
NMHLD	7	192	3	96
NMSTR	7	288	1
NMSUL	7	288	1	96	192	3
NMTAP	8	288	3
NMTAP	8	288	4
NMTAP	9	0	5
NMTAP	9	96	4
NMTAP	9	96	5
NMTAP	9	192	6
NMTAP	9	240	6
NMTAP	9	288	7
NMTAP	10	0	1
NMTAP	10	96	0
NMTAP	10	96	1
NMTAP	10	192	2
NMTAP	10	240	2
NMTAP	10	288	3
NMHLD	11	0	1	96
NMHLD	11	96	3	96
NMHLD	11	192	4	96
NMSTR	11	288	6
NMSUR	11	288	6	96	192	4
NMTAP	12	288	3
NMTAP	12	288	4
BRTAP	13	0	2
BRTAP	13	0	5
NMTAP	13	192	4
NMTAP	13	192	5
NMTAP	13	288	5
NMTAP	13	336	5
NMTAP	14	0	4
NMTAP	14	96	3
NMSTR	14	96	5
NMSXR	14	96	5	96	288	2
NMTAP	15	192	1
NMTAP	15	192	3
NMTAP	15	288	2
NMTAP	15	336	2
NMTAP	16	0	3
NMTAP	16	96	2
NMTAP	16	96	3
NMTAP	16	192	1
NMTAP	16	288	0
BRTAP	17	0	1
BRTAP	17	0	7
BRTAP	17	96	1
BRTAP	17	96	7
NMHLD	17	192	2	96
NMTAP	17	288	3
NMHLD	18	0	5	96
NMTAP	18	96	4
NMSTR	18	192	3
NMSXR	18	192	3	96	192	2
NMSTR	18	192	4
NMSXL	18	192	4	96	192	5
NMTAP	19	192	1
NMTAP	19	240	1
NMTAP	19	288	3
NMTAP	20	0	6
NMTAP	20	48	6
NMTAP	20	96	4
NMTAP	20	192	0
NMTAP	20	192	7
NMTAP	20	240	0
NMTAP	20	240	7
BRTAP	20	336	1
BRTAP	20	336	6
NMSTR	21	192	2
BRSCL	21	192	2	96	192	5
NMHLD	22	192	6	288
NMTAP	22	288	4
NMTAP	23	0	4
NMTAP	23	96	4
NMSTR	23	192	3
NMSCL	23	192	3	96	96	0
NMSTR	24	0	7
NMSCL	24	0	7	96	96	4
NMSTR	24	192	2
NMSXL	24	192	2	96	192	0
NMHLD	25	192	7	96
NMHLD	25	288	6	96
NMHLD	26	0	5	96
NMHLD	26	96	4	96
NMHLD	26	192	3	96
NMHLD	26	288	2	96
NMHLD	27	0	1	96
NMTAP	27	96	0
EXHLD	27	192	6	96
EXHLD	27	192	7	96
EXHLD	28	0	0	96
EXHLD	28	0	1	96
NMTAP	28	192	0
NMTAP	28	192	6
NMTAP	28	288	1
NMTAP	28	288	7
NMTAP	29	0	0
NMTAP	29	0	6
NMTAP	29	192	2
NMTAP	29	240	2
NMTAP	29	288	4
NMTAP	29	336	4
NMTAP	30	0	3
NMTAP	30	96	4
NMTAP	30	96	5
NMTAP	30	192	6
NMTAP	30	192	7
NMTAP	30	288	6
NMTAP	30	288	7
NMTAP	31	0	0
NMTAP	31	0	1
NMTAP	31	96	0
NMTAP	31	96	1
NMTAP	31	192	0
NMHLD	31	192	1	96
NMTAP	31	288	3
NMHLD	32	0	6	96
NMTAP	32	0	7
NMTAP	32	96	4
NMSTR	32	192	6
BRSI_	32	192	6	96	96	2
NMSTR	32	192	7
BRSI_	32	192	7	96	96	3
NMTAP	33	192	0
NMTAP	33	192	1
NMTAP	33	288	6
NMTAP	33	288	7
NMTAP	34	0	4
NMTAP	34	0	5
NMTAP	34	96	2
NMTAP	34	96	3
NMSTR	34	192	2
BRSCL	34	192	2	96	96	7
NMSTR	34	192	3
BRSCR	34	192	3	96	96	6
NMHLD	35	192	6	96
NMTAP	35	192	7
NMTAP	35	288	4
NMTAP	36	0	0
NMHLD	36	0	1	96
NMTAP	36	96	3
NMHLD	36	192	6	192
NMSTR	36	192	7
NMSUR	36	192	7	96	96	3
NMTAP	37	192	4
NMTAP	37	192	5
NMTAP	37	288	6
NMTAP	37	288	7
NMTAP	38	0	0
NMTAP	38	0	1
NMTAP	38	96	2
NMTAP	38	96	3
NMTAP	38	192	4
NMTAP	38	192	5
NMTAP	38	288	4
NMTAP	38	288	5
NMTTP	39	0	2	B	0	M1
NMTTP	39	0	2	E	0	M1
NMTTP	39	0	2	A	0	M1
NMTTP	39	0	2	D	0	M1
NMTTP	39	0	6	B	0	M1
NMTTP	39	0	6	A	1	M1
NMTTP	39	0	7	E	0	M1
NMTTP	39	0	7	D	0	M1
NMHLD	39	192	1	96
NMTAP	39	288	0
NMTAP	39	336	0
NMTAP	40	96	0
NMTAP	40	96	7
NMTAP	40	192	6
NMTAP	40	288	5
NMTAP	40	288	7
NMTAP	41	0	4
NMSTR	41	96	3
BRSCL	41	96	3	96	96	1
NMSTR	41	96	5
BRSCR	41	96	5	96	96	7
CNSV_	41	288	1	0	192	4
CNSV_	41	288	7	0	192	4
NMTAP	42	192	3
NMTAP	42	192	5
NMTAP	42	288	3
NMTAP	42	288	5
BRTAP	43	0	1
BRTAP	43	0	7
NMTAP	43	192	5
NMTAP	43	288	4
NMTAP	43	288	5
NMTAP	44	0	2
NMTAP	44	48	2
NMTAP	44	96	3
NMTAP	44	192	6
NMTAP	44	288	4
NMTAP	44	288	6
NMTAP	45	0	1
NMTAP	45	48	1
NMTAP	45	96	3
NMHLD	45	192	2	96
NMHLD	45	288	0	96
NMHLD	46	0	7	96
NMSTR	46	96	6
NMSUL	46	96	6	96	240	3
BXTAP	47	192	2
BXTAP	47	192	5
NMHLD	48	0	2	96
NMTAP	48	0	3
NMTAP	48	96	0
NMTAP	48	192	4
NMHLD	48	192	5	96
NMTAP	48	288	7
NMSTR	49	0	0
BRSI_	49	0	0	96	96	4
NMSTR	49	0	6
BRSI_	49	0	6	96	96	2
NMTAP	50	0	2
NMTAP	50	0	3
NMTAP	50	96	4
NMTAP	50	96	5
NMTAP	50	192	6
NMTAP	50	192	7
NMTAP	50	288	0
NMTAP	50	288	1
NMSTR	51	0	0
BRSCL	51	0	0	96	96	5
NMSTR	51	0	1
BRSCR	51	0	1	96	96	4
NMTAP	52	0	4
NMHLD	52	0	5	96
NMTAP	52	96	7
NMHLD	52	192	2	96
NMTAP	52	192	3
NMTAP	52	288	0
NMSTR	53	0	4
BRSUL	53	0	4	96	96	7
NMHLD	53	0	5	192
NMTAP	54	0	4
NMTAP	54	0	5
NMTAP	54	96	6
NMTAP	54	96	7
NMTAP	54	192	0
NMTAP	54	192	1
NMTAP	54	288	2
NMTAP	54	288	3
NMTAP	55	0	4
NMTAP	55	0	5
NMTAP	55	96	4
NMTAP	55	96	5
BXTAP	55	192	1
BXTAP	55	192	7
NMTAP	56	0	0
NMHLD	56	0	1	96
NMTAP	56	96	4
NMHLD	56	192	6	96
NMTAP	56	192	7
NMSTR	56	288	3
NMSXL	56	288	3	96	288	3
NMSXR	56	288	3	96	288	3
EXTAP	58	0	1
EXTAP	58	0	3
NMTAP	58	96	2
NMTAP	58	192	4
NMTAP	58	192	6
NMTAP	58	288	5
NMTTP	59	0	2	B	0	M1
NMTTP	59	0	2	E	0	M1
NMTTP	59	0	2	A	1	M1
NMTTP	59	96	3	B	0	M1
NMTTP	59	96	4	B	0	M1
NMTTP	59	96	4	E	1	M1
NMTTP	59	192	5	B	0	M1
NMTTP	59	192	5	A	1	M1
NMTTP	59	192	6	E	0	M1
NMTAP	60	0	0
NMHLD	60	0	1	96
NMTAP	60	96	4
NMHLD	60	192	6	96
NMTAP	60	192	7
NMTAP	60	288	3
NMTAP	61	0	2
NMTAP	61	0	4
NMTAP	61	96	3
NMTAP	61	96	5
NMTTP	61	192	4	B	0	M1
NMTTP	61	192	4	A	0	M1
NMTTP	61	192	6	B	0	M1
NMTTP	61	192	6	A	0	M1
NMTAP	62	0	1
NMTAP	62	48	1
NMTAP	62	96	0
NMTAP	62	192	6
NMTAP	62	240	6
NMTAP	62	288	7
NMTAP	63	0	4
NMTAP	63	0	5
NMTAP	63	96	2
NMTAP	63	96	3
BRTAP	63	192	0
BRTAP	63	192	6

T_REC_TAP	189
T_REC_BRK	14
T_REC_XTP	2
T_REC_BXX	4
T_REC_HLD	34
T_REC_XHO	4
T_REC_BHO	0
T_REC_BXH	0
T_REC_STR	23
T_REC_BST	0
T_REC_XST	2
T_REC_XBS	0
T_REC_TTP	21
T_REC_THO	0
T_REC_SLD	14
T_REC_BSL	12
T_REC_ALL	319
T_NUM_TAP	237
T_NUM_BRK	30
T_NUM_HLD	38
T_NUM_SLD	14
T_NUM_ALL	319
T_JUDGE_TAP	255
T_JUDGE_HLD	84
T_JUDGE_SLD	26
T_JUDGE_ALL	365
TTM_EACHPAIRS	86
TTM_SCR_TAP	118500
TTM_SCR_BRK	78000
TTM_SCR_HLD	38000
TTM_SCR_SLD	21000
TTM_SCR_ALL	255500
TTM_SCR_S	244950
TTM_SCR_SS	252500
TTM_RAT_ACV	10118

