VERSION	0.00.00	1.04.00
FES_MODE	0
BPM_DEF	 85.000	 56.666	 85.000	 56.666
MET_DEF	4	4
RESOLUTION	384
CLK_DEF	384
COMPATIBLE_CODE	MA2

BPM	0	0	 85.000
BPM	5	0	 56.666
MET	0	0	4	4
MET	22	0	4	2
MET	22	192	4	4

NMSTR	1	0	4
NMSCR	1	0	4	96	1248	3
NMHLD	1	192	3	96
NMHLD	2	0	3	96
NMHLD	2	192	4	96
NMHLD	3	0	4	96
NMHLD	3	192	5	96
NMHLD	4	0	5	96
NMTAP	4	192	4
NMTAP	4	288	4
NMTAP	4	336	2
NMSTR	5	0	1
NMSCR	5	0	1	96	48	5
NMTAP	5	32	1
NMTAP	5	64	4
NMTAP	5	96	6
NMTAP	5	128	7
NMTAP	5	160	7
NMSTR	5	192	1
NMSCR	5	192	1	96	48	5
NMTAP	5	224	1
NMTAP	5	256	4
NMSTR	5	288	6
NMSI_	5	288	6	96	32	2
NMTAP	5	320	7
NMTAP	5	352	7
NMSTR	6	0	6
NMSCR	6	0	6	96	32	1
NMTAP	6	32	4
NMTAP	6	64	4
NMSTR	6	96	6
NMSCL	6	96	6	96	32	3
NMTAP	6	128	3
NMTAP	6	160	3
NMSTR	6	192	2
NMSI_	6	192	2	96	32	5
NMSTR	6	192	6
NMSI_	6	192	6	96	32	1
NMTAP	6	224	1
NMTAP	6	256	1
NMTAP	6	288	2
NMTAP	6	288	6
NMTAP	6	352	4
NMSTR	7	0	6
NMSCL	7	0	6	96	48	2
NMTAP	7	32	6
NMTAP	7	64	3
NMTAP	7	96	1
NMTAP	7	128	0
NMTAP	7	160	0
NMSTR	7	192	6
NMSCL	7	192	6	96	48	2
NMTAP	7	224	6
NMTAP	7	256	3
NMSTR	7	288	1
NMSCL	7	288	1	96	32	6
NMTAP	7	320	0
NMTAP	7	352	0
NMSTR	8	0	1
NMSCR	8	0	1	96	32	4
NMTAP	8	32	3
NMTAP	8	64	3
NMSTR	8	96	1
NMSI_	8	96	1	96	32	5
NMTAP	8	128	5
NMTAP	8	160	5
NMSTR	8	192	1
NMSI_	8	192	1	96	32	4
NMSTR	8	192	6
NMSI_	8	192	6	96	32	3
NMTAP	8	224	7
NMTAP	8	256	7
NMSTR	8	288	1
NMSSR	8	288	1	96	64	5
NMSTR	8	288	6
NMSSL	8	288	6	96	64	2
NMTAP	9	192	3
NMTAP	9	192	4
NMTAP	9	224	3
NMTAP	9	224	4
NMTAP	9	256	2
NMTAP	9	272	3
NMTAP	9	288	4
NMTAP	9	320	6
NMTAP	9	336	7
NMTAP	9	352	4
NMTAP	9	368	3
NMTAP	10	0	2
NMTAP	10	16	0
NMTAP	10	32	1
NMTAP	10	48	7
NMTAP	10	64	0
NMTAP	10	80	6
NMSTR	10	96	7
NMSXR	10	96	7	96	64	3
NMTAP	10	112	5
NMTAP	10	128	6
NMTAP	10	144	4
NMTAP	10	160	5
NMTAP	10	176	3
NMTAP	10	240	1
NMHLD	10	256	1	32
NMTAP	10	288	2
NMTAP	10	320	0
NMTAP	10	320	7
NMTAP	10	352	5
NMTAP	10	362	4
NMTAP	10	372	6
NMTAP	11	0	5
NMTAP	11	64	2
NMTAP	11	74	3
NMTAP	11	84	1
NMTAP	11	96	2
NMTAP	11	160	5
NMTAP	11	170	4
NMTAP	11	180	6
NMTAP	11	192	7
NMTAP	11	240	2
NMTAP	11	256	2
NMTAP	11	272	3
NMTAP	11	288	1
NMTAP	11	320	0
NMTAP	11	320	2
NMTAP	11	352	1
NMTAP	11	352	7
NMSTR	12	0	0
NMSXL	12	0	0	96	64	4
NMSTR	12	96	3
NMSXL	12	96	3	96	64	7
NMSTR	12	192	6
NMSXL	12	192	6	96	64	2
NMSTR	12	288	1
NMSXL	12	288	1	96	64	5
NMTAP	13	0	4
NMTAP	13	96	7
NMTAP	13	128	3
NMTAP	13	160	1
NMSTR	13	192	0
NMSXL	13	192	0	96	64	3
NMSTR	13	192	7
NMSXR	13	192	7	96	64	4
NMTAP	13	224	2
NMTAP	13	224	5
NMTAP	13	256	3
NMTAP	13	256	4
BRTAP	14	0	0
BRTAP	14	0	7
NMTAP	14	32	1
NMTAP	14	40	3
NMTAP	14	48	2
NMTAP	14	56	4
NMTAP	14	64	3
NMTAP	14	72	5
NMTAP	14	80	4
NMTAP	14	88	6
NMTAP	14	96	4
NMTAP	14	104	6
NMTAP	14	112	3
NMTAP	14	120	5
NMTAP	14	128	2
NMTAP	14	136	4
NMTAP	14	144	1
NMTAP	14	152	3
NMTAP	14	160	1
NMTAP	14	168	3
NMTAP	14	176	2
NMTAP	14	184	4
NMTAP	14	192	3
NMTAP	14	200	5
NMTAP	14	208	4
NMTAP	14	216	6
NMTAP	14	224	4
NMTAP	14	232	6
NMTAP	14	240	3
NMTAP	14	248	5
NMTAP	14	256	2
NMTAP	14	264	4
NMTAP	14	272	1
NMTAP	14	280	3
NMSTR	14	288	1
NMSCL	14	288	1	96	192	2
NMTAP	14	296	3
NMTAP	14	304	2
NMTAP	14	312	4
NMTAP	14	320	3
NMTAP	14	328	5
NMTAP	14	336	3
NMTAP	14	344	5
NMTAP	14	352	3
NMTAP	14	360	5
NMTAP	14	368	2
NMTAP	14	376	4
BRTAP	15	0	1
NMSTR	15	288	4
NMSI_	15	288	4	96	48	1
NMTAP	15	288	5
NMTAP	15	320	4
NMTAP	15	320	5
NMTAP	15	352	4
NMTAP	15	352	5
NMTAP	16	0	4
NMSTR	16	0	6
NMSI_	16	0	6	96	48	3
NMTAP	16	32	6
NMTAP	16	64	6
NMSTR	16	96	0
NMSI_	16	96	0	96	48	5
NMTAP	16	96	6
NMTAP	16	128	0
NMTAP	16	160	0
NMTAP	16	192	0
NMSTR	16	192	2
NMSI_	16	192	2	96	48	7
NMTAP	16	224	2
NMTAP	16	256	2
NMTAP	16	288	2
NMSTR	16	288	4
NMSSL	16	288	4	96	96	0
NMTAP	16	320	4
NMTAP	16	352	4
NMTAP	17	0	4
NMTAP	17	0	7
NMHLD	17	192	1	16
NMTAP	17	192	3
NMTAP	17	224	4
NMHLD	17	224	6	16
NMHLD	17	256	2	16
NMTAP	17	256	3
NMSTR	17	288	5
NMSXL	17	288	5	96	96	3
NMHLD	17	288	7	16
NMHLD	17	320	0	16
NMTAP	17	320	2
NMHLD	17	352	4	16
NMTAP	17	352	5
BRTAP	18	0	3
NMTAP	18	192	4
NMHLD	18	192	6	16
NMHLD	18	224	1	16
NMTAP	18	224	3
NMTAP	18	256	4
NMHLD	18	256	5	16
NMHLD	18	288	0	16
NMSTR	18	288	2
NMSXR	18	288	2	96	96	4
NMTAP	18	320	5
NMHLD	18	320	7	16
NMTAP	18	352	2
NMHLD	18	352	3	16
BRTAP	19	0	4
BRTAP	19	192	2
NMTAP	19	197	4
NMTAP	19	202	3
NMTAP	19	208	4
NMTAP	19	213	3
NMTAP	19	218	4
NMTAP	19	224	3
NMTAP	19	229	4
NMTAP	19	234	3
NMTAP	19	240	4
NMTAP	19	245	3
NMTAP	19	250	4
BRTAP	19	256	2
NMTAP	19	263	4
NMTAP	19	269	3
NMTAP	19	275	4
NMTAP	19	281	3
NMTAP	19	288	4
NMTAP	19	296	3
NMTAP	19	302	4
NMTAP	19	308	3
NMTAP	19	314	4
BRTAP	19	320	2
NMTAP	19	328	4
NMTAP	19	336	3
NMTAP	19	344	4
NMTAP	19	352	3
NMTAP	19	360	4
NMTAP	19	368	3
NMTAP	19	376	4
BRTAP	20	0	2
NMTAP	20	9	4
NMTAP	20	18	3
NMTAP	20	27	4
NMTAP	20	36	3
NMTAP	20	45	4
NMTAP	20	54	3
BRTAP	20	64	5
NMTAP	20	75	3
NMTAP	20	86	4
NMTAP	20	96	3
NMTAP	20	107	4
NMTAP	20	118	3
BRTAP	20	128	5
NMTAP	20	141	3
NMTAP	20	154	4
NMTAP	20	167	3
NMTAP	20	180	4
BRTAP	20	192	2
NMTAP	20	208	3
NMTAP	20	224	4
NMTAP	20	240	5
BRTAP	20	256	2
NMTAP	20	277	3
NMTAP	20	298	4
NMTAP	20	320	5
NMTAP	20	352	7
NMTAP	21	0	1
NMTAP	21	64	3
NMHLD	21	160	5	224
NMHLD	21	288	1	96
NMTAP	22	80	0
NMTAP	22	80	7
NMTAP	22	96	0
NMTAP	22	96	7
NMTAP	22	112	1
NMTAP	22	128	2
NMTAP	22	144	0
NMTAP	22	160	7
NMTAP	22	176	6
NMSTR	22	192	1
NMSV_	22	192	1	96	16	3
NMSTR	22	192	5
NMSV_	22	192	5	96	16	3
NMSTR	22	224	1
NMSV_	22	224	1	96	16	4
NMSTR	22	224	5
NMSV_	22	224	5	96	16	4
NMSTR	22	256	1
NMSV_	22	256	1	96	16	7
NMSTR	22	256	5
NMSV_	22	256	5	96	16	7
NMSTR	23	0	2
NMSV_	23	0	2	96	16	4
NMSTR	23	0	6
NMSV_	23	0	6	96	16	4
NMSTR	23	32	2
NMSV_	23	32	2	96	16	3
NMSTR	23	32	6
NMSV_	23	32	6	96	16	3
NMSTR	23	64	2
NMSV_	23	64	2	96	16	0
NMSTR	23	64	6
NMSV_	23	64	6	96	16	0
NMSTR	23	192	1
NMSV_	23	192	1	96	16	3
NMSTR	23	192	5
NMSV_	23	192	5	96	16	3
NMSTR	23	224	1
NMSV_	23	224	1	96	16	0
NMSTR	23	224	5
NMSV_	23	224	5	96	16	0
NMSTR	23	256	1
NMSV_	23	256	1	96	16	4
NMSTR	23	256	5
NMSV_	23	256	5	96	16	4
NMSTR	24	0	2
NMSV_	24	0	2	96	16	4
NMSTR	24	0	6
NMSV_	24	0	6	96	16	4
NMSTR	24	32	2
NMSV_	24	32	2	96	16	0
NMSTR	24	32	6
NMSV_	24	32	6	96	16	0
NMSTR	24	64	2
NMSV_	24	64	2	96	16	3
NMSTR	24	64	6
NMSV_	24	64	6	96	16	3
NMSTR	24	192	4
NMSV_	24	192	4	96	16	2
NMSTR	24	192	7
NMSV_	24	192	7	96	16	2
NMSTR	24	224	4
NMSV_	24	224	4	96	16	5
NMSTR	24	224	7
NMSV_	24	224	7	96	16	5
NMSTR	24	256	4
NMSV_	24	256	4	96	16	1
NMSTR	24	256	7
NMSV_	24	256	7	96	16	1
NMSTR	25	0	0
NMSV_	25	0	0	96	16	5
NMSTR	25	0	3
NMSV_	25	0	3	96	16	5
NMSTR	25	32	0
NMSV_	25	32	0	96	16	2
NMSTR	25	32	3
NMSV_	25	32	3	96	16	2
NMSTR	25	64	0
NMSV_	25	64	0	96	16	6
NMSTR	25	64	3
NMSV_	25	64	3	96	16	6
NMSTR	25	192	4
NMSI_	25	192	4	96	16	0
NMSTR	25	192	7
NMSV_	25	192	7	96	16	0
NMSTR	25	224	4
NMSV_	25	224	4	96	16	5
NMSTR	25	224	7
NMSV_	25	224	7	96	16	5
NMSTR	25	256	4
NMSV_	25	256	4	96	16	1
NMSTR	25	256	7
NMSV_	25	256	7	96	16	1
NMSTR	26	0	0
NMSV_	26	0	0	96	16	7
NMSTR	26	0	3
NMSI_	26	0	3	96	16	7
NMSTR	26	32	0
NMSV_	26	32	0	96	16	2
NMSTR	26	32	3
NMSV_	26	32	3	96	16	2
NMSTR	26	64	0
NMSV_	26	64	0	96	16	6
NMSTR	26	64	3
NMSV_	26	64	3	96	16	6
NMSTR	26	192	7
NMSCL	26	192	7	96	32	4
NMTAP	26	224	4
NMTAP	26	240	3
NMTAP	26	256	3
NMSTR	26	288	7
NMSCR	26	288	7	96	32	2
NMTAP	26	320	2
NMTAP	26	336	3
NMTAP	26	352	3
NMSTR	27	0	3
NMSXR	27	0	3	96	64	0
NMTAP	27	0	7
NMTAP	27	32	4
NMTAP	27	48	4
NMTAP	27	64	4
NMSTR	27	96	3
NMSCR	27	96	3	96	32	6
NMTAP	27	96	7
NMTAP	27	128	5
NMTAP	27	144	5
NMTAP	27	160	5
NMSTR	27	192	3
NMSCL	27	192	3	96	32	0
NMTAP	27	224	2
NMTAP	27	240	2
NMTAP	27	256	2
NMTAP	27	288	3
NMSTR	27	288	6
NMSXR	27	288	6	96	64	3
NMTAP	27	320	7
NMTAP	27	336	7
NMTAP	27	352	7
NMTAP	28	0	3
NMTAP	28	32	2
NMTAP	28	48	1
NMTAP	28	64	1
NMSTR	28	96	0
NMSCR	28	96	0	96	32	4
NMSLR	28	96	0	96	32	4
NMTAP	28	128	4
NMTAP	28	144	5
NMTAP	28	160	6
NMTAP	28	176	7
NMSTR	28	192	0
NMSCL	28	192	0	96	32	4
NMSLL	28	192	0	96	32	4
NMTAP	28	256	2
NMTAP	28	272	1
NMSTR	28	288	0
NMSCR	28	288	0	96	32	4
NMSLR	28	288	0	96	32	4
NMTAP	28	352	6
NMTAP	28	368	7
NMSTR	29	0	0
NMSI_	29	0	0	96	32	5
NMTAP	29	64	2
NMTAP	29	80	1
NMTAP	29	96	0
NMSTR	29	96	3
NMSI_	29	96	3	96	32	6
NMSCR	29	96	3	96	32	6
NMTAP	29	160	1
NMTAP	29	176	2
NMSTR	29	192	3
NMSI_	29	192	3	96	32	0
NMSCL	29	192	3	96	32	0
NMTAP	29	256	5
NMTAP	29	272	4
NMSTR	29	288	3
NMSI_	29	288	3	96	32	6
NMSCR	29	288	3	96	32	6
NMTAP	29	352	1
NMTAP	29	368	2
NMTAP	30	0	3
NMTAP	30	64	5
NMTAP	30	80	4
NMSTR	30	96	3
NMSCL	30	96	3	96	384	4
NMTAP	30	112	3
NMTAP	30	128	5
NMTAP	30	144	7
NMTAP	30	160	0
NMTAP	30	176	2
BRTAP	30	192	1
BRTAP	30	192	3
NMTAP	32	0	3
NMTAP	32	0	4
NMTAP	32	96	2
NMTAP	32	96	5
NMTAP	32	160	1
BRTAP	32	192	1
NMTAP	32	197	7
NMTAP	32	202	0
NMTAP	32	208	7
NMTAP	32	213	0
NMTAP	32	218	7
NMTAP	32	224	0
NMTAP	32	229	7
NMTAP	32	234	0
NMTAP	32	240	7
NMTAP	32	245	0
NMTAP	32	250	7
BRTAP	32	256	1
NMTAP	32	263	7
NMTAP	32	269	0
NMTAP	32	275	7
NMTAP	32	281	0
NMTAP	32	288	7
NMTAP	32	296	0
NMTAP	32	302	7
NMTAP	32	308	0
NMTAP	32	314	7
BRTAP	32	320	1
NMTAP	32	328	7
NMTAP	32	336	0
NMTAP	32	344	7
NMTAP	32	352	0
NMTAP	32	360	7
NMTAP	32	368	0
NMTAP	32	376	7
BRTAP	33	0	1
NMTAP	33	9	7
NMTAP	33	18	0
NMTAP	33	27	7
NMTAP	33	36	0
NMTAP	33	45	7
NMTAP	33	54	0
BRTAP	33	64	6
NMTAP	33	75	0
NMTAP	33	86	7
NMTAP	33	96	0
NMTAP	33	107	7
NMTAP	33	118	0
BRTAP	33	128	6
NMTAP	33	141	0
NMTAP	33	154	7
NMTAP	33	167	0
NMTAP	33	180	7
BRTAP	33	192	1
NMTAP	33	208	0
NMTAP	33	224	7
NMTAP	33	240	6
BRTAP	33	256	1
NMTAP	33	277	0
NMTAP	33	298	7
NMTAP	33	320	6
NMTAP	33	352	4
NMTAP	34	0	2
NMTAP	34	64	1
NMSTR	34	96	0
NMSI_	34	96	0	96	16	4
NMSTR	34	96	7
NMSI_	34	96	7	96	16	3
NMTAP	34	128	3
NMTAP	34	128	4
NMTAP	34	160	1
NMTAP	34	160	6
BRTAP	34	192	0
BRTAP	34	192	7

T_REC_TAP	332
T_REC_BRK	25
T_REC_XTP	0
T_REC_BXX	0
T_REC_HLD	21
T_REC_XHO	0
T_REC_BHO	0
T_REC_BXH	0
T_REC_STR	96
T_REC_BST	0
T_REC_XST	0
T_REC_XBS	0
T_REC_TTP	0
T_REC_THO	0
T_REC_SLD	102
T_REC_BSL	0
T_REC_ALL	576
T_NUM_TAP	428
T_NUM_BRK	25
T_NUM_HLD	21
T_NUM_SLD	102
T_NUM_ALL	576
T_JUDGE_TAP	453
T_JUDGE_HLD	78
T_JUDGE_SLD	102
T_JUDGE_ALL	633
TTM_EACHPAIRS	70
TTM_SCR_TAP	214000
TTM_SCR_BRK	65000
TTM_SCR_HLD	21000
TTM_SCR_SLD	153000
TTM_SCR_ALL	453000
TTM_SCR_S	437000
TTM_SCR_SS	450500
TTM_RAT_ACV	10055

