VERSION	0.00.00	1.04.00
FES_MODE	0
BPM_DEF	 85.000	 56.666	 85.000	 56.666
MET_DEF	4	4
RESOLUTION	384
CLK_DEF	384
COMPATIBLE_CODE	MA2

BPM	0	0	 85.000
BPM	5	0	 56.666
MET	0	0	4	4
MET	22	0	4	2
MET	22	192	4	4

NMSTR	1	0	1
NMSV_	1	0	1	96	1344	2
NMSTR	1	0	5
NMSV_	1	0	5	96	1344	6
NMTAP	5	0	3
NMTAP	5	0	4
NMTAP	5	64	1
NMHLD	5	96	1	160
NMTAP	5	160	3
NMHLD	5	192	3	64
NMTAP	5	288	2
NMTAP	5	320	3
NMTAP	5	320	4
NMTAP	5	352	5
NMHLD	6	0	6	160
NMTAP	6	64	4
NMHLD	6	96	4	64
NMTAP	6	192	5
NMTAP	6	224	4
NMTAP	6	256	3
NMHLD	6	288	2	64
NMTAP	6	352	4
NMHLD	7	0	4	64
NMTAP	7	64	3
NMSTR	7	96	3
NMSUR	7	96	3	96	128	4
NMTAP	7	128	4
NMTAP	7	160	5
NMTAP	7	192	6
NMTAP	7	320	7
NMTAP	7	352	7
NMSTR	8	0	6
NMSI_	8	0	6	96	48	2
NMSTR	8	96	1
NMSI_	8	96	1	96	32	7
NMSTR	8	192	5
NMSI_	8	192	5	96	32	3
NMTAP	8	288	0
NMTAP	8	320	0
NMHLD	9	0	2	64
NMHLD	9	0	6	64
NMTAP	9	128	5
NMTAP	9	160	5
NMTAP	9	224	4
NMTAP	9	256	4
NMTAP	9	320	3
NMTAP	9	352	3
NMHLD	10	0	2	48
NMHLD	10	48	3	48
NMHLD	10	96	4	48
NMHLD	10	144	5	112
NMHLD	10	192	1	64
NMTAP	10	288	1
NMTAP	10	288	5
NMTAP	10	320	6
NMTAP	10	352	7
NMHLD	11	0	0	64
NMHLD	11	0	1	64
NMHLD	11	96	3	64
NMHLD	11	96	4	64
NMHLD	11	192	6	64
NMHLD	11	192	7	64
NMTAP	11	288	5
NMTAP	11	320	4
NMTAP	11	352	3
NMSTR	12	0	2
NMSUR	12	0	2	96	96	3
NMSTR	12	192	6
NMSXL	12	192	6	96	96	4
NMHLD	13	0	2	32
NMHLD	13	48	2	32
NMTAP	13	96	2
NMTAP	13	128	3
NMTAP	13	160	4
NMHLD	13	192	5	32
NMHLD	13	240	5	32
NMTAP	13	288	5
NMTAP	13	320	3
NMTAP	13	352	1
NMSTR	14	0	6
NMSLL	14	0	6	96	96	0
NMTAP	14	64	7
NMTAP	14	96	7
NMSTR	14	192	1
NMSLR	14	192	1	96	96	7
NMTAP	14	256	0
NMTAP	14	288	0
NMSTR	15	0	5
NMSUL	15	0	5	96	96	3
NMSTR	15	96	3
NMSCL	15	96	3	96	128	4
NMHLD	15	192	0	192
NMTAP	16	0	3
NMTAP	16	32	4
NMTAP	16	64	5
NMTAP	16	96	4
NMTAP	16	96	6
NMTAP	16	128	3
NMTAP	16	160	2
NMHLD	16	192	1	64
NMTAP	16	192	3
NMTAP	16	256	7
NMSTR	16	288	6
NMSCL	16	288	6	96	32	3
NMTAP	16	320	0
NMTAP	16	352	1
NMSTR	17	0	2
NMSCL	17	0	2	96	32	7
NMTAP	17	96	6
NMTAP	17	192	0
NMTAP	17	192	1
NMTAP	17	224	2
NMTAP	17	224	3
NMTAP	17	256	4
NMTAP	17	256	5
NMSTR	17	288	6
NMSXR	17	288	6	96	128	3
NMSTR	17	288	7
NMSXL	17	288	7	96	128	2
NMTAP	17	320	4
NMTAP	17	320	5
NMTAP	17	352	2
NMTAP	17	352	3
NMTAP	18	192	6
NMTAP	18	192	7
NMTAP	18	224	4
NMTAP	18	224	5
NMTAP	18	256	2
NMTAP	18	256	3
NMSTR	18	288	0
NMSXR	18	288	0	96	128	5
NMSTR	18	288	1
NMSXL	18	288	1	96	128	4
NMTAP	18	320	2
NMTAP	18	320	3
NMTAP	18	352	4
NMTAP	18	352	5
NMHLD	19	192	1	352
NMHLD	19	192	7	160
NMHLD	20	0	5	256
NMHLD	20	192	4	160
NMHLD	20	288	3	160
NMHLD	21	0	2	160
NMHLD	21	160	6	128
NMSTR	21	288	4
NMSF_	21	288	4	96	32	0
NMTAP	22	80	2
NMTAP	22	80	6
NMTAP	22	96	3
NMTAP	22	112	4
NMTAP	22	128	5
NMTAP	22	144	6
NMTAP	22	160	7
NMTAP	22	176	0
BRTAP	22	192	1
BRTAP	22	192	5
NMTAP	22	256	6
NMTAP	22	272	7
NMTAP	22	288	6
NMTAP	22	320	0
NMTAP	22	320	5
NMTAP	22	352	1
NMTAP	22	368	3
NMTAP	23	0	2
NMTAP	23	32	3
NMTAP	23	32	4
NMTAP	23	64	5
NMTAP	23	80	4
NMHLD	23	96	6	32
NMTAP	23	128	7
NMTAP	23	160	0
NMTAP	23	160	6
NMHLD	23	192	1	32
NMTAP	23	192	5
NMTAP	23	224	3
NMTAP	23	256	5
NMTAP	23	272	4
NMTAP	23	288	6
NMTAP	23	320	2
NMTAP	23	320	7
NMTAP	23	352	1
NMTAP	23	368	0
NMTAP	24	0	1
NMTAP	24	32	2
NMTAP	24	32	3
NMTAP	24	64	4
NMTAP	24	64	5
NMSTR	24	96	6
NMSI_	24	96	6	96	32	2
NMHLD	24	96	7	32
NMTAP	24	160	0
NMTAP	24	192	0
NMTAP	24	256	1
NMTAP	24	272	1
NMTAP	24	288	2
NMTAP	24	288	3
NMTAP	24	320	0
NMTAP	24	320	4
NMTAP	24	352	6
NMTAP	24	368	6
NMTAP	25	0	4
NMTAP	25	0	5
NMTAP	25	32	3
NMTAP	25	32	7
NMTAP	25	64	1
NMTAP	25	80	1
NMTAP	25	96	2
NMTAP	25	96	3
NMTAP	25	128	4
NMTAP	25	128	5
NMTAP	25	160	0
NMTAP	25	160	7
NMHLD	25	192	2	48
NMTAP	25	240	3
NMTAP	25	256	2
NMTAP	25	288	0
NMTAP	25	288	6
NMTAP	25	320	2
NMTAP	25	336	2
NMTAP	25	352	4
NMTAP	25	368	3
NMHLD	26	0	5	48
NMTAP	26	48	4
NMTAP	26	64	5
NMTAP	26	96	1
NMTAP	26	96	7
NMTAP	26	128	2
NMTAP	26	144	2
NMTAP	26	160	3
NMTAP	26	176	1
NMHLD	26	192	0	64
NMSTR	26	192	4
NMSCR	26	192	4	96	32	7
NMTAP	26	288	2
NMTAP	26	320	2
NMTAP	26	352	0
NMTAP	26	352	1
NMTAP	27	0	2
NMHLD	27	0	7	48
NMTAP	27	48	0
NMTAP	27	64	0
NMTAP	27	80	7
NMTAP	27	96	1
NMTAP	27	96	6
NMTAP	27	128	5
NMTAP	27	144	5
NMTAP	27	160	4
NMTAP	27	176	6
NMSTR	27	192	3
NMSCL	27	192	3	96	32	0
NMHLD	27	192	7	64
NMTAP	27	288	5
NMTAP	27	320	5
NMTAP	27	352	6
NMTAP	27	352	7
NMTAP	28	0	0
NMTAP	28	0	1
NMTAP	28	32	3
NMTAP	28	32	4
NMTAP	28	64	0
NMTAP	28	64	7
NMTAP	28	80	0
NMTAP	28	80	7
NMTAP	28	96	1
NMTAP	28	96	6
NMTAP	28	128	5
NMTAP	28	144	4
NMTAP	28	160	3
NMTAP	28	176	2
NMTAP	28	192	1
NMTAP	28	192	5
NMTAP	28	256	3
NMTAP	28	272	3
NMTAP	28	288	2
NMTAP	28	288	4
BRTAP	28	320	5
NMTAP	28	320	6
BRTAP	28	352	1
NMTAP	28	352	2
NMTAP	29	0	0
NMSTR	29	0	7
NMSCL	29	0	7	96	32	4
NMTAP	29	64	1
NMTAP	29	80	1
NMSTR	29	96	0
NMSCR	29	96	0	96	32	3
NMTAP	29	160	7
NMTAP	29	176	7
NMSTR	29	192	6
NMSI_	29	192	6	96	32	2
NMTAP	29	256	0
NMTAP	29	272	0
NMSTR	29	288	1
NMSI_	29	288	1	96	32	5
NMTAP	29	352	6
NMTAP	29	368	6
NMHLD	30	0	7	64
NMTAP	30	64	3
NMTAP	30	80	3
NMSTR	30	96	4
NMSI_	30	96	4	96	384	0
NMTAP	30	112	5
NMTAP	30	128	6
NMTAP	30	144	0
NMTAP	30	160	1
NMTAP	30	176	2
BRTAP	30	192	4
NMTAP	32	128	3
NMTAP	32	160	4
NMHLD	32	192	1	64
NMTAP	32	256	3
NMTAP	32	288	2
NMTAP	32	320	3
NMTAP	32	352	4
NMHLD	33	0	5	64
NMTAP	33	64	4
NMTAP	33	96	6
NMTAP	33	128	4
NMTAP	33	160	3
NMTAP	33	192	1
NMTAP	33	224	2
NMTAP	33	256	3
NMTAP	33	288	6
NMTAP	33	320	5
NMTAP	33	352	4
NMHLD	34	0	3	64
NMTAP	34	64	5
NMSTR	34	96	2
NMSI_	34	96	2	96	32	5
NMSTR	34	96	6
NMSI_	34	96	6	96	32	1
NMTAP	34	128	1
NMTAP	34	160	5

T_REC_TAP	226
T_REC_BRK	5
T_REC_XTP	0
T_REC_BXX	0
T_REC_HLD	44
T_REC_XHO	0
T_REC_BHO	0
T_REC_BXH	0
T_REC_STR	29
T_REC_BST	0
T_REC_XST	0
T_REC_XBS	0
T_REC_TTP	0
T_REC_THO	0
T_REC_SLD	29
T_REC_BSL	0
T_REC_ALL	333
T_NUM_TAP	255
T_NUM_BRK	5
T_NUM_HLD	44
T_NUM_SLD	29
T_NUM_ALL	333
T_JUDGE_TAP	260
T_JUDGE_HLD	338
T_JUDGE_SLD	29
T_JUDGE_ALL	627
TTM_EACHPAIRS	59
TTM_SCR_TAP	127500
TTM_SCR_BRK	13000
TTM_SCR_HLD	44000
TTM_SCR_SLD	43500
TTM_SCR_ALL	228000
TTM_SCR_S	220700
TTM_SCR_SS	227500
TTM_RAT_ACV	10021

