VERSION	0.00.00	1.05.00
FES_MODE	0
BPM_DEF	 85.000	 56.666	 85.000	 56.666
MET_DEF	4	4
RESOLUTION	384
CLK_DEF	384
COMPATIBLE_CODE	MA2

BPM	0	0	 85.000
BPM	5	0	 56.666
MET	0	0	4	4
MET	22	0	4	2
MET	22	192	4	4

NMTAP	1	0	1
NMTAP	1	48	1
NMTAP	1	96	1
NMTAP	1	192	2
NMTAP	1	240	2
NMTAP	1	288	2
NMTAP	2	0	3
NMTAP	2	48	3
NMTAP	2	96	3
NMTAP	2	192	4
NMTAP	2	192	5
NMTAP	3	0	6
NMTAP	3	48	6
NMTAP	3	96	6
NMTAP	3	192	5
NMTAP	3	240	5
NMTAP	3	288	5
NMTAP	4	0	4
NMTAP	4	48	4
NMTAP	4	96	4
NMTAP	4	192	2
NMTAP	4	192	3
NMTAP	5	0	2
NMTAP	5	32	2
NMTAP	5	96	1
NMTAP	5	128	1
NMTAP	5	192	0
NMTAP	5	224	0
NMTAP	5	288	6
NMTAP	5	288	7
NMTAP	6	0	5
NMTAP	6	32	5
NMTAP	6	96	6
NMTAP	6	128	6
NMTAP	6	192	7
NMTAP	6	224	7
NMTAP	6	288	0
NMTAP	6	288	1
NMTAP	7	0	1
NMTAP	7	32	1
NMTAP	7	96	2
NMTAP	7	128	2
NMTAP	7	192	3
NMTAP	7	224	3
NMTAP	7	288	4
NMTAP	7	288	5
NMTAP	8	0	6
NMTAP	8	32	6
NMTAP	8	96	5
NMTAP	8	128	5
NMTAP	8	192	4
NMTAP	8	224	4
BRTAP	8	288	2
BRTAP	8	288	3
NMSTR	9	0	1
NMSI_	9	0	1	96	96	4
NMTAP	9	288	5
NMSTR	10	0	6
NMSI_	10	0	6	96	96	2
NMTAP	10	288	1
NMSTR	11	0	0
NMSI_	11	0	0	96	96	4
NMTAP	11	288	5
NMSTR	12	0	6
NMSI_	12	0	6	96	96	3
NMTAP	12	288	2
NMSTR	13	0	1
NMSSR	13	0	1	96	192	5
NMSTR	14	0	7
NMSI_	14	0	7	96	96	3
NMTAP	14	288	3
NMTAP	14	288	4
NMTAP	15	0	5
NMTAP	15	32	5
NMTAP	15	64	5
NMTAP	15	96	4
NMTAP	15	96	5
NMTAP	15	192	6
NMTAP	15	224	6
NMTAP	15	256	6
NMTAP	15	288	6
NMTAP	15	288	7
NMTAP	16	0	0
NMTAP	16	32	0
NMTAP	16	64	0
NMTAP	16	96	0
NMTAP	16	96	1
NMTAP	16	192	2
NMTAP	16	192	3
NMTAP	16	224	2
NMTAP	16	224	3
NMTAP	16	256	2
NMTAP	16	256	3
NMTAP	16	288	2
NMTAP	16	288	3
NMTAP	17	0	2
NMTAP	17	32	2
NMTAP	17	64	2
NMTAP	17	96	2
NMTAP	17	96	3
NMTAP	17	192	1
NMTAP	17	224	1
NMTAP	17	256	1
NMTAP	17	288	0
NMTAP	17	288	1
NMTAP	18	0	7
NMTAP	18	32	7
NMTAP	18	64	7
NMTAP	18	96	6
NMTAP	18	96	7
NMTAP	18	192	4
NMTAP	18	192	5
NMTAP	18	224	4
NMTAP	18	224	5
NMTAP	18	256	4
NMTAP	18	256	5
BRTAP	18	288	4
BRTAP	18	288	5
NMHLD	19	0	5	96
NMHLD	19	96	4	96
NMHLD	19	192	3	96
NMTAP	19	288	2
NMHLD	20	0	2	96
NMHLD	20	96	3	96
NMHLD	20	192	4	96
NMTAP	20	288	5
NMHLD	21	0	6	96
NMHLD	21	96	5	96
NMHLD	21	192	4	96
NMTAP	21	288	3
NMHLD	22	0	3	96
NMHLD	22	0	4	96
NMTAP	22	192	2
NMTAP	22	224	2
NMTAP	22	256	2
NMTAP	22	288	0
NMTAP	22	288	1
NMTAP	22	320	0
NMTAP	22	320	1
NMTAP	22	352	0
NMTAP	22	352	1
NMTAP	23	0	7
NMTAP	23	32	6
NMTAP	23	64	5
NMTAP	23	96	4
NMTAP	23	96	5
NMTAP	23	192	5
NMTAP	23	224	5
NMTAP	23	256	5
NMTAP	23	288	6
NMTAP	23	288	7
NMTAP	23	320	6
NMTAP	23	320	7
NMTAP	23	352	6
NMTAP	23	352	7
NMTAP	24	0	0
NMTAP	24	32	1
NMTAP	24	64	2
NMTAP	24	96	2
NMTAP	24	96	3
NMTAP	24	192	1
NMTAP	24	224	1
NMTAP	24	256	1
NMTAP	24	288	2
NMTAP	24	288	3
NMTAP	24	320	2
NMTAP	24	320	3
NMTAP	24	352	2
NMTAP	24	352	3
NMTAP	25	0	4
NMTAP	25	32	5
NMTAP	25	64	6
NMTAP	25	96	6
NMTAP	25	96	7
NMTAP	25	192	6
NMTAP	25	224	6
NMTAP	25	256	6
NMTAP	25	288	4
NMTAP	25	288	5
NMTAP	25	320	4
NMTAP	25	320	5
NMTAP	25	352	4
NMTAP	25	352	5
NMTAP	26	0	3
NMTAP	26	32	3
NMTAP	26	64	2
BRTAP	26	96	2
BRTAP	26	96	3
NMTAP	26	192	4
NMTAP	26	192	5
NMTAP	26	224	6
NMTAP	26	240	6
NMTAP	26	256	6
NMTAP	26	288	7
NMTAP	26	320	0
NMTAP	26	352	1
NMTAP	27	0	2
NMTAP	27	0	3
NMTAP	27	32	2
NMTAP	27	32	3
NMTAP	27	64	2
NMTAP	27	64	3
NMTAP	27	96	1
NMTAP	27	96	4
NMTAP	27	192	2
NMTAP	27	192	3
NMTAP	27	224	1
NMTAP	27	240	1
NMTAP	27	256	1
NMTAP	27	288	0
NMTAP	27	320	7
NMTAP	27	352	6
NMTAP	28	0	4
NMTAP	28	0	5
NMTAP	28	32	4
NMTAP	28	32	5
NMTAP	28	64	4
NMTAP	28	64	5
NMTAP	28	96	3
NMTAP	28	96	6
NMTAP	28	192	6
NMTAP	28	192	7
NMTAP	28	224	5
NMTAP	28	240	5
NMTAP	28	256	5
NMTAP	28	288	4
NMTAP	28	320	3
NMTAP	28	352	2
NMTAP	29	0	0
NMTAP	29	0	1
NMTAP	29	32	0
NMTAP	29	32	1
NMTAP	29	64	0
NMTAP	29	64	1
NMTAP	29	96	2
NMTAP	29	96	7
NMTAP	29	192	0
NMTAP	29	192	1
NMTAP	29	224	2
NMTAP	29	240	2
NMTAP	29	256	2
NMTAP	29	288	3
NMTAP	29	320	4
NMTAP	29	352	5
NMTAP	30	0	6
NMTAP	30	0	7
NMTAP	30	32	6
NMTAP	30	32	7
NMTAP	30	64	6
NMTAP	30	64	7
NMTAP	30	96	0
NMTAP	30	96	5
NMTAP	30	192	5
NMTAP	30	224	5
NMTAP	30	256	5
NMTAP	30	288	6
NMTAP	30	320	6
NMTAP	30	352	6
NMTAP	31	0	7
NMTAP	31	32	7
NMTAP	31	64	7
NMTAP	31	96	0
NMTAP	31	96	1
NMTAP	31	192	2
NMTAP	31	224	2
NMTAP	31	256	2
NMTAP	31	288	1
NMTAP	31	320	1
NMTAP	31	352	1
NMTAP	32	0	0
NMTAP	32	32	0
NMTAP	32	64	0
NMTAP	32	96	6
NMTAP	32	96	7
NMTAP	32	192	6
NMTAP	32	224	6
NMTAP	32	256	6
NMTAP	32	288	5
NMTAP	32	320	5
NMTAP	32	352	5
NMTAP	33	0	4
NMTAP	33	32	4
NMTAP	33	64	4
NMTAP	33	96	2
NMTAP	33	96	3
NMTAP	33	192	1
NMTAP	33	224	1
NMTAP	33	256	1
NMTAP	33	288	2
NMTAP	33	320	2
NMTAP	33	352	2
NMTAP	34	0	3
NMTAP	34	32	3
NMTAP	34	64	3
NMTAP	34	96	4
NMTAP	34	96	5
NMTAP	34	192	3
NMTAP	34	192	4

T_REC_TAP	269
T_REC_BRK	6
T_REC_XTP	0
T_REC_BXX	0
T_REC_HLD	11
T_REC_XHO	0
T_REC_BHO	0
T_REC_BXH	0
T_REC_STR	6
T_REC_BST	0
T_REC_XST	0
T_REC_XBS	0
T_REC_TTP	0
T_REC_THO	0
T_REC_SLD	6
T_REC_BSL	0
T_REC_ALL	298
T_NUM_TAP	275
T_NUM_BRK	6
T_NUM_HLD	11
T_NUM_SLD	6
T_NUM_ALL	298
T_JUDGE_TAP	281
T_JUDGE_HLD	88
T_JUDGE_SLD	6
T_JUDGE_ALL	375
TTM_EACHPAIRS	63
TTM_SCR_TAP	137500
TTM_SCR_BRK	15600
TTM_SCR_HLD	11000
TTM_SCR_SLD	9000
TTM_SCR_ALL	173100
TTM_SCR_S	167350
TTM_SCR_SS	172500
TTM_RAT_ACV	10034

