VERSION	0.00.00	1.05.00
FES_MODE	0
BPM_DEF	 85.000	 56.666	 85.000	 56.666
MET_DEF	4	4
RESOLUTION	384
CLK_DEF	384
COMPATIBLE_CODE	MA2

BPM	0	0	 85.000
BPM	5	0	 56.666
MET	0	0	4	4
MET	22	0	4	2
MET	22	192	4	4

NMTAP	1	0	0
NMTAP	1	192	0
NMTAP	2	0	0
NMTAP	3	0	7
NMTAP	3	192	7
NMTAP	4	0	0
NMTAP	4	0	7
NMTAP	5	0	7
NMTAP	5	96	7
NMTAP	5	192	6
NMTAP	5	288	6
NMTAP	6	0	5
NMTAP	6	96	5
NMTAP	6	192	3
NMTAP	6	192	4
NMTAP	7	0	3
NMTAP	7	96	3
NMTAP	7	192	2
NMTAP	7	288	2
NMTAP	8	0	1
NMTAP	8	96	1
NMTAP	8	192	0
NMTAP	8	192	7
NMTAP	9	0	0
NMTAP	9	0	1
NMTAP	9	96	0
NMTAP	9	96	1
NMTAP	9	192	0
NMTAP	9	192	1
NMTAP	10	0	2
NMTAP	10	0	3
NMTAP	10	96	2
NMTAP	10	96	3
NMTAP	10	192	2
NMTAP	10	192	3
NMTAP	11	0	4
NMTAP	11	0	5
NMTAP	11	96	4
NMTAP	11	96	5
NMTAP	11	192	4
NMTAP	11	192	5
NMTAP	12	0	6
NMTAP	12	0	7
NMTAP	12	96	6
NMTAP	12	96	7
NMTAP	12	192	6
NMTAP	12	192	7
NMTAP	13	0	4
NMTAP	13	0	5
NMTAP	13	96	4
NMTAP	13	96	5
NMTAP	13	192	4
NMTAP	13	192	5
NMTAP	14	0	3
NMTAP	14	0	4
NMTAP	14	96	3
NMTAP	14	96	4
NMTAP	14	192	3
NMTAP	14	192	4
NMSTR	15	0	4
NMSI_	15	0	4	96	128	0
NMSTR	16	0	1
NMSI_	16	0	1	96	128	4
NMSTR	17	0	5
NMSI_	17	0	5	96	128	0
NMSTR	18	0	1
NMSI_	18	0	1	96	128	5
NMHLD	19	0	6	192
NMHLD	19	0	7	192
NMHLD	20	0	0	192
NMHLD	20	0	1	192
NMHLD	21	0	0	192
NMHLD	21	0	7	192
NMTAP	22	0	0
NMTAP	22	0	7
BRTAP	22	192	0
NMTAP	22	224	0
NMTAP	22	288	1
NMTAP	22	320	1
NMTAP	23	0	2
NMTAP	23	32	2
NMTAP	23	96	2
NMTAP	23	96	3
NMTAP	23	128	2
NMTAP	23	128	3
NMTAP	23	192	4
NMTAP	23	224	4
NMTAP	23	288	5
NMTAP	23	320	5
NMTAP	24	0	6
NMTAP	24	32	6
NMTAP	24	96	6
NMTAP	24	96	7
NMTAP	24	128	6
NMTAP	24	128	7
NMTAP	24	192	7
NMTAP	24	224	7
NMTAP	24	288	6
NMTAP	24	320	6
NMTAP	25	0	5
NMTAP	25	32	5
NMTAP	25	96	4
NMTAP	25	96	5
NMTAP	25	128	4
NMTAP	25	128	5
NMTAP	25	192	3
NMTAP	25	224	3
NMTAP	25	288	2
NMTAP	25	320	2
NMTAP	26	0	1
NMTAP	26	32	1
NMTAP	26	96	0
NMTAP	26	96	1
BRTAP	26	192	0
NMTAP	26	224	0
NMTAP	26	288	0
NMTAP	26	288	1
NMTAP	26	320	0
NMTAP	26	320	1
NMTAP	27	0	2
NMTAP	27	32	2
NMTAP	27	96	2
NMTAP	27	96	3
NMTAP	27	128	2
NMTAP	27	128	3
NMTAP	27	192	4
NMTAP	27	224	4
NMTAP	27	288	4
NMTAP	27	288	5
NMTAP	27	320	4
NMTAP	27	320	5
NMTAP	28	0	6
NMTAP	28	32	6
NMTAP	28	96	6
NMTAP	28	96	7
NMTAP	28	128	6
NMTAP	28	128	7
NMTAP	28	192	7
NMTAP	28	224	7
NMTAP	28	288	6
NMTAP	28	288	7
NMTAP	28	320	6
NMTAP	28	320	7
NMTAP	29	0	5
NMTAP	29	32	5
NMTAP	29	96	4
NMTAP	29	96	5
NMTAP	29	128	4
NMTAP	29	128	5
NMTAP	29	192	3
NMTAP	29	224	3
NMTAP	29	288	2
NMTAP	29	288	3
NMTAP	29	320	2
NMTAP	29	320	3
NMTAP	30	0	1
NMTAP	30	32	1
NMTAP	30	96	0
NMTAP	30	96	1
NMTAP	30	128	0
NMTAP	30	128	1
NMSTR	30	192	0
NMSI_	30	192	0	96	128	3
NMSTR	30	192	7
NMSI_	30	192	7	96	128	4
NMSTR	31	192	3
NMSI_	31	192	3	96	128	0
NMSTR	31	192	4
NMSI_	31	192	4	96	128	7
NMTAP	32	192	1
NMTAP	32	288	1
NMTAP	33	0	0
NMTAP	33	0	7
NMTAP	33	96	0
NMTAP	33	96	7
NMTAP	33	192	6
NMTAP	33	288	6
NMTAP	34	0	0
NMTAP	34	0	7
NMTAP	34	96	0
NMTAP	34	96	7
BRTAP	34	192	0
BRTAP	34	192	7

T_REC_TAP	157
T_REC_BRK	4
T_REC_XTP	0
T_REC_BXX	0
T_REC_HLD	6
T_REC_XHO	0
T_REC_BHO	0
T_REC_BXH	0
T_REC_STR	8
T_REC_BST	0
T_REC_XST	0
T_REC_XBS	0
T_REC_TTP	0
T_REC_THO	0
T_REC_SLD	8
T_REC_BSL	0
T_REC_ALL	183
T_NUM_TAP	165
T_NUM_BRK	4
T_NUM_HLD	6
T_NUM_SLD	8
T_NUM_ALL	183
T_JUDGE_TAP	169
T_JUDGE_HLD	96
T_JUDGE_SLD	8
T_JUDGE_ALL	273
TTM_EACHPAIRS	55
TTM_SCR_TAP	82500
TTM_SCR_BRK	10400
TTM_SCR_HLD	6000
TTM_SCR_SLD	12000
TTM_SCR_ALL	110900
TTM_SCR_S	107200
TTM_SCR_SS	110500
TTM_RAT_ACV	10036

