VERSION	0.00.00	1.05.00
FES_MODE	0
BPM_DEF	155.000	155.000	155.000	155.000
MET_DEF	4	4
RESOLUTION	384
CLK_DEF	384
COMPATIBLE_CODE	MA2

BPM	0	0	155.000
MET	0	0	4	4

NMSTR	2	0	1
NMSI_	2	0	1	96	48	5
NMTAP	2	0	6
NMTAP	2	96	3
NMSTR	2	144	3
NMSI_	2	144	3	96	48	7
NMSTR	2	240	4
NMSI_	2	240	4	96	48	0
NMTAP	2	336	6
BRTAP	3	48	6
BRTAP	3	96	1
BRTAP	3	144	3
NMHLD	3	192	4	72
NMHLD	3	264	3	72
NMHLD	3	336	1	48
NMSTR	4	0	6
NMSI_	4	0	6	96	48	2
NMTAP	4	96	4
NMSTR	4	144	4
NMSI_	4	144	4	96	48	0
NMSTR	4	240	3
NMSI_	4	240	3	96	48	7
NMTAP	4	336	1
NMTAP	5	48	6
NMTAP	5	96	1
NMTAP	5	144	5
NMTAP	5	160	4
NMTAP	5	176	3
NMTAP	5	192	2
NMTAP	5	288	3
NMTAP	5	288	4
NMTAP	6	0	2
NMTAP	6	0	5
NMTAP	6	48	3
NMTAP	6	96	1
NMTAP	6	96	4
NMTAP	6	144	3
NMTAP	6	192	2
NMTAP	6	192	5
NMTAP	6	240	3
NMSTR	6	288	1
NMSI_	6	288	1	96	48	5
NMTAP	6	288	4
NMSTR	6	336	5
NMSI_	6	336	5	96	48	3
NMSTR	7	48	6
NMSI_	7	48	6	96	48	2
NMSTR	7	144	7
NMSI_	7	144	7	96	48	1
NMTAP	8	0	2
NMTAP	8	0	5
NMTAP	8	48	4
NMTAP	8	96	3
NMTAP	8	96	6
NMTAP	8	144	4
NMTAP	8	192	2
NMTAP	8	192	5
NMTAP	8	240	4
NMTAP	8	288	3
NMSTR	8	288	6
NMSI_	8	288	6	96	48	2
NMSTR	8	336	2
NMSI_	8	336	2	96	48	4
NMSTR	9	48	1
NMSI_	9	48	1	96	48	5
NMSTR	9	144	0
NMSI_	9	144	0	96	48	6
NMTAP	10	0	1
NMTAP	10	0	6
NMTAP	10	48	7
NMTAP	10	96	0
NMTAP	10	96	5
NMTAP	10	144	7
NMTAP	10	192	1
NMTAP	10	192	6
NMTAP	10	240	7
NMTAP	10	288	0
NMSTR	10	288	5
NMSI_	10	288	5	96	48	1
NMSTR	10	336	1
NMSI_	10	336	1	96	48	3
NMSTR	11	48	0
NMSI_	11	48	0	96	48	4
NMSTR	11	144	7
NMSI_	11	144	7	96	48	5
NMTAP	12	0	1
NMTAP	12	0	6
NMTAP	12	48	0
NMTAP	12	96	2
NMTAP	12	96	7
NMTAP	12	144	0
NMTAP	12	192	1
NMTAP	12	192	6
NMTAP	12	240	0
NMSTR	12	288	2
NMSI_	12	288	2	96	48	6
NMTAP	12	288	7
NMSTR	12	336	6
NMSI_	12	336	6	96	48	4
NMSTR	13	48	7
NMSI_	13	48	7	96	48	3
NMSTR	13	144	0
NMSI_	13	144	0	96	48	2
NMHLD	13	240	7	816
NMSTR	14	0	1
NMSCL	14	0	1	96	96	4
NMSTR	15	0	6
NMSCR	15	0	6	96	96	3
NMSTR	16	0	2
NMSCL	16	0	2	96	48	0
NMTAP	16	48	2
NMTAP	16	96	2
NMTAP	16	144	2
NMSTR	16	192	2
NMSCR	16	192	2	96	48	4
NMTAP	16	240	2
NMTAP	16	288	2
NMTAP	16	336	2
NMSTR	17	0	2
NMSCL	17	0	2	96	48	0
NMTAP	17	48	2
NMTAP	17	96	2
NMTAP	17	144	2
NMSTR	17	192	2
NMSCR	17	192	2	96	48	4
NMTAP	17	240	2
NMTAP	17	288	2
NMTAP	17	336	2
NMSTR	18	0	5
NMSCL	18	0	5	96	48	3
NMTAP	18	48	5
NMTAP	18	96	5
NMTAP	18	144	5
NMSTR	18	192	5
NMSCR	18	192	5	96	48	7
NMTAP	18	240	5
NMTAP	18	288	5
NMTAP	18	336	5
NMSTR	19	0	5
NMSCL	19	0	5	96	48	3
NMTAP	19	48	5
NMTAP	19	96	5
NMTAP	19	144	5
NMSTR	19	192	5
NMSCR	19	192	5	96	48	7
NMTAP	19	240	5
NMTAP	19	288	5
NMTAP	19	336	5
NMSTR	20	0	0
NMSI_	20	0	0	96	48	5
NMTAP	20	48	0
NMTAP	20	96	0
NMTAP	20	144	0
NMSTR	20	192	0
NMSI_	20	192	0	96	48	3
NMTAP	20	240	0
NMTAP	20	288	0
NMTAP	20	336	0
NMSTR	21	0	7
NMSI_	21	0	7	96	48	4
NMTAP	21	48	7
NMTAP	21	96	7
NMTAP	21	144	7
NMSTR	21	192	7
NMSI_	21	192	7	96	48	2
NMTAP	21	240	7
NMTAP	21	288	7
NMTAP	21	336	7
NMSTR	22	0	1
NMSCL	22	0	1	96	48	6
NMTAP	22	48	1
NMTAP	22	96	1
NMTAP	22	144	1
NMSTR	22	192	1
NMSCR	22	192	1	96	48	4
NMTAP	22	240	1
NMTAP	22	288	1
NMTAP	22	336	1
NMSTR	23	0	6
NMSCL	23	0	6	96	48	3
NMTAP	23	48	6
NMTAP	23	96	6
NMTAP	23	144	6
NMSTR	23	192	6
NMSCR	23	192	6	96	48	1
NMTAP	23	240	6
NMTAP	23	288	6
NMTAP	23	336	6
NMTAP	24	0	2
NMTAP	24	0	7
NMTAP	24	48	0
NMTAP	24	96	1
NMTAP	24	96	6
NMTAP	24	144	0
NMTAP	24	192	2
NMTAP	24	192	7
NMTAP	24	240	1
NMTAP	24	288	0
NMTAP	24	288	3
NMTAP	24	336	1
NMTAP	25	0	2
NMTAP	25	0	7
NMTAP	25	48	0
NMTAP	25	96	1
NMTAP	25	96	6
NMTAP	25	144	7
NMTAP	25	192	0
NMTAP	25	192	5
NMTAP	25	240	6
NMTAP	25	288	4
NMTAP	25	288	7
NMHLD	25	336	6	96
NMHLD	26	48	4	96
NMHLD	26	144	2	144
NMTAP	26	240	0
NMTAP	26	288	0
NMHLD	26	336	1	96
NMHLD	27	48	3	96
NMHLD	27	144	5	144
NMTAP	27	240	7
NMTAP	27	288	7
NMTAP	28	0	4
NMTAP	28	0	7
NMTAP	28	48	4
NMTAP	28	96	2
NMTAP	28	96	5
NMTAP	28	144	5
NMTAP	28	192	4
NMTAP	28	192	7
NMTAP	28	240	4
NMTAP	28	288	2
NMTAP	28	288	5
NMTAP	28	336	5
NMTAP	29	0	0
NMTAP	29	0	3
NMTAP	29	48	3
NMTAP	29	96	2
NMTAP	29	96	5
NMTAP	29	144	2
NMTAP	29	192	0
NMTAP	29	192	3
NMTAP	29	240	3
NMTAP	29	288	2
NMTAP	29	288	5
NMHLD	29	336	7	144
NMTAP	30	48	6
NMHLD	30	96	1	144
NMTAP	30	192	2
NMHLD	30	240	5	96
NMSTR	30	336	4
NMSI_	30	336	4	96	48	1
NMSTR	31	48	2
NMSI_	31	48	2	96	48	6
NMSTR	31	144	5
NMSI_	31	144	5	96	48	0
NMSTR	32	0	0
NMSUL	32	0	0	96	144	5
NMSTR	32	0	1
NMSXL	32	0	1	96	144	4
NMSTR	32	288	6
NMSXR	32	288	6	96	144	3
NMSTR	32	288	7
NMSUR	32	288	7	96	144	2
NMTAP	33	192	0
NMTAP	33	192	1
NMTAP	33	288	6
NMTAP	33	288	7
NMSTR	34	0	4
NMSUL	34	0	4	96	144	1
NMSTR	34	0	5
NMSXL	34	0	5	96	144	0
NMSTR	34	288	2
NMSXR	34	288	2	96	144	7
NMSTR	34	288	3
NMSUR	34	288	3	96	144	6
NMTAP	35	192	0
NMTAP	35	192	1
NMTAP	35	288	2
NMTAP	35	288	3
NMSTR	36	0	4
NMSCL	36	0	4	96	144	5
NMSTR	36	0	5
NMSUL	36	0	5	96	144	4
NMSTR	36	288	2
NMSUR	36	288	2	96	144	3
NMSTR	36	288	3
NMSCR	36	288	3	96	144	2
NMTAP	37	192	4
NMTAP	37	192	5
NMTAP	37	288	6
NMTAP	37	288	7
NMSTR	38	0	0
NMSCL	38	0	0	96	144	1
NMSTR	38	0	1
NMSUL	38	0	1	96	144	0
NMSTR	38	288	6
NMSUR	38	288	6	96	144	7
NMSTR	38	288	7
NMSCR	38	288	7	96	144	6
NMTAP	39	288	1
NMTAP	39	288	6
NMTAP	39	336	2
NMTAP	39	336	5
NMSTR	40	0	3
NMSSL	40	0	3	96	192	7
NMSTR	40	0	4
NMSSR	40	0	4	96	192	0
NMTAP	41	96	0
NMTAP	41	96	7
NMSTR	41	144	0
NMSSL	41	144	0	96	48	4
NMSTR	41	144	7
NMSSR	41	144	7	96	48	3
NMSTR	41	240	0
NMSCR	41	240	0	96	192	7
NMSTR	41	240	7
NMSCL	41	240	7	96	192	0
NMTAP	43	96	2
NMTAP	43	96	5
NMTAP	43	144	2
NMTAP	43	144	5
NMTAP	43	240	1
NMTAP	43	240	6
NMTAP	43	336	0
NMTAP	43	336	7
NMTAP	44	0	0
NMTAP	44	8	1
NMTAP	44	16	2
NMTAP	44	48	0
NMTAP	44	56	1
NMTAP	44	64	2
NMTAP	44	144	7
NMTAP	44	152	6
NMTAP	44	160	5
NMTAP	44	192	7
NMTAP	44	200	6
NMTAP	44	208	5
NMTAP	44	288	1
NMTAP	44	296	2
NMTAP	44	304	3
NMTAP	44	336	1
NMTAP	44	344	2
NMTAP	44	352	3
NMTAP	45	48	6
NMTAP	45	56	5
NMTAP	45	64	4
NMTAP	45	96	6
NMTAP	45	104	5
NMTAP	45	112	4
NMTAP	45	168	2
NMTAP	45	192	4
NMTAP	45	240	3
NMTAP	45	288	5
NMTAP	45	312	3
NMTAP	45	336	4
NMHLD	46	0	1	96
NMTAP	46	0	5
NMTAP	46	96	3
NMTAP	46	144	2
NMSTR	46	144	3
NMSI_	46	144	3	96	48	6
NMTAP	46	240	5
NMSTR	46	336	4
NMSI_	46	336	4	96	48	1
NMTAP	46	336	5
NMTAP	47	48	2
NMSTR	47	144	2
NMSI_	47	144	2	96	48	7
NMTAP	47	144	3
NMTAP	47	240	5
NMTAP	47	336	4
NMSTR	47	336	5
NMSCR	47	336	5	96	144	2
NMTAP	48	240	3
NMTAP	48	288	2
NMSTR	48	336	2
NMSCL	48	336	2	96	144	5
NMTAP	49	240	4
NMTAP	49	288	4
NMSTR	49	336	5
NMSI_	49	336	5	96	48	0
NMSTR	50	48	1
NMSI_	50	48	1	96	48	4
NMTAP	50	144	2
NMTAP	50	192	0
NMTAP	50	240	6
NMTAP	50	288	4
NMSTR	50	336	2
NMSI_	50	336	2	96	48	7
NMSTR	51	48	6
NMSI_	51	48	6	96	48	3
NMTAP	51	240	4
NMTAP	51	288	2
NMSTR	51	336	6
NMSI_	51	336	6	96	48	1
NMSTR	52	48	2
NMSI_	52	48	2	96	48	5
NMSTR	52	240	4
NMSI_	52	240	4	96	48	0
NMTAP	52	288	4
BRTAP	52	336	4
NMSTR	53	48	3
NMSI_	53	48	3	96	48	7
NMTAP	53	96	3
BRTAP	53	144	3
NMSTR	53	240	4
NMSI_	53	240	4	96	48	1
NMTAP	53	288	4
NMSTR	53	336	4
NMSI_	53	336	4	96	48	0
NMSTR	54	48	4
NMSI_	54	48	4	96	48	7
NMSTR	54	240	3
NMSI_	54	240	3	96	48	6
NMTAP	54	288	3
NMSTR	54	336	3
NMSI_	54	336	3	96	48	7
NMSTR	55	48	3
NMSI_	55	48	3	96	48	0
NMSTR	55	144	3
NMSI_	55	144	3	96	48	1
NMSTR	55	240	3
NMSCL	55	240	3	96	240	4
NMTAP	56	240	3
NMTAP	56	240	4
NMTAP	56	288	2
NMTAP	56	288	5
NMSTR	56	336	1
NMSLR	56	336	1	96	144	7
NMSTR	56	336	6
NMSLL	56	336	6	96	144	0
NMTAP	57	240	1
NMTAP	57	288	6
NMHLD	57	336	0	96
NMTAP	57	336	7
NMHLD	58	48	3	96
NMHLD	58	144	0	96
NMTAP	58	192	5
NMTAP	58	240	4
NMTAP	58	288	3
NMHLD	58	336	7	96
NMHLD	59	48	4	96
NMHLD	59	144	7	96
NMSTR	59	240	5
NMSUR	59	240	5	96	96	2
NMTAP	59	288	5
BRTAP	59	336	5
NMSTR	60	48	3
NMSF_	60	48	3	96	96	7
NMTAP	60	96	3
BRTAP	60	144	3
NMSTR	60	336	5
NMSI_	60	336	5	96	96	1
NMSTR	61	48	1
NMSCL	61	48	1	96	96	6
NMSTR	61	144	6
NMSI_	61	144	6	96	96	2
NMSTR	61	288	3
NMSSR	61	288	3	96	672	7
NMHLD	61	336	3	720
NMHLD	64	0	7	672
NMTAP	64	240	2
NMTAP	64	288	1
NMTAP	64	336	0
NMTAP	65	48	6
NMTAP	65	96	0
NMTAP	65	144	1
NMTAP	65	240	0
NMTAP	65	288	6
NMTAP	66	0	0
NMTAP	66	8	7
NMTAP	66	16	6
NMHLD	66	24	5	72
NMTAP	66	144	4
NMTAP	66	152	3
NMTAP	66	160	2
NMHLD	66	168	1	72
NMTAP	66	288	7
NMTAP	66	296	0
NMTAP	66	304	1
NMHLD	66	312	2	72
NMTAP	67	48	3
NMTAP	67	56	4
NMTAP	67	64	5
NMHLD	67	72	6	984
NMTAP	68	0	0
NMTAP	68	48	0
NMTAP	68	96	7
NMTAP	68	144	7
NMTAP	68	192	5
NMTAP	68	240	5
NMTAP	68	288	4
NMTAP	68	336	4
NMTAP	69	0	3
NMTAP	69	48	3
NMTAP	69	96	2
NMTAP	69	144	2
NMTAP	69	192	1
NMTAP	69	240	1
NMTAP	69	288	0
NMTAP	69	336	0
NMSTR	70	0	3
NMSXL	70	0	3	96	192	2
NMSTR	70	0	7
NMSXL	70	0	7	96	192	6
NMSTR	71	0	1
NMSXL	71	0	1	96	192	0
NMSTR	71	0	5
NMSXL	71	0	5	96	192	4
NMSTR	72	0	3
NMSXR	72	0	3	96	192	4
NMSTR	72	0	7
NMSXR	72	0	7	96	192	0
NMSTR	73	0	1
NMSXR	73	0	1	96	192	2
NMSTR	73	0	5
NMSXR	73	0	5	96	192	6
NMTAP	74	0	0
NMTAP	74	0	2
NMTAP	74	48	2
NMTAP	74	96	2
NMTAP	74	96	3
NMTAP	74	144	3
NMTAP	74	192	3
NMTAP	74	192	4
NMTAP	74	240	4
NMTAP	74	288	4
NMTAP	74	288	5
NMTAP	74	336	5
NMTAP	75	0	5
NMTAP	75	0	7
NMTAP	75	48	5
NMTAP	75	96	4
NMTAP	75	96	5
NMTAP	75	144	4
NMTAP	75	192	3
NMTAP	75	192	4
NMTAP	75	240	3
NMTAP	75	288	2
NMTAP	75	288	3
NMTAP	75	336	2
NMTAP	76	0	0
NMTAP	76	0	2
NMTAP	76	48	2
NMTAP	76	96	2
NMTAP	76	96	3
NMTAP	76	144	3
NMTAP	76	192	3
NMTAP	76	192	4
NMTAP	76	240	4
NMTAP	76	288	4
NMTAP	76	288	5
BRTAP	76	336	1
BRTAP	76	336	2
NMTAP	77	48	3
NMTAP	77	96	2
NMTAP	77	96	3
BRTAP	77	144	5
BRTAP	77	144	6
NMSTR	77	240	5
NMSI_	77	240	5	96	48	2
NMTAP	77	288	5
NMSTR	77	336	5
NMSI_	77	336	5	96	48	1
NMSTR	78	48	5
NMSI_	78	48	5	96	48	0
NMSTR	78	240	2
NMSI_	78	240	2	96	48	5
NMTAP	78	288	2
NMSTR	78	336	2
NMSI_	78	336	2	96	48	6
NMSTR	79	48	2
NMSI_	79	48	2	96	48	7
NMSTR	79	144	2
NMSI_	79	144	2	96	48	0
NMSTR	79	240	2
NMSCL	79	240	2	96	240	3
NMTAP	80	240	5
NMTAP	80	288	5
NMSTR	80	336	5
NMSCR	80	336	5	96	144	2
NMTAP	81	240	7
NMTAP	81	288	7
NMHLD	81	336	1	96
NMTAP	81	336	6
NMHLD	82	48	2	96
NMHLD	82	144	1	96
NMTAP	82	192	0
NMTAP	82	240	6
NMTAP	82	288	4
NMHLD	82	336	5	96
NMHLD	83	48	6	96
NMHLD	83	144	5	96
NMSTR	83	240	1
NMSCL	83	240	1	96	96	6
NMTAP	83	288	1
BRTAP	83	336	1
NMSTR	84	48	4
NMSI_	84	48	4	96	96	0
NMTAP	84	96	4
BRTAP	84	144	4
NMSTR	84	240	3
NMSI_	84	240	3	96	48	5
NMTAP	84	288	3
NMSTR	84	336	3
NMSI_	84	336	3	96	48	1
NMSTR	85	48	3
NMSF_	85	48	3	96	96	7
NMHLD	86	0	1	48
NMTAP	86	96	4
NMTAP	86	96	5
NMTAP	86	144	5
NMTAP	86	192	3
NMTAP	86	240	2
NMTAP	86	288	4
NMTAP	86	336	5
NMHLD	87	0	1	48
NMTAP	87	48	3
NMHLD	87	96	2	48
NMTAP	87	144	4
NMHLD	87	192	3	48
NMTAP	87	240	5
NMHLD	87	288	4	48
NMTAP	87	336	6
NMHLD	88	0	5	48
NMTAP	88	96	0
NMTAP	88	96	1
NMTAP	88	144	1
NMTAP	88	192	7
NMTAP	88	240	6
NMTAP	88	288	0
NMTAP	88	336	1
NMHLD	89	0	5	48
NMTAP	89	48	7
NMHLD	89	96	6	48
NMTAP	89	144	0
NMHLD	89	192	7	48
NMTAP	89	240	1
NMHLD	89	288	0	48
NMTAP	89	336	2
NMHLD	90	0	1	48
NMTAP	90	96	3
NMTAP	90	96	5
NMTAP	90	144	4
NMTAP	90	192	2
NMTAP	90	192	4
NMTAP	90	240	3
NMTAP	90	288	3
NMTAP	90	288	5
NMTAP	90	336	4
NMHLD	91	0	1	48
NMTAP	91	48	3
NMHLD	91	96	5	48
NMTAP	91	144	3
NMHLD	91	192	2	48
NMTAP	91	240	4
NMHLD	91	288	6	48
NMTAP	91	336	4
NMHLD	92	0	2	48
NMTAP	92	96	1
NMTAP	92	96	7
NMTAP	92	144	0
NMTAP	92	192	0
NMTAP	92	192	6
NMTAP	92	240	7
NMTAP	92	288	1
NMTAP	92	288	7
NMTAP	92	336	0
NMHLD	93	0	5	48
NMTAP	93	48	7
NMHLD	93	96	1	48
NMTAP	93	144	7
NMHLD	93	192	6	48
NMTAP	93	240	0
NMHLD	93	288	2	48
NMTAP	93	336	0
NMHLD	94	0	5	48
NMHLD	94	0	7	48
NMTAP	94	96	3
NMHLD	94	144	0	48
NMHLD	94	144	2	48
NMTAP	94	240	4
NMSTR	94	288	1
NMSCL	94	288	1	96	288	2
NMHLD	94	288	6	384

T_REC_TAP	381
T_REC_BRK	13
T_REC_XTP	0
T_REC_BXX	0
T_REC_HLD	57
T_REC_XHO	0
T_REC_BHO	0
T_REC_BXH	0
T_REC_STR	117
T_REC_BST	0
T_REC_XST	0
T_REC_XBS	0
T_REC_TTP	0
T_REC_THO	0
T_REC_SLD	117
T_REC_BSL	0
T_REC_ALL	685
T_NUM_TAP	498
T_NUM_BRK	13
T_NUM_HLD	57
T_NUM_SLD	117
T_NUM_ALL	685
T_JUDGE_TAP	511
T_JUDGE_HLD	158
T_JUDGE_SLD	117
T_JUDGE_ALL	786
TTM_EACHPAIRS	98
TTM_SCR_TAP	249000
TTM_SCR_BRK	33800
TTM_SCR_HLD	57000
TTM_SCR_SLD	175500
TTM_SCR_ALL	515300
TTM_SCR_S	498600
TTM_SCR_SS	514000
TTM_RAT_ACV	10025

