VERSION	0.00.00	1.04.00
FES_MODE	0
BPM_DEF	155.000	155.000	155.000	155.000
MET_DEF	4	4
RESOLUTION	384
CLK_DEF	384
COMPATIBLE_CODE	MA2

BPM	0	0	155.000
MET	0	0	4	4

NMTAP	2	0	1
NMTAP	2	96	3
NMTAP	2	192	5
NMTAP	2	240	5
NMTAP	2	336	4
NMTAP	2	336	6
NMTAP	3	144	7
NMTAP	3	192	7
NMTAP	4	0	6
NMTAP	4	96	4
NMTAP	4	192	2
NMTAP	4	240	2
NMTAP	4	336	1
NMTAP	4	336	3
NMTAP	5	144	0
NMTAP	5	192	0
BRTAP	5	288	7
NMHLD	6	0	6	96
NMTAP	6	96	4
NMHLD	6	192	1	96
NMTAP	6	288	3
NMHLD	7	0	5	96
NMTAP	7	96	4
NMTAP	7	192	0
NMTAP	7	192	7
NMTAP	7	288	0
NMTAP	7	288	7
NMHLD	8	0	1	96
NMTAP	8	96	3
NMHLD	8	192	6	96
NMTAP	8	288	4
NMHLD	9	0	2	96
NMTAP	9	96	3
NMTAP	9	192	3
NMTAP	9	192	4
NMTAP	9	288	4
NMTAP	9	288	5
NMHLD	10	0	6	96
NMTAP	10	96	4
NMHLD	10	192	1	96
NMTAP	10	288	3
NMHLD	11	0	5	96
NMTAP	11	96	4
NMTAP	11	192	0
NMTAP	11	192	7
NMTAP	11	288	0
NMTAP	11	288	7
NMHLD	12	0	1	96
NMTAP	12	96	3
NMHLD	12	192	6	96
NMTAP	12	288	4
NMHLD	13	0	2	96
NMTAP	13	96	3
NMTAP	13	192	1
NMTAP	13	192	4
NMSTR	14	0	0
NMSCR	14	0	0	96	144	3
NMSTR	15	0	7
NMSCL	15	0	7	96	144	4
NMTAP	16	96	1
NMTAP	16	96	3
NMTAP	16	288	2
NMTAP	16	288	3
NMTAP	17	96	1
NMTAP	17	96	3
NMTAP	17	288	3
NMTAP	17	288	4
NMTAP	18	96	4
NMTAP	18	96	6
NMTAP	18	288	4
NMTAP	18	288	5
NMTAP	19	96	4
NMTAP	19	96	6
NMTAP	19	288	3
NMTAP	19	288	4
NMTAP	20	96	2
NMTAP	20	288	0
NMTAP	20	288	1
NMTAP	21	96	6
NMTAP	21	96	7
NMTAP	21	288	5
NMTAP	22	96	6
NMTAP	22	96	7
NMTAP	22	288	0
NMTAP	22	288	1
NMTAP	23	96	2
NMTAP	23	288	3
NMTAP	23	288	4
NMTAP	24	0	2
NMTAP	24	96	1
NMTAP	24	96	3
NMTAP	24	192	1
NMTAP	24	192	3
NMTAP	24	288	4
NMTAP	25	0	6
NMTAP	25	96	5
NMTAP	25	96	7
NMTAP	25	192	5
NMTAP	25	192	7
NMTAP	25	288	0
NMTAP	26	0	1
NMTAP	26	96	0
NMTAP	26	96	2
NMTAP	26	192	0
NMTAP	26	192	2
NMTAP	26	288	7
NMTAP	27	0	5
NMTAP	27	96	4
NMTAP	27	96	6
NMTAP	27	192	4
NMTAP	27	192	6
NMTAP	27	288	2
NMTAP	28	0	0
NMTAP	28	96	1
NMTAP	28	96	7
NMTAP	28	192	1
NMTAP	28	192	7
NMTAP	28	288	6
NMTAP	29	0	4
NMTAP	29	96	3
NMTAP	29	96	5
NMTAP	29	192	3
NMTAP	29	192	5
NMTAP	29	288	4
NMTAP	30	0	7
NMTAP	30	96	0
NMTAP	30	96	6
NMTAP	30	192	0
NMTAP	30	192	6
NMTAP	30	288	1
NMTAP	31	0	3
NMTAP	31	96	2
NMTAP	31	96	4
BRTAP	31	192	1
BRTAP	31	192	5
NMSTR	32	0	2
NMSI_	32	0	2	96	96	5
NMSTR	32	192	6
NMSI_	32	192	6	96	96	1
NMSTR	33	0	2
NMSI_	33	0	2	96	96	7
NMSTR	33	192	6
NMSI_	33	192	6	96	96	3
NMSTR	34	0	1
NMSI_	34	0	1	96	96	6
NMSTR	34	192	4
NMSCL	34	192	4	96	96	1
NMTAP	35	192	7
NMSTR	36	0	6
NMSI_	36	0	6	96	96	2
NMSTR	36	192	0
NMSI_	36	192	0	96	96	3
NMSTR	37	0	4
NMSI_	37	0	4	96	96	7
NMSTR	37	192	2
NMSI_	37	192	2	96	96	6
NMSTR	38	0	7
NMSCL	38	0	7	96	96	4
NMSTR	38	192	0
NMSCR	38	192	0	96	96	3
NMTAP	39	192	1
NMHLD	40	0	2	96
NMHLD	40	0	3	96
NMTAP	40	192	1
NMTAP	40	192	2
NMTAP	40	288	0
NMHLD	41	0	4	96
NMHLD	41	0	5	96
NMTAP	41	192	5
NMTAP	41	192	6
NMTAP	41	288	7
NMHLD	42	0	6	192
NMHLD	42	192	4	192
NMHLD	43	0	2	192
NMTAP	43	192	0
NMTAP	44	0	6
NMTAP	44	48	6
NMTAP	44	144	4
NMTAP	44	192	4
NMTAP	44	288	2
NMTAP	44	336	2
NMTAP	45	48	0
NMHLD	45	96	0	96
BRTAP	45	288	0
NMTAP	46	0	4
NMTAP	46	96	5
NMTAP	46	96	7
NMTAP	46	192	0
NMTAP	46	288	0
NMTAP	46	288	1
NMTAP	47	0	3
NMTAP	47	96	0
NMTAP	47	96	2
NMTAP	47	192	7
NMTAP	47	288	6
NMTAP	47	288	7
NMTAP	48	0	5
NMTAP	48	96	4
NMTAP	48	96	6
NMTAP	48	192	7
NMTAP	48	288	0
NMTAP	48	288	6
NMTAP	49	0	2
NMTAP	49	96	1
NMTAP	49	96	3
NMTAP	49	192	0
NMTAP	49	288	1
NMTAP	49	288	7
NMHLD	50	0	6	96
NMTAP	50	96	7
NMHLD	50	192	1	96
NMTAP	50	288	0
NMHLD	51	0	5	96
NMTAP	51	96	7
NMHLD	51	192	2	96
NMTAP	51	288	0
NMTAP	52	0	7
NMTAP	52	96	4
NMTAP	52	96	5
NMTAP	52	192	0
NMTAP	52	288	2
NMTAP	52	288	3
NMSTR	53	0	1
NMSCR	53	0	1	96	96	4
NMSTR	53	0	5
NMSCR	53	0	5	96	96	0
NMTAP	54	0	3
NMTAP	54	96	0
NMTAP	54	96	2
NMTAP	54	192	7
NMTAP	54	288	6
NMTAP	54	288	7
NMTAP	55	0	4
NMTAP	55	96	5
NMTAP	55	96	7
NMTAP	55	192	0
NMTAP	55	288	0
NMTAP	55	288	1
NMTAP	56	0	2
NMTAP	56	96	1
NMTAP	56	96	3
NMTAP	56	192	0
NMTAP	56	288	1
NMTAP	56	288	7
NMTAP	57	0	5
NMTAP	57	96	4
NMTAP	57	96	6
NMTAP	57	192	7
NMTAP	57	288	0
NMTAP	57	288	6
NMHLD	58	0	1	96
NMTAP	58	96	0
NMHLD	58	192	6	96
NMSTR	58	288	7
NMSCR	58	288	7	96	96	2
NMTAP	59	288	6
NMTAP	59	336	6
NMTAP	60	48	0
NMTAP	60	48	7
NMTAP	60	144	1
NMTAP	60	240	0
NMTAP	60	240	7
NMTAP	60	336	6
NMTAP	61	48	4
NMTAP	61	48	5
NMTAP	61	144	3
NMTAP	61	144	4
NMTAP	61	240	2
NMTAP	61	240	3
NMSTR	61	288	2
NMSI_	61	288	2	96	192	7
NMSTR	61	288	3
NMSI_	61	288	3	96	192	6
NMTAP	63	192	7
NMHLD	64	0	6	288
NMHLD	64	192	4	96
NMHLD	65	0	1	288
NMHLD	65	192	3	96
BRTAP	66	0	5
BRTAP	66	144	0
BRTAP	66	144	7
BRTAP	66	288	2
NMSTR	67	48	4
NMSI_	67	48	4	96	192	1
NMSTR	67	48	5
NMSI_	67	48	5	96	192	0
NMTAP	68	192	0
NMTAP	68	288	7
NMTAP	69	0	6
NMTAP	69	96	5
NMTAP	69	192	4
NMSTR	69	288	3
NMSI_	69	288	3	96	192	0
NMSTR	70	288	4
NMSI_	70	288	4	96	192	7
NMSTR	71	288	3
NMSCL	71	288	3	96	192	0
NMSTR	72	288	4
NMSCR	72	288	4	96	192	7
NMTAP	73	288	3
NMTAP	74	0	3
NMTAP	74	96	2
NMTAP	74	192	1
NMTAP	74	288	0
NMTAP	75	0	7
NMTAP	75	96	6
NMTAP	75	192	5
NMTAP	75	288	4
NMTAP	76	0	3
NMTAP	76	96	2
NMTAP	76	192	1
NMTAP	76	288	0
NMTAP	76	288	2
NMTAP	76	336	0
NMTAP	76	336	2
NMTAP	77	96	5
NMTAP	77	96	7
NMTAP	77	144	5
NMTAP	77	144	7
NMTAP	77	288	3
NMTAP	77	288	4
NMTAP	78	0	2
NMTAP	78	96	1
NMTAP	78	96	7
NMTAP	78	192	0
NMTAP	78	192	6
NMTAP	78	288	4
NMTAP	79	0	5
NMTAP	79	96	0
NMTAP	79	96	6
NMTAP	79	192	1
NMTAP	79	192	7
NMTAP	79	288	3
NMTAP	80	0	2
NMTAP	80	96	1
NMTAP	80	96	7
NMTAP	80	192	0
NMTAP	80	192	6
NMSTR	80	288	5
NMSI_	80	288	5	96	96	0
NMSTR	81	96	1
NMSI_	81	96	1	96	96	4
NMTAP	81	288	6
NMTAP	82	0	6
NMTAP	82	96	3
NMTAP	82	96	5
NMTAP	82	192	2
NMTAP	82	192	4
NMTAP	82	288	0
NMTAP	82	288	6
NMTAP	83	0	1
NMTAP	83	96	2
NMTAP	83	96	4
NMTAP	83	192	3
NMTAP	83	192	5
NMTAP	83	288	7
BRTAP	83	336	7
NMTAP	84	48	1
NMTAP	84	48	3
BRTAP	84	144	0
NMTAP	84	240	4
NMTAP	84	240	6
NMTAP	84	336	6
NMTAP	84	336	7
NMTAP	85	48	2
NMTAP	85	48	3
NMTAP	85	144	0
NMTAP	85	144	1
NMSTR	85	240	4
NMSCL	85	240	4	96	240	1
NMSTR	85	240	5
NMSCR	85	240	5	96	240	0
NMTAP	87	0	1
NMTAP	87	96	0
NMTAP	87	96	1
NMTAP	87	192	6
NMTAP	87	288	6
NMTAP	87	288	7
NMTAP	88	0	0
NMTAP	88	96	0
NMTAP	88	192	1
NMTAP	88	192	3
NMTAP	88	288	2
NMTAP	88	288	3
NMTAP	89	0	5
NMTAP	89	96	4
NMTAP	89	96	5
NMTAP	89	192	2
NMTAP	89	288	2
NMTAP	89	288	3
NMTAP	90	0	4
NMTAP	90	96	4
NMTAP	90	192	4
NMTAP	90	192	5
NMTAP	90	288	5
NMTAP	90	288	7
NMTAP	91	0	6
NMTAP	91	96	6
NMTAP	91	96	7
NMTAP	91	192	1
NMTAP	91	288	0
NMTAP	91	288	1
NMTAP	92	0	7
NMTAP	92	96	7
NMTAP	92	192	4
NMTAP	92	192	6
NMTAP	92	288	4
NMTAP	92	288	5
NMTAP	93	0	2
NMTAP	93	96	2
NMTAP	93	96	3
NMTAP	93	192	5
NMTAP	93	288	4
NMTAP	93	288	5
NMTAP	94	0	1
NMTAP	94	96	0
NMTAP	94	96	7
NMSTR	94	192	6
NMSCR	94	192	6	96	480	1

T_REC_TAP	319
T_REC_BRK	10
T_REC_XTP	0
T_REC_BXX	0
T_REC_HLD	30
T_REC_XHO	0
T_REC_BHO	0
T_REC_BXH	0
T_REC_STR	30
T_REC_BST	0
T_REC_XST	0
T_REC_XBS	0
T_REC_TTP	0
T_REC_THO	0
T_REC_SLD	30
T_REC_BSL	0
T_REC_ALL	419
T_NUM_TAP	349
T_NUM_BRK	10
T_NUM_HLD	30
T_NUM_SLD	30
T_NUM_ALL	419
T_JUDGE_TAP	359
T_JUDGE_HLD	74
T_JUDGE_SLD	30
T_JUDGE_ALL	463
TTM_EACHPAIRS	106
TTM_SCR_TAP	174500
TTM_SCR_BRK	26000
TTM_SCR_HLD	30000
TTM_SCR_SLD	45000
TTM_SCR_ALL	275500
TTM_SCR_S	266300
TTM_SCR_SS	274500
TTM_RAT_ACV	10036

