VERSION	0.00.00	1.04.00
FES_MODE	0
BPM_DEF	155.000	155.000	155.000	155.000
MET_DEF	4	4
RESOLUTION	384
CLK_DEF	384
COMPATIBLE_CODE	MA2

BPM	0	0	155.000
MET	0	0	4	4

NMTAP	6	0	4
NMTAP	6	96	4
NMTAP	6	192	5
NMTAP	6	288	5
NMTAP	7	0	6
NMTAP	7	96	6
NMTAP	7	192	0
NMTAP	7	192	7
NMTAP	8	0	0
NMTAP	8	96	0
NMTAP	8	192	1
NMTAP	8	288	1
NMTAP	9	0	2
NMTAP	9	96	2
NMTAP	9	192	3
NMTAP	9	192	4
NMTAP	10	0	3
NMTAP	10	96	3
NMTAP	10	192	2
NMTAP	10	288	2
NMTAP	11	0	1
NMTAP	11	96	1
NMTAP	11	192	0
NMTAP	11	192	7
NMTAP	12	0	7
NMTAP	12	96	7
NMTAP	12	192	6
NMTAP	12	288	6
NMTAP	13	0	5
NMTAP	13	96	5
NMTAP	13	192	3
NMTAP	13	192	4
NMTAP	14	0	2
NMTAP	14	192	2
NMTAP	14	192	3
NMTAP	15	0	4
NMTAP	15	192	3
NMTAP	15	192	4
NMHLD	16	0	5	192
NMHLD	16	192	4	192
NMHLD	17	0	3	192
NMTAP	17	192	2
NMHLD	18	0	2	192
NMHLD	18	192	3	192
NMHLD	19	0	4	192
NMTAP	19	192	5
NMHLD	20	0	6	192
NMHLD	20	192	5	192
NMHLD	21	0	4	192
NMTAP	21	192	3
NMHLD	22	0	1	192
NMHLD	22	192	2	192
NMHLD	23	0	3	192
NMTAP	23	192	4
NMTAP	24	0	3
NMTAP	24	96	3
NMTAP	24	192	2
NMTAP	25	0	1
NMTAP	25	96	1
NMTAP	25	192	0
NMTAP	26	0	7
NMTAP	26	96	7
NMTAP	26	192	6
NMTAP	27	0	5
NMTAP	27	96	5
NMTAP	27	192	4
NMTAP	27	192	5
NMTAP	28	0	4
NMTAP	28	96	4
NMTAP	28	192	5
NMTAP	29	0	6
NMTAP	29	96	6
NMTAP	29	192	7
NMTAP	30	0	0
NMTAP	30	96	0
NMTAP	30	192	1
NMTAP	31	0	2
NMTAP	31	96	2
NMTAP	31	192	2
NMTAP	31	192	3
NMSTR	32	0	1
NMSI_	32	0	1	96	192	4
NMSTR	33	0	5
NMSI_	33	0	5	96	192	0
NMSTR	34	0	1
NMSI_	34	0	1	96	192	5
NMTAP	35	0	6
NMTAP	35	192	6
NMTAP	35	192	7
NMSTR	36	0	6
NMSI_	36	0	6	96	192	2
NMSTR	37	0	0
NMSI_	37	0	0	96	192	4
NMSTR	38	0	6
NMSI_	38	0	6	96	192	3
NMTAP	39	0	2
NMTAP	39	192	2
NMTAP	39	192	3
NMSTR	40	0	1
NMSXL	40	0	1	96	480	4
NMSTR	42	0	6
NMSXR	42	0	6	96	480	3
NMSTR	44	0	2
NMSUR	44	0	2	96	480	5
NMTAP	46	0	6
NMTAP	46	0	7
NMTAP	46	96	6
NMTAP	46	96	7
NMTAP	46	192	5
NMTAP	46	288	5
NMTAP	47	0	4
NMTAP	47	96	4
NMTAP	47	192	2
NMTAP	47	192	3
NMTAP	48	0	0
NMTAP	48	0	1
NMTAP	48	96	0
NMTAP	48	96	1
NMTAP	48	192	2
NMTAP	48	288	2
NMTAP	49	0	3
NMTAP	49	96	3
NMTAP	49	192	4
NMTAP	49	192	5
NMTAP	50	0	4
NMTAP	50	0	5
NMTAP	50	96	4
NMTAP	50	96	5
NMTAP	50	192	6
NMTAP	50	288	6
NMTAP	51	0	7
NMTAP	51	96	7
NMTAP	51	192	0
NMTAP	51	192	1
NMTAP	52	0	2
NMTAP	52	0	3
NMTAP	52	96	2
NMTAP	52	96	3
NMTAP	52	192	1
NMTAP	52	288	1
NMTAP	53	0	0
NMTAP	53	96	0
NMTAP	53	192	6
NMTAP	53	192	7
NMTAP	54	0	6
NMTAP	54	0	7
NMTAP	54	96	6
NMTAP	54	96	7
NMTAP	54	192	5
NMTAP	54	288	4
NMTAP	55	0	3
NMTAP	55	96	2
NMTAP	55	192	0
NMTAP	55	192	1
NMTAP	56	0	0
NMTAP	56	0	1
NMTAP	56	96	0
NMTAP	56	96	1
NMTAP	56	192	2
NMTAP	56	288	3
NMTAP	57	0	4
NMTAP	57	96	5
NMTAP	57	192	6
NMTAP	57	192	7
NMTAP	58	0	4
NMTAP	58	0	5
NMTAP	58	96	4
NMTAP	58	96	5
NMTAP	58	192	6
NMTAP	58	288	7
NMTAP	59	0	0
NMTAP	59	96	1
NMTAP	59	192	2
NMTAP	59	192	3
NMTAP	60	0	2
NMTAP	60	0	3
NMTAP	60	96	2
NMTAP	60	96	3
NMTAP	60	192	1
NMTAP	60	288	0
NMTAP	61	0	7
NMTAP	61	96	6
BRTAP	61	192	4
BRTAP	61	192	5
NMHLD	62	0	5	576
NMTAP	62	192	4
NMTAP	63	192	4
NMHLD	64	0	6	576
NMTAP	64	192	7
NMTAP	65	192	7
NMHLD	66	0	1	576
NMTAP	66	192	0
NMTAP	67	192	0
NMHLD	68	0	2	576
NMTAP	68	192	3
NMTAP	69	192	3
NMSTR	70	0	1
NMSXR	70	0	1	96	480	4
NMSTR	72	0	6
NMSXL	72	0	6	96	480	3
NMSTR	74	0	1
NMSUR	74	0	1	96	480	4
NMSTR	76	0	6
NMSUL	76	0	6	96	480	3
NMTAP	78	0	2
NMTAP	78	96	2
NMTAP	78	192	2
NMTAP	78	288	2
NMTAP	78	288	3
NMTAP	79	0	1
NMTAP	79	96	1
NMTAP	79	192	1
NMTAP	79	288	0
NMTAP	79	288	1
NMTAP	80	0	7
NMTAP	80	96	7
NMTAP	80	192	7
NMTAP	80	288	6
NMTAP	80	288	7
NMTAP	81	0	4
NMTAP	81	0	5
NMTAP	81	96	4
NMTAP	81	96	5
NMTAP	81	192	3
NMTAP	81	192	6
NMTAP	82	0	5
NMTAP	82	96	5
NMTAP	82	192	5
NMTAP	82	288	4
NMTAP	82	288	5
NMTAP	83	0	6
NMTAP	83	96	6
NMTAP	83	192	6
NMTAP	83	288	6
NMTAP	83	288	7
NMTAP	84	0	0
NMTAP	84	96	0
NMTAP	84	192	0
NMTAP	84	288	0
NMTAP	84	288	1
NMTAP	85	0	2
NMTAP	85	0	3
NMTAP	85	96	2
NMTAP	85	96	3
NMTAP	85	192	1
NMTAP	85	192	4
NMTAP	86	0	3
NMTAP	86	96	2
NMTAP	86	192	1
NMTAP	86	288	0
NMTAP	87	0	7
NMTAP	87	96	6
NMTAP	87	192	4
NMTAP	87	192	5
NMTAP	88	0	4
NMTAP	88	96	5
NMTAP	88	192	6
NMTAP	88	288	7
NMTAP	89	0	0
NMTAP	89	96	1
NMTAP	89	192	2
NMTAP	89	192	3
NMTAP	90	0	3
NMTAP	90	96	2
NMTAP	90	192	1
NMTAP	90	288	0
NMTAP	91	0	7
NMTAP	91	96	6
NMTAP	91	192	5
NMTAP	91	288	4
NMTAP	92	0	3
NMTAP	92	96	2
NMTAP	92	192	1
NMTAP	92	288	0
NMTAP	93	0	0
NMTAP	93	0	7
NMTAP	93	96	0
NMTAP	93	96	7
BRTAP	93	192	1
BRTAP	93	192	6
NMSTR	94	0	0
NMSI_	94	0	0	96	288	3
NMSTR	94	0	7
NMSI_	94	0	7	96	288	4

T_REC_TAP	234
T_REC_BRK	4
T_REC_XTP	0
T_REC_BXX	0
T_REC_HLD	16
T_REC_XHO	0
T_REC_BHO	0
T_REC_BXH	0
T_REC_STR	15
T_REC_BST	0
T_REC_XST	0
T_REC_XBS	0
T_REC_TTP	0
T_REC_THO	0
T_REC_SLD	15
T_REC_BSL	0
T_REC_ALL	284
T_NUM_TAP	249
T_NUM_BRK	4
T_NUM_HLD	16
T_NUM_SLD	15
T_NUM_ALL	284
T_JUDGE_TAP	253
T_JUDGE_HLD	96
T_JUDGE_SLD	15
T_JUDGE_ALL	364
TTM_EACHPAIRS	52
TTM_SCR_TAP	124500
TTM_SCR_BRK	10400
TTM_SCR_HLD	16000
TTM_SCR_SLD	22500
TTM_SCR_ALL	173400
TTM_SCR_S	167850
TTM_SCR_SS	173000
TTM_RAT_ACV	10023

