VERSION	0.00.00	1.04.00
FES_MODE	0
BPM_DEF	155.000	155.000	155.000	155.000
MET_DEF	4	4
RESOLUTION	384
CLK_DEF	384
COMPATIBLE_CODE	MA2

BPM	0	0	155.000
MET	0	0	4	4

NMTAP	2	0	0
NMTAP	2	192	0
NMTAP	3	0	0
NMTAP	4	0	7
NMTAP	4	192	7
NMTAP	5	0	0
NMTAP	5	0	7
NMTAP	6	0	7
NMTAP	6	192	7
NMTAP	7	0	6
NMTAP	8	0	5
NMTAP	8	192	5
NMTAP	9	0	4
NMTAP	10	0	3
NMTAP	10	192	3
NMTAP	11	0	2
NMTAP	12	0	1
NMTAP	12	192	1
NMTAP	13	0	0
NMTAP	14	0	0
NMTAP	14	0	7
NMTAP	15	0	0
NMTAP	15	0	7
NMTAP	16	0	0
NMTAP	16	192	0
NMTAP	17	0	1
NMTAP	17	192	1
NMTAP	18	0	2
NMTAP	18	192	2
NMTAP	19	0	2
NMTAP	19	0	3
NMTAP	20	0	4
NMTAP	20	192	4
NMTAP	21	0	5
NMTAP	21	192	5
NMTAP	22	0	6
NMTAP	22	192	6
NMTAP	23	0	6
NMTAP	23	0	7
NMTAP	24	0	7
NMTAP	24	96	7
NMTAP	24	192	7
NMTAP	25	0	6
NMTAP	25	192	6
NMTAP	26	0	5
NMTAP	26	192	5
NMTAP	27	0	3
NMTAP	27	0	4
NMTAP	28	0	3
NMTAP	28	96	3
NMTAP	28	192	3
NMTAP	29	0	2
NMTAP	29	192	2
NMTAP	30	0	1
NMTAP	30	192	1
NMTAP	31	0	0
NMTAP	31	0	7
NMHLD	32	0	0	288
NMHLD	32	0	1	288
NMHLD	34	0	2	288
NMHLD	34	0	3	288
NMHLD	36	0	4	288
NMHLD	36	0	5	288
NMHLD	38	0	6	288
NMHLD	38	0	7	288
NMSTR	40	0	6
NMSI_	40	0	6	96	288	3
NMSTR	42	0	2
NMSI_	42	0	2	96	288	7
NMSTR	44	0	6
NMSI_	44	0	6	96	288	2
NMTAP	46	0	0
NMTAP	46	96	0
NMTAP	46	192	0
NMTAP	47	0	1
NMTAP	47	96	1
NMTAP	47	192	1
NMTAP	48	0	2
NMTAP	48	96	2
NMTAP	48	192	2
NMTAP	49	0	2
NMTAP	49	0	3
NMTAP	49	192	2
NMTAP	49	192	3
NMTAP	50	0	4
NMTAP	50	96	4
NMTAP	50	192	4
NMTAP	51	0	5
NMTAP	51	96	5
NMTAP	51	192	5
NMTAP	52	0	6
NMTAP	52	96	6
NMTAP	52	192	6
NMTAP	53	0	6
NMTAP	53	0	7
NMTAP	53	192	6
NMTAP	53	192	7
NMTAP	54	0	7
NMTAP	54	96	7
NMTAP	54	192	7
NMTAP	55	0	6
NMTAP	55	96	6
NMTAP	55	192	6
NMTAP	56	0	5
NMTAP	56	96	5
NMTAP	56	192	5
NMTAP	57	0	3
NMTAP	57	0	4
NMTAP	57	192	3
NMTAP	57	192	4
NMTAP	58	0	3
NMTAP	58	96	3
NMTAP	58	192	3
NMTAP	59	0	2
NMTAP	59	96	2
NMTAP	59	192	2
NMTAP	60	0	1
NMTAP	60	96	1
NMTAP	60	192	1
NMTAP	61	0	0
NMTAP	61	0	7
NMSTR	62	0	0
NMSI_	62	0	0	96	288	3
NMSTR	62	0	7
NMSI_	62	0	7	96	288	4
NMTAP	64	0	3
NMTAP	64	0	4
NMTAP	64	192	3
NMTAP	64	192	4
NMTAP	65	0	3
NMTAP	65	0	4
NMSTR	66	0	3
NMSI_	66	0	3	96	288	0
NMSTR	66	0	4
NMSI_	66	0	4	96	288	7
NMTAP	68	0	0
NMTAP	68	0	7
NMTAP	68	192	0
NMTAP	68	192	7
NMTAP	69	0	0
NMTAP	69	0	7
NMHLD	70	0	0	384
NMHLD	70	0	1	384
NMHLD	72	0	2	384
NMHLD	72	0	3	384
NMHLD	74	0	4	384
NMHLD	74	0	5	384
NMHLD	76	0	6	336
NMHLD	76	0	7	336
NMTAP	78	0	7
NMTAP	78	96	7
NMTAP	78	192	7
NMTAP	78	288	7
NMTAP	79	0	6
NMTAP	79	96	6
NMTAP	79	192	6
NMTAP	79	192	7
NMTAP	80	0	5
NMTAP	80	96	5
NMTAP	80	192	5
NMTAP	80	288	5
NMTAP	81	0	4
NMTAP	81	96	4
NMTAP	81	192	3
NMTAP	81	192	4
NMTAP	82	0	3
NMTAP	82	96	3
NMTAP	82	192	3
NMTAP	82	288	3
NMTAP	83	0	2
NMTAP	83	96	2
NMTAP	83	192	2
NMTAP	83	192	3
NMTAP	84	0	1
NMTAP	84	96	1
NMTAP	84	192	1
NMTAP	84	288	1
NMTAP	85	0	0
NMTAP	85	0	7
BRTAP	86	0	0
NMTAP	86	96	0
NMTAP	86	192	1
NMTAP	86	288	1
NMTAP	87	0	2
NMTAP	87	96	2
NMTAP	87	192	2
NMTAP	87	192	3
NMTAP	88	0	4
NMTAP	88	96	4
NMTAP	88	192	5
NMTAP	88	288	5
NMTAP	89	0	6
NMTAP	89	96	6
NMTAP	89	192	6
NMTAP	89	192	7
NMTAP	90	0	7
NMTAP	90	96	7
NMTAP	90	192	6
NMTAP	90	288	6
NMTAP	91	0	5
NMTAP	91	96	5
NMTAP	91	192	3
NMTAP	91	192	4
NMTAP	92	0	3
NMTAP	92	96	3
NMTAP	92	192	2
NMTAP	92	288	2
NMTAP	93	0	1
NMTAP	93	96	1
NMTAP	93	192	0
NMTAP	93	192	7
NMHLD	94	0	1	288
NMHLD	94	0	6	288

T_REC_TAP	180
T_REC_BRK	1
T_REC_XTP	0
T_REC_BXX	0
T_REC_HLD	18
T_REC_XHO	0
T_REC_BHO	0
T_REC_BXH	0
T_REC_STR	7
T_REC_BST	0
T_REC_XST	0
T_REC_XBS	0
T_REC_TTP	0
T_REC_THO	0
T_REC_SLD	7
T_REC_BSL	0
T_REC_ALL	213
T_NUM_TAP	187
T_NUM_BRK	1
T_NUM_HLD	18
T_NUM_SLD	7
T_NUM_ALL	213
T_JUDGE_TAP	188
T_JUDGE_HLD	122
T_JUDGE_SLD	7
T_JUDGE_ALL	317
TTM_EACHPAIRS	39
TTM_SCR_TAP	93500
TTM_SCR_BRK	2600
TTM_SCR_HLD	18000
TTM_SCR_SLD	10500
TTM_SCR_ALL	124600
TTM_SCR_S	120800
TTM_SCR_SS	124500
TTM_RAT_ACV	10008

