VERSION	0.00.00	1.05.00
FES_MODE	0
BPM_DEF	192.000	192.000	192.000	192.000
MET_DEF	4	4
RESOLUTION	384
CLK_DEF	384
COMPATIBLE_CODE	MA2

BPM	0	0	192.000
MET	0	0	4	4

NMTAP	1	240	2
NMTAP	1	288	2
NMHLD	2	0	1	96
NMTAP	2	96	3
NMTAP	2	144	3
NMTAP	2	240	4
NMTAP	2	288	4
NMHLD	3	0	5	96
NMTAP	3	96	3
NMTAP	3	144	3
NMTAP	3	240	2
NMTAP	3	288	2
NMHLD	4	0	1	96
NMHLD	4	96	3	96
NMHLD	4	192	4	96
NMHLD	4	288	6	192
NMTAP	5	0	5
NMTAP	5	96	4
NMTAP	5	144	4
NMTAP	5	240	3
NMTAP	5	240	4
NMTAP	5	336	1
NMTAP	5	336	3
NMTAP	6	0	1
NMTAP	6	0	3
NMTAP	6	72	2
NMTAP	6	72	4
NMTAP	6	144	3
NMTAP	6	144	5
NMTAP	6	192	3
NMTAP	6	192	5
NMTAP	6	336	6
NMTAP	6	360	4
NMTAP	7	0	6
NMTAP	7	48	3
NMTAP	7	96	5
NMSTR	7	144	4
NMSI_	7	144	4	96	48	0
NMTAP	7	240	3
NMTAP	7	240	4
NMTAP	7	336	1
NMTAP	8	0	1
NMSTR	8	48	1
NMSCR	8	48	1	96	96	4
NMTAP	8	144	0
NMTAP	8	192	7
NMHLD	8	240	6	96
NMTAP	8	336	4
NMTAP	9	0	4
NMTAP	9	0	6
NMTAP	9	96	0
NMTAP	9	96	7
NMTAP	9	192	1
NMTAP	9	192	3
NMSTR	9	288	4
NMSCL	9	288	4	96	48	1
NMSCR	9	288	4	96	48	7
NMTAP	9	288	6
NMSTR	10	192	0
NMSI_	10	192	0	96	48	2
NMTAP	10	240	5
NMTAP	10	288	0
NMSTR	11	0	0
NMSI_	11	0	0	96	48	4
NMTAP	11	48	6
NMTAP	11	96	0
NMSTR	11	192	0
NMSI_	11	192	0	96	48	2
NMTAP	11	240	5
NMTAP	11	288	0
NMSTR	12	0	0
NMSI_	12	0	0	96	48	4
NMTAP	12	48	6
NMTAP	12	96	0
NMSTR	12	192	0
NMSI_	12	192	0	96	48	2
NMTAP	12	240	5
NMTAP	12	288	0
NMSTR	13	0	0
NMSI_	13	0	0	96	48	4
NMSI_	13	0	0	96	48	5
NMTAP	13	96	0
NMSTR	13	192	7
NMSI_	13	192	7	96	48	2
NMSI_	13	192	7	96	48	3
NMTAP	13	288	7
NMSTR	14	0	1
NMSI_	14	0	1	96	48	3
NMTAP	14	48	4
NMTAP	14	96	1
NMSTR	14	192	1
NMSI_	14	192	1	96	48	4
NMTAP	14	240	5
NMTAP	14	288	1
NMSTR	15	0	1
NMSI_	15	0	1	96	48	5
NMTAP	15	48	7
NMTAP	15	96	1
NMSTR	15	192	1
NMSI_	15	192	1	96	48	6
NMTAP	15	240	0
NMTAP	15	288	1
NMSTR	16	0	1
NMSXL	16	0	1	96	144	0
NMTAP	16	96	0
NMSTR	16	144	0
NMSUL	16	144	0	96	72	4
NMTAP	16	240	7
NMTAP	16	288	7
NMTAP	17	0	5
NMTAP	17	48	4
NMTAP	17	48	6
NMTAP	17	96	2
NMTAP	17	144	1
NMTAP	17	144	3
NMTAP	17	240	0
NMTAP	17	240	7
BRTAP	17	288	1
BRTAP	17	288	6
NMSTR	18	0	7
NMSI_	18	0	7	96	48	5
NMTAP	18	48	2
NMTAP	18	96	7
NMSTR	18	192	7
NMSI_	18	192	7	96	48	3
NMTAP	18	240	1
NMTAP	18	288	7
NMSTR	19	0	7
NMSI_	19	0	7	96	48	5
NMTAP	19	48	2
NMTAP	19	96	7
NMSTR	19	192	7
NMSI_	19	192	7	96	48	3
NMTAP	19	240	1
NMTAP	19	288	7
BRSTR	20	0	7
NMSI_	20	0	7	96	48	4
NMSI_	20	0	7	96	48	5
BRSTR	20	192	7
NMSI_	20	192	7	96	48	1
NMSI_	20	192	7	96	48	2
BRSTR	21	0	7
NMSI_	21	0	7	96	48	5
BRSTR	21	96	7
NMSI_	21	96	7	96	48	1
BRSTR	21	192	7
NMSI_	21	192	7	96	48	3
NMTAP	21	288	7
NMTAP	22	0	2
NMHLD	22	48	2	96
NMTAP	22	144	3
NMTAP	22	192	1
NMTAP	22	192	4
NMTAP	22	288	2
NMTAP	22	336	2
NMTAP	23	0	0
NMTAP	23	48	0
NMTAP	23	96	7
NMTAP	23	144	7
NMTAP	23	192	5
NMTAP	23	240	5
NMHLD	23	288	4	240
NMTAP	24	0	5
NMTAP	24	48	6
NMTAP	24	96	7
NMSTR	24	144	0
NMSI_	24	144	0	96	48	5
NMTAP	24	240	3
NMTAP	24	288	3
NMSTR	25	0	2
NMSI_	25	0	2	96	48	7
NMSTR	25	48	6
NMSI_	25	48	6	96	48	3
NMTAP	25	96	2
NMTAP	25	144	6
NMTAP	25	240	1
NMTAP	25	240	5
BRTAP	25	288	1
BRTAP	25	288	5
NMTAP	26	0	3
NMTAP	26	0	4
NMTAP	26	96	5
NMTAP	26	144	5
NMTAP	26	192	4
NMTAP	26	192	6
NMTAP	26	288	1
NMTAP	26	336	1
NMTAP	27	0	0
NMTAP	27	48	2
NMTAP	27	96	7
NMTAP	27	144	7
NMTAP	27	192	0
NMSTR	27	192	6
NMSCL	27	192	6	96	48	3
NMTAP	27	288	7
NMTAP	27	336	0
NMSTR	28	0	1
NMSCL	28	0	1	96	48	6
NMTAP	28	96	5
NMTAP	28	144	5
NMTAP	28	192	7
NMTAP	28	240	6
NMTAP	28	288	0
NMTAP	28	336	0
NMTAP	29	0	1
NMTAP	29	0	7
NMTAP	29	96	2
NMTAP	29	96	3
NMSTR	29	192	0
NMSCR	29	192	0	96	48	3
NMTAP	29	192	1
NMSTR	29	288	0
NMSXR	29	288	0	96	192	5
NMTAP	29	288	7
BRTAP	30	0	0
NMTAP	30	96	3
NMTAP	30	192	2
NMTAP	30	288	0
NMTAP	30	288	6
NMHLD	31	0	2	72
NMTAP	31	72	3
NMTAP	31	96	2
NMTAP	31	144	1
NMTAP	31	144	4
NMTAP	31	192	1
NMTAP	31	192	4
NMSTR	31	288	6
NMSCL	31	288	6	96	48	4
NMSTR	32	0	2
NMSCL	32	0	2	96	48	0
NMSTR	32	96	6
NMSCR	32	96	6	96	48	0
NMSTR	32	192	2
NMSCR	32	192	2	96	48	4
NMSTR	32	288	6
NMSI_	32	288	6	96	48	3
NMTAP	33	0	2
NMTAP	33	48	1
NMTAP	33	96	0
NMTAP	33	96	4
NMTAP	33	144	0
NMTAP	33	144	4
NMTAP	33	240	2
NMTAP	33	240	6
NMTAP	33	288	2
NMTAP	33	288	6
NMTAP	34	0	0
NMTAP	34	0	1
NMTAP	34	96	2
NMTAP	34	144	2
NMSTR	34	192	1
NMSI_	34	192	1	96	48	7
NMTAP	34	192	3
NMTAP	34	288	3
NMTAP	34	336	4
NMTAP	35	0	5
NMSTR	35	48	6
NMSI_	35	48	6	96	48	2
BRTAP	35	144	0
NMTAP	35	192	0
NMTAP	35	288	1
NMTAP	35	288	3
NMTAP	35	336	2
NMTAP	36	0	4
NMTAP	36	0	6
NMTAP	36	96	6
NMTAP	36	96	7
NMSTR	36	144	6
NMSI_	36	144	6	96	48	4
NMSTR	36	144	7
NMSI_	36	144	7	96	48	3
NMSTR	36	240	6
NMSI_	36	240	6	96	48	2
NMSTR	36	240	7
NMSI_	36	240	7	96	48	1
NMTAP	37	96	0
NMTAP	37	96	4
NMTAP	37	192	1
NMSTR	37	288	2
NMSI_	37	288	2	96	48	0
NMTAP	37	288	3
NMSTR	38	0	3
NMSI_	38	0	3	96	48	6
NMSTR	38	96	2
NMSI_	38	96	2	96	48	7
NMSTR	38	192	3
NMSI_	38	192	3	96	48	5
NMSTR	38	288	2
NMSI_	38	288	2	96	48	0
NMSTR	39	0	3
NMSI_	39	0	3	96	48	6
NMTAP	39	96	2
NMSTR	39	192	2
NMSI_	39	192	2	96	96	5
NMSTR	39	192	5
NMSCL	39	192	5	96	96	2
NMTAP	40	96	6
NMTAP	40	96	7
NMTAP	40	144	6
NMTAP	40	144	7
NMTAP	40	240	0
NMTAP	40	240	1
NMTAP	40	288	0
NMTAP	40	288	1
NMTAP	40	336	2
NMTAP	40	336	7
NMTAP	41	48	4
NMTAP	41	96	3
NMTAP	41	96	5
NMTAP	41	144	2
NMTAP	41	144	6
NMTAP	41	240	0
NMTAP	41	240	4
NMTAP	41	288	0
NMTAP	41	288	4
NMSTR	42	0	6
NMSI_	42	0	6	96	96	4
NMSTR	42	96	4
NMSV_	42	96	4	96	144	2
NMTAP	42	192	3
NMTAP	42	288	1
NMSTR	43	0	1
NMSI_	43	0	1	96	96	3
NMSTR	43	96	3
NMSV_	43	96	3	96	144	5
NMTAP	43	192	4
NMTAP	43	288	6
NMSTR	44	0	7
NMSI_	44	0	7	96	96	5
NMSTR	44	96	5
NMSI_	44	96	5	96	96	3
NMSTR	44	192	3
NMSV_	44	192	3	96	96	1
NMTAP	44	288	2
NMTAP	45	0	0
NMTAP	45	96	2
NMTAP	45	96	7
NMTAP	45	144	2
NMTAP	45	144	7
NMTAP	45	240	0
NMTAP	45	240	6
NMSTR	45	288	0
NMSI_	45	288	0	96	48	4
NMSTR	45	288	6
NMSI_	45	288	6	96	48	3
NMSTR	46	96	1
NMSI_	46	96	1	96	48	4
NMSTR	46	96	7
NMSI_	46	96	7	96	48	3
NMSTR	46	288	2
NMSV_	46	288	2	96	48	0
NMSTR	46	288	6
NMSV_	46	288	6	96	48	4
NMSTR	47	96	1
NMSV_	47	96	1	96	48	3
NMSTR	47	96	5
NMSV_	47	96	5	96	48	7
NMTAP	47	288	2
NMTAP	47	288	6
NMTAP	48	0	0
NMTAP	48	0	1
NMTAP	48	96	6
NMTAP	48	96	7
NMTAP	48	144	0
NMTAP	48	144	5
NMTAP	48	240	0
NMTAP	48	240	1
NMSTR	48	288	2
NMSCL	48	288	2	96	48	7
NMSTR	48	288	7
NMSCL	48	288	7	96	48	4
NMTAP	49	96	0
NMTAP	49	96	5
BRTAP	49	144	0
BRTAP	49	144	5
NMTAP	49	240	6
NMTAP	49	240	7
NMSTR	49	288	6
NMSV_	49	288	6	96	48	3
NMSTR	49	288	7
NMSI_	49	288	7	96	48	3
NMSTR	50	0	6
NMSCR	50	0	6	96	96	4
NMTAP	50	0	7
NMTAP	50	96	5
BRTAP	50	144	5
NMTAP	50	240	0
NMTAP	50	240	1
NMSTR	50	288	0
NMSI_	50	288	0	96	48	4
NMSTR	50	288	1
NMSV_	50	288	1	96	48	4
NMTAP	51	0	0
NMSTR	51	0	1
NMSCL	51	0	1	96	96	3
NMTAP	51	96	2
BRTAP	51	144	2
NMTAP	51	240	6
NMTAP	51	240	7
NMSTR	51	288	6
NMSI_	51	288	6	96	48	4
NMSTR	51	288	7
NMSI_	51	288	7	96	48	3
NMSTR	52	0	6
NMSI_	52	0	6	96	48	2
NMSTR	52	0	7
NMSI_	52	0	7	96	48	1
NMSTR	52	96	6
NMSI_	52	96	6	96	48	4
NMSTR	52	96	7
NMSI_	52	96	7	96	48	3
NMSTR	52	192	6
NMSI_	52	192	6	96	48	2
NMSTR	52	192	7
NMSI_	52	192	7	96	48	1
NMSTR	52	288	6
NMSI_	52	288	6	96	48	4
NMSTR	52	288	7
NMSI_	52	288	7	96	48	3
NMTAP	53	0	6
NMTAP	53	0	7
NMTAP	53	96	0
NMTAP	53	96	1
BRTAP	53	144	0
BRTAP	53	144	1
NMTAP	53	240	2
NMTAP	53	240	7
NMTAP	53	336	4
NMTAP	53	336	6
NMTAP	54	0	4
NMTAP	54	0	6
NMTAP	54	72	0
NMTAP	54	72	7
NMTAP	54	144	1
NMTAP	54	144	3
NMHLD	54	192	1	96
NMHLD	54	192	3	96
NMTAP	54	336	2
NMTAP	54	360	3
NMTAP	55	0	1
NMTAP	55	48	0
NMTAP	55	48	7
NMTAP	55	96	6
NMSTR	55	144	4
NMSI_	55	144	4	96	48	0
NMSTR	55	144	5
NMSI_	55	144	5	96	48	1
NMTAP	55	240	4
NMTAP	55	240	5
NMTAP	55	336	7
NMTAP	56	0	0
NMTAP	56	0	6
NMTAP	56	48	1
NMTAP	56	48	5
NMTAP	56	144	0
NMTAP	56	192	1
NMTAP	56	192	7
NMTAP	56	240	2
NMTAP	56	240	6
NMTAP	56	336	4
NMTAP	56	336	5
NMTAP	57	0	6
NMTAP	57	0	7
NMTAP	57	48	0
NMTAP	57	48	1
NMTAP	57	96	2
NMTAP	57	96	3
NMTAP	57	144	4
NMTAP	57	144	5
NMTAP	57	240	2
NMTAP	57	240	6
BRSTR	57	288	2
NMSI_	57	288	2	96	48	7
BRSTR	57	288	6
NMSI_	57	288	6	96	48	2
NMSTR	58	0	2
NMSCR	58	0	2	96	96	0
NMTAP	58	0	6
NMTAP	58	96	1
BRTAP	58	144	1
NMTAP	58	240	2
NMTAP	58	240	6
NMSTR	58	288	2
NMSI_	58	288	2	96	48	6
NMSTR	58	288	6
NMSI_	58	288	6	96	48	3
NMSTR	59	0	6
NMSCR	59	0	6	96	96	4
NMTAP	59	96	5
BRTAP	59	144	5
NMTAP	59	240	6
NMTAP	59	240	7
NMSTR	59	288	0
NMSI_	59	288	0	96	48	4
NMSTR	59	288	1
NMSI_	59	288	1	96	48	3
NMSTR	60	0	0
NMSI_	60	0	0	96	48	6
NMSTR	60	0	1
NMSI_	60	0	1	96	48	5
NMSTR	60	96	0
NMSI_	60	96	0	96	48	4
NMSTR	60	96	1
NMSI_	60	96	1	96	48	3
NMSTR	60	192	0
NMSI_	60	192	0	96	48	6
NMSTR	60	192	1
NMSI_	60	192	1	96	48	5
NMSTR	60	288	0
NMSI_	60	288	0	96	48	4
NMSTR	60	288	1
NMSI_	60	288	1	96	48	3
NMTAP	61	0	0
NMTAP	61	0	1
NMTAP	61	96	6
NMTAP	61	96	7
BRTAP	61	144	6
BRTAP	61	144	7
NMTAP	61	240	0
NMTAP	61	240	5
NMTAP	61	288	0
NMTAP	61	288	5
NMTAP	62	0	1
NMTAP	62	0	3
NMTAP	62	72	0
NMTAP	62	72	7
NMTAP	62	144	4
NMTAP	62	144	6
NMHLD	62	192	4	96
NMHLD	62	192	6	96
NMTAP	62	336	5
NMTAP	62	360	4
NMTAP	63	0	6
NMTAP	63	48	0
NMTAP	63	48	7
NMTAP	63	96	1
NMSTR	63	144	2
NMSI_	63	144	2	96	48	6
NMSTR	63	144	3
NMSI_	63	144	3	96	48	7
NMTAP	63	240	2
NMTAP	63	240	3
NMTAP	63	336	0
NMTAP	63	336	5
NMTAP	64	0	1
NMTAP	64	0	4
NMTAP	64	48	2
NMTAP	64	48	3
NMTAP	64	144	2
NMTAP	64	144	7
NMTAP	64	192	3
NMTAP	64	192	6
NMTAP	64	240	4
NMTAP	64	240	5
NMTAP	64	336	0
NMTAP	64	336	6
NMTAP	65	0	0
NMTAP	65	0	6
NMTAP	65	24	1
NMTAP	65	48	2
NMTAP	65	72	3
NMTAP	65	96	7
NMTAP	65	120	6
NMTAP	65	144	5
NMTAP	65	168	4
NMTAP	65	192	0
NMTAP	65	204	1
NMTAP	65	216	2
NMTAP	65	228	3
NMTAP	65	240	4
NMTAP	65	252	5
NMTAP	65	264	6
NMTAP	65	276	7
NMTAP	65	288	0
NMTAP	65	288	4
BRTAP	66	0	2
BRTAP	66	0	6
NMTAP	66	192	0
NMTAP	66	192	1
NMTAP	66	240	2
NMTAP	66	288	3
NMTAP	66	288	5
NMTAP	67	0	6
NMTAP	67	0	7
NMTAP	67	48	5
NMTAP	67	96	2
NMTAP	67	96	4
NMTAP	67	192	0
NMTAP	67	192	1
NMTAP	67	240	2
NMTAP	67	288	3
NMTAP	67	288	5
NMSTR	68	0	0
NMSCR	68	0	0	96	48	3
NMTAP	68	0	6
NMSTR	68	96	0
NMSCL	68	96	0	96	48	5
NMSTR	68	192	0
NMSI_	68	192	0	96	48	3
NMSTR	68	288	0
NMSI_	68	288	0	96	48	5
NMSTR	69	0	0
NMSI_	69	0	0	96	48	4
NMTAP	69	96	0
NMTAP	69	192	7
NMTAP	69	240	7
NMTAP	69	288	0
NMTAP	69	288	6
NMTAP	70	0	2
NMTAP	70	0	3
NMTAP	70	48	1
NMTAP	70	96	0
NMTAP	70	96	6
NMTAP	70	192	4
NMTAP	70	192	5
NMTAP	70	240	6
NMTAP	70	288	1
NMTAP	70	288	7
NMTAP	71	0	2
NMTAP	71	0	3
NMTAP	71	48	1
NMTAP	71	96	0
NMTAP	71	96	6
NMTAP	71	192	1
NMTAP	71	192	7
NMTAP	71	240	6
NMTAP	71	288	4
NMTAP	71	288	5
NMSTR	72	0	2
NMSI_	72	0	2	96	48	7
NMSTR	72	48	3
NMSI_	72	48	3	96	48	6
NMTAP	72	96	2
NMTAP	72	144	3
NMTAP	72	240	0
NMTAP	72	240	5
NMTAP	72	288	0
NMTAP	72	288	5
NMSTR	73	0	1
NMSI_	73	0	1	96	48	4
NMSTR	73	48	0
NMSI_	73	48	0	96	48	5
NMTAP	73	96	1
NMTAP	73	144	0
NMTAP	73	240	3
NMTAP	73	240	6
BRTAP	73	288	3
BRTAP	73	288	6
NMSTR	74	0	2
NMSXR	74	0	2	96	192	6
NMTAP	74	96	7
NMTAP	74	144	7
NMTAP	74	240	4
NMSTR	74	288	4
NMSCR	74	288	4	96	96	2
NMTAP	75	0	3
NMTAP	75	0	4
NMSTR	75	96	4
NMSCL	75	96	4	96	96	6
NMTAP	75	192	4
NMTAP	75	192	5
NMSTR	75	288	4
NMSCR	75	288	4	96	96	2
BRTAP	76	0	2
NMTAP	76	0	4
NMSTR	76	96	4
NMSCL	76	96	4	96	96	6
NMTAP	76	192	4
BRTAP	76	192	6
NMSTR	76	288	4
NMSLR	76	288	4	96	96	1
BRSTR	77	0	1
NMSLL	77	0	1	96	96	4
BRSTR	77	96	4
NMSCR	77	96	4	96	96	1
BRSTR	77	192	1
NMSLR	77	192	1	96	96	7
NMTAP	77	288	4
NMTAP	78	0	0
NMTAP	78	48	0
NMTAP	78	144	6
NMTAP	78	192	4
NMTAP	78	192	6
NMTAP	78	240	5
NMSTR	78	288	3
NMSI_	78	288	3	96	48	6
NMTAP	78	288	4
NMTAP	78	336	2
NMSTR	79	0	1
NMSI_	79	0	1	96	48	4
NMSTR	79	96	7
NMSI_	79	96	7	96	48	2
NMHLD	79	192	5	96
NMTAP	79	288	1
NMTAP	79	336	0
NMTAP	80	0	7
NMTAP	80	48	3
NMTAP	80	48	6
NMTAP	80	144	4
NMTAP	80	144	5
NMTAP	80	192	3
NMTAP	80	192	4
NMTAP	80	240	2
NMTAP	80	240	3
NMTAP	80	288	2
NMTAP	80	288	3
NMTAP	80	336	2
NMTAP	80	336	3
NMTAP	81	0	1
NMTAP	81	24	4
NMTAP	81	48	1
NMTAP	81	72	5
NMTAP	81	96	1
NMTAP	81	120	6
NMTAP	81	144	1
NMTAP	81	168	7
NMSTR	81	192	1
NMSI_	81	192	1	96	48	6
NMSV_	81	192	1	96	48	4
NMTAP	81	288	1
NMHLD	82	0	2	672
BRTAP	82	0	7
NMTAP	82	192	0
NMTAP	82	288	0
NMTAP	83	0	1
NMTAP	83	96	1
NMTAP	83	192	3
NMTAP	83	288	3
NMTAP	83	336	4
NMTAP	84	0	4
NMTAP	84	96	3
NMTAP	84	96	5
NMTAP	84	192	6
NMTAP	84	216	4
NMTAP	84	240	6
NMTAP	84	288	2
NMSTR	84	312	4
NMSXR	84	312	4	96	168	5
NMTAP	84	336	2
NMTAP	85	288	0
NMTAP	85	288	6
NMTAP	86	0	7
NMHLD	86	96	7	576
NMTAP	86	192	6
NMTAP	86	288	6
NMTAP	87	0	5
NMTAP	87	96	5
NMTAP	87	192	4
NMTAP	87	288	4
NMTAP	87	336	3
NMTAP	88	0	3
NMTAP	88	96	2
NMTAP	88	96	4
NMTAP	88	192	1
NMTAP	88	216	3
NMTAP	88	240	1
NMTAP	88	288	5
NMTAP	88	312	3
NMTAP	88	336	5
NMHLD	89	0	2	72
NMHLD	89	72	1	72
NMTAP	89	144	0
BRSTR	89	240	0
NMSI_	89	240	0	96	48	3
BRSTR	89	240	7
NMSI_	89	240	7	96	48	4
NMTAP	89	288	1
NMTAP	89	288	6
NMTAP	89	336	0
NMTAP	89	336	7

T_REC_TAP	464
T_REC_BRK	23
T_REC_XTP	0
T_REC_BXX	0
T_REC_HLD	19
T_REC_XHO	0
T_REC_BHO	0
T_REC_BXH	0
T_REC_STR	117
T_REC_BST	12
T_REC_XST	0
T_REC_XBS	0
T_REC_TTP	0
T_REC_THO	0
T_REC_SLD	135
T_REC_BSL	0
T_REC_ALL	770
T_NUM_TAP	581
T_NUM_BRK	35
T_NUM_HLD	19
T_NUM_SLD	135
T_NUM_ALL	770
T_JUDGE_TAP	616
T_JUDGE_HLD	65
T_JUDGE_SLD	135
T_JUDGE_ALL	816
TTM_EACHPAIRS	171
TTM_SCR_TAP	290500
TTM_SCR_BRK	91000
TTM_SCR_HLD	19000
TTM_SCR_SLD	202500
TTM_SCR_ALL	603000
TTM_SCR_S	581550
TTM_SCR_SS	599500
TTM_RAT_ACV	10058

