VERSION	0.00.00	1.05.00
FES_MODE	0
BPM_DEF	192.000	192.000	192.000	192.000
MET_DEF	4	4
RESOLUTION	384
CLK_DEF	384
COMPATIBLE_CODE	MA2

BPM	0	0	192.000
MET	0	0	4	4

NMSTR	2	0	7
NMSCL	2	0	7	96	288	4
NMSTR	3	0	0
NMSCR	3	0	0	96	288	3
NMSTR	4	0	7
NMSCL	4	0	7	96	288	4
NMHLD	5	0	0	192
NMTAP	5	192	3
NMTAP	6	0	4
NMTAP	6	96	4
NMTAP	6	192	5
NMTAP	6	288	5
NMTAP	7	0	3
NMTAP	7	96	3
NMTAP	7	192	2
NMTAP	7	288	2
NMHLD	8	0	6	96
NMTAP	8	96	4
NMHLD	8	192	1	96
NMTAP	8	288	3
NMTAP	9	0	2
NMTAP	9	0	3
NMTAP	9	96	0
NMTAP	9	96	1
NMTAP	9	192	6
NMTAP	9	192	7
NMTAP	9	288	4
NMTAP	9	288	5
BRTAP	10	0	3
BRTAP	10	0	6
NMTAP	10	192	2
NMTAP	10	288	0
NMTAP	10	288	1
NMHLD	11	0	2	96
NMHLD	11	96	0	96
NMHLD	11	192	7	96
NMTAP	11	288	5
NMTAP	12	0	6
NMTAP	12	96	4
NMTAP	12	96	5
NMTAP	12	192	1
NMTAP	12	288	2
NMTAP	12	288	3
NMHLD	13	0	6	96
NMTAP	13	96	4
NMHLD	13	192	1	96
NMTAP	13	288	3
NMTAP	14	0	2
NMTAP	14	96	0
NMTAP	14	96	1
NMTAP	14	192	5
NMTAP	14	288	6
NMTAP	14	288	7
NMHLD	15	0	5	96
NMHLD	15	96	7	96
NMHLD	15	192	0	96
NMTAP	15	288	2
NMSTR	16	0	7
NMSI_	16	0	7	96	96	3
NMSTR	16	192	0
NMSI_	16	192	0	96	96	4
NMTAP	17	0	5
NMTAP	17	96	4
NMTAP	17	96	6
NMTAP	17	144	4
NMTAP	17	144	6
NMTAP	17	240	1
NMTAP	17	240	3
NMTAP	17	288	1
NMTAP	17	288	3
NMTAP	18	0	2
NMTAP	18	96	0
NMTAP	18	96	1
NMTAP	18	192	5
NMTAP	18	288	6
NMTAP	18	288	7
NMHLD	19	0	5	96
NMHLD	19	96	7	96
NMHLD	19	192	0	96
NMTAP	19	288	2
NMTAP	20	0	1
NMTAP	20	96	2
NMTAP	20	96	3
NMTAP	20	192	6
NMTAP	20	288	4
NMTAP	20	288	5
NMHLD	21	0	1	96
NMTAP	21	96	3
NMHLD	21	192	6	96
NMTAP	21	288	4
NMSTR	22	0	3
NMSCL	22	0	3	96	96	0
NMTAP	22	192	5
NMSTR	23	0	4
NMSCR	23	0	4	96	96	7
NMTAP	23	192	2
NMTAP	24	0	1
NMTAP	24	48	1
NMTAP	24	96	3
NMTAP	24	144	3
NMTAP	24	192	2
NMTAP	24	240	2
NMTAP	24	288	5
NMTAP	24	336	5
NMTAP	25	0	4
NMTAP	25	48	4
NMTAP	25	96	6
NMHLD	25	144	6	96
NMTAP	25	240	7
NMTAP	25	288	7
NMTAP	26	0	6
NMTAP	26	0	7
NMTAP	26	96	6
NMTAP	26	96	7
NMTAP	26	192	4
NMTAP	26	192	6
NMTAP	26	288	4
NMTAP	26	288	6
NMTAP	27	0	3
NMTAP	27	0	4
NMTAP	27	96	3
NMTAP	27	96	4
NMTAP	27	192	1
NMTAP	27	192	3
NMTAP	27	288	1
NMTAP	27	288	3
NMTAP	28	0	0
NMTAP	28	0	1
NMTAP	28	96	0
NMTAP	28	96	1
NMTAP	28	192	1
NMTAP	28	192	3
NMTAP	28	288	1
NMTAP	28	288	3
NMTAP	29	0	3
NMTAP	29	0	4
NMTAP	29	96	3
NMTAP	29	96	4
NMHLD	29	192	4	96
NMHLD	29	192	6	96
NMTAP	30	0	3
NMTAP	30	96	2
NMTAP	30	192	1
NMTAP	30	288	0
NMTAP	31	0	7
NMTAP	31	96	6
NMTAP	31	192	5
NMTAP	31	288	4
NMHLD	32	0	2	96
NMTAP	32	96	3
NMHLD	32	192	5	96
NMTAP	32	288	4
NMTAP	32	336	4
NMTAP	33	0	3
NMTAP	33	0	6
NMTAP	33	96	1
NMTAP	33	96	4
NMTAP	33	144	1
NMTAP	33	144	4
BRTAP	33	240	0
BRTAP	33	240	7
BRTAP	33	288	0
BRTAP	33	288	7
NMHLD	34	0	1	96
NMTAP	34	96	0
NMHLD	34	192	6	96
NMTAP	34	288	7
NMTAP	35	0	2
NMTAP	35	96	0
NMTAP	35	96	1
NMTAP	35	192	5
NMTAP	35	288	6
NMTAP	35	288	7
NMSTR	36	0	0
NMSCR	36	0	0	96	96	3
NMSTR	36	192	7
NMSCL	36	192	7	96	96	4
NMTAP	37	0	1
NMTAP	37	96	1
NMTAP	37	192	2
NMTAP	37	192	3
NMSTR	37	288	2
NMSI_	37	288	2	96	96	7
NMSTR	37	288	3
NMSI_	37	288	3	96	96	6
NMTAP	38	192	4
NMTAP	38	192	5
NMSTR	38	288	2
NMSI_	38	288	2	96	96	7
NMSTR	38	288	3
NMSI_	38	288	3	96	96	6
NMTAP	39	192	4
NMTAP	39	192	5
NMTAP	39	288	2
NMTAP	39	288	3
NMTAP	40	0	1
NMSTR	40	96	1
NMSCR	40	96	1	96	192	6
NMTAP	41	0	0
NMTAP	41	96	0
BRTAP	41	192	1
BRTAP	41	192	7
NMSTR	42	0	0
NMSI_	42	0	0	96	96	4
NMTAP	42	192	6
NMTAP	42	288	6
NMSTR	43	0	7
NMSI_	43	0	7	96	96	3
NMTAP	43	192	1
NMTAP	43	288	1
NMSTR	44	0	0
NMSI_	44	0	0	96	96	4
NMSTR	44	192	6
NMSI_	44	192	6	96	96	2
NMHLD	45	0	1	192
NMTAP	45	192	0
NMTAP	45	288	0
NMTAP	46	0	2
NMTAP	46	0	3
NMSTR	46	96	2
NMSI_	46	96	2	96	96	6
NMSTR	46	96	3
NMSI_	46	96	3	96	96	7
NMTAP	47	0	4
NMTAP	47	0	5
NMSTR	47	96	4
NMSI_	47	96	4	96	96	0
NMSTR	47	96	5
NMSI_	47	96	5	96	96	1
NMHLD	48	0	1	96
NMHLD	48	0	7	96
NMHLD	48	144	0	96
NMHLD	48	144	6	96
NMTAP	48	288	1
NMTAP	48	288	5
BRTAP	49	0	1
BRTAP	49	0	5
NMTAP	49	240	2
NMTAP	49	240	3
NMTAP	49	288	2
NMTAP	49	288	3
NMSTR	50	0	0
NMSUR	50	0	0	96	72	5
NMSTR	50	0	1
NMSCR	50	0	1	96	72	4
NMTAP	50	240	2
NMTAP	50	240	3
NMTAP	50	288	2
NMTAP	50	288	3
NMSTR	51	0	0
NMSI_	51	0	0	96	72	4
NMSTR	51	0	1
NMSI_	51	0	1	96	72	5
NMTAP	51	240	2
NMTAP	51	240	3
NMTAP	51	288	2
NMTAP	51	288	3
NMTAP	52	0	0
NMTAP	52	0	1
NMTAP	52	96	6
NMTAP	52	96	7
NMTAP	52	192	4
NMTAP	52	192	5
NMTAP	52	288	2
NMSTR	52	288	3
NMSLL	52	288	3	96	144	7
NMSLR	52	288	3	96	144	7
NMTAP	53	240	0
NMTAP	53	336	1
NMHLD	54	0	1	72
NMHLD	54	72	2	72
NMTAP	54	144	3
NMTAP	54	192	3
NMTAP	54	288	5
NMTAP	54	336	5
NMTAP	55	0	4
NMTAP	55	48	4
NMTAP	55	96	6
NMHLD	55	144	6	96
NMTAP	55	240	7
NMTAP	55	336	1
NMTAP	56	0	1
NMTAP	56	48	0
NMTAP	56	144	2
NMTAP	56	192	2
NMTAP	56	240	3
NMTAP	56	336	0
NMTAP	56	336	1
NMTAP	57	0	0
NMTAP	57	0	1
NMTAP	57	96	6
NMTAP	57	96	7
NMTAP	57	144	6
NMTAP	57	144	7
NMTAP	57	240	4
NMTAP	57	240	5
NMTAP	57	288	4
NMTAP	57	288	5
NMSTR	58	0	6
NMSCL	58	0	6	96	72	3
NMSTR	58	0	7
NMSCR	58	0	7	96	72	2
NMTAP	58	240	4
NMTAP	58	240	5
NMTAP	58	288	4
NMTAP	58	288	5
NMSTR	59	0	6
NMSI_	59	0	6	96	72	3
NMSTR	59	0	7
NMSI_	59	0	7	96	72	2
NMTAP	59	240	4
NMTAP	59	240	5
NMTAP	59	288	4
NMTAP	59	288	5
NMTAP	60	0	6
NMTAP	60	0	7
NMTAP	60	96	0
NMTAP	60	96	1
NMTAP	60	192	2
NMTAP	60	192	3
NMTAP	60	288	4
NMTAP	60	288	5
NMTAP	61	0	6
NMTAP	61	0	7
NMTAP	61	96	0
NMTAP	61	96	5
NMTAP	61	144	0
NMTAP	61	144	5
NMTAP	61	240	7
NMTAP	61	288	7
NMHLD	62	0	6	72
NMHLD	62	72	5	72
NMTAP	62	144	4
NMTAP	62	192	4
NMTAP	62	288	2
NMTAP	62	336	2
NMTAP	63	0	3
NMTAP	63	48	3
NMTAP	63	96	1
NMHLD	63	144	1	96
NMTAP	63	240	0
NMTAP	63	336	6
NMTAP	64	0	6
NMTAP	64	48	7
NMTAP	64	144	5
NMTAP	64	192	5
NMTAP	64	240	4
NMTAP	64	336	3
NMTAP	64	336	6
NMTAP	65	0	3
NMTAP	65	0	6
NMTAP	65	96	4
NMTAP	65	96	7
NMTAP	65	192	0
NMTAP	65	192	5
NMTAP	65	288	1
NMTAP	65	288	6
NMTAP	66	0	2
NMTAP	66	0	7
NMTAP	66	48	2
NMTAP	66	48	7
NMTAP	66	144	1
NMHLD	66	192	1	96
NMTAP	66	288	3
NMHLD	67	0	5	96
NMHLD	67	96	7	96
NMHLD	67	192	0	96
NMTAP	67	288	2
NMSTR	68	0	1
NMSCL	68	0	1	96	96	6
NMSTR	68	192	5
NMSCL	68	192	5	96	96	2
NMSTR	69	0	0
NMSI_	69	0	0	96	96	4
NMSTR	69	192	7
NMSI_	69	192	7	96	96	3
NMHLD	70	0	1	288
NMTAP	70	96	3
NMTAP	70	192	3
NMTAP	70	288	3
NMHLD	71	0	6	288
NMTAP	71	96	4
NMTAP	71	192	4
NMTAP	71	288	4
NMTAP	72	0	1
NMTAP	72	48	1
NMTAP	72	96	3
NMTAP	72	144	2
NMTAP	72	192	6
NMTAP	72	240	6
NMTAP	72	288	4
NMTAP	72	336	5
NMTAP	73	0	3
NMTAP	73	96	2
NMTAP	73	96	3
NMTAP	73	144	2
NMTAP	73	144	3
NMTAP	73	240	4
NMTAP	73	240	5
NMTAP	73	288	4
NMTAP	73	288	5
NMHLD	74	0	1	96
NMTAP	74	96	3
NMHLD	74	192	6	96
NMTAP	74	288	4
NMHLD	75	0	2	96
NMHLD	75	96	0	96
NMHLD	75	192	7	96
NMTAP	75	288	5
NMSTR	76	0	6
NMSCR	76	0	6	96	96	1
NMSTR	76	192	2
NMSCR	76	192	2	96	96	5
NMSTR	77	0	7
NMSI_	77	0	7	96	96	3
NMSTR	77	192	0
NMSI_	77	192	0	96	96	4
NMHLD	78	0	6	192
NMTAP	78	192	4
NMTAP	78	288	3
NMHLD	79	0	1	192
NMTAP	79	192	3
NMTAP	79	288	0
NMTAP	79	288	1
NMSTR	80	0	0
NMSI_	80	0	0	96	48	4
NMSTR	80	0	1
NMSI_	80	0	1	96	48	3
NMSTR	80	192	6
NMSI_	80	192	6	96	48	4
NMSTR	80	192	7
NMSI_	80	192	7	96	48	3
NMTAP	81	0	0
NMTAP	81	0	1
NMTAP	81	96	0
NMTAP	81	96	1
NMTAP	81	192	4
NMTAP	81	192	5
NMSTR	81	288	4
NMSUR	81	288	4	96	384	3
NMSTR	81	288	5
NMSCR	81	288	5	96	384	2
NMTAP	83	192	2
NMTAP	83	192	3
NMTAP	83	288	2
NMTAP	83	288	3
NMHLD	84	0	1	96
NMTAP	84	96	3
NMTAP	84	192	2
NMTAP	84	192	4
NMTAP	84	288	2
NMTAP	84	288	4
NMHLD	85	0	5	96
NMTAP	85	96	4
NMHLD	85	192	2	96
NMTAP	85	288	3
NMTAP	86	0	6
NMTAP	86	96	6
NMTAP	86	192	4
NMTAP	86	192	5
NMTAP	86	288	4
NMTAP	86	288	5
NMTAP	87	0	1
NMTAP	87	96	1
NMTAP	87	192	2
NMTAP	87	192	3
NMTAP	87	288	2
NMTAP	87	288	3
NMHLD	88	0	6	96
NMTAP	88	96	4
NMTAP	88	192	3
NMTAP	88	192	5
NMTAP	88	288	3
NMTAP	88	288	5
NMTAP	89	0	4
NMTAP	89	72	3
NMHLD	89	144	2	96
NMTAP	89	240	3
NMTAP	89	288	1
NMTAP	89	288	4
NMTAP	89	336	1
NMTAP	89	336	4

T_REC_TAP	329
T_REC_BRK	10
T_REC_XTP	0
T_REC_BXX	0
T_REC_HLD	52
T_REC_XHO	0
T_REC_BHO	0
T_REC_BXH	0
T_REC_STR	45
T_REC_BST	0
T_REC_XST	0
T_REC_XBS	0
T_REC_TTP	0
T_REC_THO	0
T_REC_SLD	46
T_REC_BSL	0
T_REC_ALL	482
T_NUM_TAP	374
T_NUM_BRK	10
T_NUM_HLD	52
T_NUM_SLD	46
T_NUM_ALL	482
T_JUDGE_TAP	384
T_JUDGE_HLD	120
T_JUDGE_SLD	46
T_JUDGE_ALL	550
TTM_EACHPAIRS	116
TTM_SCR_TAP	187000
TTM_SCR_BRK	26000
TTM_SCR_HLD	52000
TTM_SCR_SLD	69000
TTM_SCR_ALL	334000
TTM_SCR_S	323050
TTM_SCR_SS	333000
TTM_RAT_ACV	10030

