VERSION	0.00.00	1.05.00
FES_MODE	0
BPM_DEF	192.000	192.000	192.000	192.000
MET_DEF	4	4
RESOLUTION	384
CLK_DEF	384
COMPATIBLE_CODE	MA2

BPM	0	0	192.000
MET	0	0	4	4

NMTAP	2	0	4
NMTAP	2	192	4
NMTAP	3	0	5
NMTAP	3	192	5
NMTAP	4	0	6
NMTAP	4	192	6
NMTAP	5	0	0
NMTAP	5	0	7
NMTAP	6	0	0
NMTAP	6	192	0
NMTAP	7	0	1
NMTAP	7	192	1
NMTAP	8	0	2
NMTAP	8	192	2
NMTAP	9	0	3
NMTAP	9	0	4
NMTAP	10	0	3
NMTAP	10	96	3
NMTAP	10	192	3
NMTAP	11	0	2
NMTAP	11	96	2
NMTAP	11	192	2
NMTAP	12	0	1
NMTAP	12	96	1
NMTAP	12	192	1
NMTAP	13	0	0
NMTAP	13	0	7
NMTAP	13	192	0
NMTAP	13	192	7
NMTAP	14	0	7
NMTAP	14	96	7
NMTAP	14	192	7
NMTAP	15	0	6
NMTAP	15	96	6
NMTAP	15	192	6
NMTAP	16	0	5
NMTAP	16	96	5
NMTAP	16	192	5
NMTAP	17	0	3
NMTAP	17	0	4
NMTAP	17	192	3
NMTAP	17	192	4
NMHLD	18	0	5	192
NMTAP	18	192	4
NMTAP	19	0	5
NMTAP	19	96	5
NMTAP	19	192	4
NMTAP	19	192	5
NMHLD	20	0	6	192
NMTAP	20	192	7
NMTAP	21	0	6
NMTAP	21	96	6
NMTAP	21	192	6
NMTAP	21	192	7
NMHLD	22	0	1	192
NMTAP	22	192	0
NMTAP	23	0	1
NMTAP	23	96	1
NMTAP	23	192	0
NMTAP	23	192	1
NMHLD	24	0	2	192
NMTAP	24	192	3
NMTAP	25	0	2
NMTAP	25	96	2
NMTAP	25	192	3
NMTAP	25	192	4
NMTAP	26	0	2
NMTAP	26	96	2
NMTAP	26	192	2
NMTAP	26	192	3
NMTAP	27	0	1
NMTAP	27	96	1
NMTAP	27	192	0
NMTAP	27	192	1
NMTAP	28	0	7
NMTAP	28	96	7
NMTAP	28	192	6
NMTAP	28	192	7
NMTAP	29	0	4
NMTAP	29	0	5
NMTAP	29	96	4
NMTAP	29	96	5
NMTAP	29	192	4
NMTAP	29	192	5
NMTAP	30	0	5
NMTAP	30	96	5
NMTAP	30	192	4
NMTAP	30	192	5
NMTAP	31	0	6
NMTAP	31	96	6
NMTAP	31	192	6
NMTAP	31	192	7
NMTAP	32	0	0
NMTAP	32	96	0
NMTAP	32	192	0
NMTAP	32	192	1
NMTAP	33	0	2
NMTAP	33	0	3
NMTAP	33	96	2
NMTAP	33	96	3
NMTAP	33	192	2
NMTAP	33	192	3
NMSTR	34	0	1
NMSI_	34	0	1	96	288	4
NMTAP	35	192	5
NMSTR	36	0	6
NMSI_	36	0	6	96	288	3
NMTAP	37	192	2
NMSTR	38	0	1
NMSI_	38	0	1	96	288	5
NMTAP	39	192	6
NMSTR	40	0	7
NMSI_	40	0	7	96	288	3
NMHLD	42	0	2	192
NMHLD	42	192	3	192
NMHLD	43	0	4	192
NMTAP	43	192	5
NMHLD	44	0	5	192
NMHLD	44	192	4	192
NMHLD	45	0	3	192
NMTAP	45	192	2
NMHLD	46	0	1	192
NMHLD	46	192	2	192
NMHLD	47	0	3	192
NMTAP	47	192	4
NMHLD	48	0	6	192
NMHLD	48	192	5	192
NMTAP	49	0	4
NMTAP	49	192	3
NMTAP	49	192	4
NMTAP	50	0	5
NMTAP	50	96	5
NMTAP	50	192	6
NMTAP	50	288	6
NMTAP	51	0	7
NMTAP	51	96	7
NMTAP	51	192	0
NMTAP	51	192	1
NMTAP	52	0	2
NMTAP	52	96	2
NMTAP	52	192	1
NMTAP	52	288	1
NMTAP	53	0	0
NMTAP	53	96	0
NMTAP	53	192	6
NMTAP	53	192	7
NMTAP	54	0	6
NMTAP	54	96	6
NMTAP	54	192	5
NMTAP	54	288	5
NMTAP	55	0	4
NMTAP	55	96	4
NMTAP	55	192	2
NMTAP	55	192	3
NMTAP	56	0	1
NMTAP	56	96	1
NMTAP	56	192	2
NMTAP	56	288	2
NMTAP	57	0	3
NMTAP	57	96	3
NMTAP	57	192	4
NMTAP	57	192	5
BRTAP	58	0	5
NMTAP	58	96	5
NMTAP	58	192	6
NMTAP	58	192	7
NMTAP	58	288	6
NMTAP	58	288	7
NMTAP	59	0	0
NMTAP	59	96	0
NMTAP	59	192	0
NMTAP	59	192	1
NMTAP	60	0	2
NMTAP	60	96	2
NMTAP	60	192	0
NMTAP	60	192	1
NMTAP	60	288	0
NMTAP	60	288	1
NMTAP	61	0	7
NMTAP	61	96	7
NMTAP	61	192	6
NMTAP	61	192	7
NMTAP	62	0	6
NMTAP	62	96	6
NMTAP	62	192	4
NMTAP	62	192	5
NMTAP	62	288	4
NMTAP	62	288	5
NMTAP	63	0	3
NMTAP	63	96	3
NMTAP	63	192	2
NMTAP	63	192	3
NMTAP	64	0	1
NMTAP	64	96	1
NMTAP	64	192	2
NMTAP	64	192	3
NMTAP	64	288	2
NMTAP	64	288	3
NMTAP	65	0	4
NMTAP	65	96	4
NMTAP	65	192	4
NMTAP	65	192	5
BRTAP	66	0	2
BRTAP	66	0	3
NMTAP	66	96	2
NMTAP	66	96	3
NMTAP	66	192	1
NMTAP	66	288	1
NMTAP	67	0	0
NMTAP	67	0	7
NMTAP	67	96	0
NMTAP	67	96	7
NMTAP	67	192	6
NMTAP	67	288	6
NMTAP	68	0	4
NMTAP	68	0	5
NMTAP	68	96	4
NMTAP	68	96	5
NMTAP	68	192	6
NMTAP	68	288	6
NMTAP	69	0	0
NMTAP	69	0	7
NMTAP	69	96	0
NMTAP	69	96	7
NMTAP	69	192	1
NMTAP	69	192	6
NMTAP	70	0	6
NMTAP	70	0	7
NMTAP	70	96	6
NMTAP	70	96	7
NMTAP	70	192	5
NMTAP	70	288	5
NMTAP	71	0	3
NMTAP	71	0	4
NMTAP	71	96	3
NMTAP	71	96	4
NMTAP	71	192	2
NMTAP	71	288	2
NMTAP	72	0	0
NMTAP	72	0	1
NMTAP	72	96	0
NMTAP	72	96	1
NMTAP	72	192	2
NMTAP	72	288	2
NMTAP	73	0	3
NMTAP	73	0	4
NMTAP	73	96	3
NMTAP	73	96	4
NMTAP	73	192	3
NMTAP	73	192	4
NMTAP	74	0	2
NMTAP	74	96	2
NMTAP	74	192	2
NMTAP	74	288	2
NMTAP	74	288	3
NMTAP	75	0	1
NMTAP	75	96	1
NMTAP	75	192	1
NMTAP	75	288	0
NMTAP	75	288	1
NMTAP	76	0	6
NMTAP	76	96	6
NMTAP	76	192	6
NMTAP	76	288	6
NMTAP	76	288	7
NMTAP	77	0	4
NMTAP	77	0	5
NMTAP	77	96	4
NMTAP	77	96	5
NMTAP	77	192	4
NMTAP	77	192	5
NMTAP	78	0	5
NMTAP	78	96	5
NMTAP	78	192	5
NMTAP	78	288	4
NMTAP	78	288	5
NMTAP	79	0	6
NMTAP	79	96	6
NMTAP	79	192	6
NMTAP	79	288	6
NMTAP	79	288	7
NMTAP	80	0	1
NMTAP	80	96	1
NMTAP	80	192	1
NMTAP	80	288	0
NMTAP	80	288	1
NMTAP	81	0	2
NMTAP	81	0	3
NMTAP	81	96	2
NMTAP	81	96	3
BRTAP	81	192	2
BRTAP	81	192	3
NMSTR	82	0	1
NMSUR	82	0	1	96	480	4
NMSTR	84	0	6
NMSUL	84	0	6	96	480	3
NMSTR	86	0	2
NMSUL	86	0	2	96	480	7
NMSTR	88	0	6
NMSXL	88	0	6	96	624	3

T_REC_TAP	264
T_REC_BRK	5
T_REC_XTP	0
T_REC_BXX	0
T_REC_HLD	15
T_REC_XHO	0
T_REC_BHO	0
T_REC_BXH	0
T_REC_STR	8
T_REC_BST	0
T_REC_XST	0
T_REC_XBS	0
T_REC_TTP	0
T_REC_THO	0
T_REC_SLD	8
T_REC_BSL	0
T_REC_ALL	300
T_NUM_TAP	272
T_NUM_BRK	5
T_NUM_HLD	15
T_NUM_SLD	8
T_NUM_ALL	300
T_JUDGE_TAP	277
T_JUDGE_HLD	60
T_JUDGE_SLD	8
T_JUDGE_ALL	345
TTM_EACHPAIRS	69
TTM_SCR_TAP	136000
TTM_SCR_BRK	13000
TTM_SCR_HLD	15000
TTM_SCR_SLD	12000
TTM_SCR_ALL	176000
TTM_SCR_S	170250
TTM_SCR_SS	175500
TTM_RAT_ACV	10028

