VERSION	0.00.00	1.05.00
FES_MODE	0
BPM_DEF	192.000	192.000	192.000	192.000
MET_DEF	4	4
RESOLUTION	384
CLK_DEF	384
COMPATIBLE_CODE	MA2

BPM	0	0	192.000
MET	0	0	4	4

NMTAP	2	0	0
NMTAP	3	0	0
NMTAP	4	0	0
NMTAP	5	0	0
NMTAP	6	0	7
NMTAP	7	0	7
NMTAP	8	0	7
NMTAP	9	0	0
NMTAP	9	0	7
BRTAP	10	0	0
NMTAP	11	0	0
NMTAP	12	0	1
NMTAP	13	0	1
NMTAP	14	0	2
NMTAP	15	0	2
NMTAP	16	0	3
NMTAP	16	0	4
NMTAP	17	0	3
NMTAP	17	0	4
NMTAP	18	0	4
NMTAP	19	0	4
NMTAP	20	0	5
NMTAP	21	0	5
NMTAP	22	0	6
NMTAP	23	0	6
NMTAP	24	0	0
NMTAP	24	0	7
NMTAP	25	0	0
NMTAP	25	0	7
NMTAP	26	0	7
NMTAP	26	192	7
NMTAP	27	0	7
NMTAP	28	0	6
NMTAP	28	192	6
NMTAP	29	0	6
NMTAP	30	0	5
NMTAP	30	192	5
NMTAP	31	0	5
NMTAP	32	0	3
NMTAP	32	0	4
NMTAP	33	0	3
NMTAP	33	0	4
NMTAP	34	0	3
NMTAP	34	192	3
NMTAP	35	0	3
NMTAP	36	0	2
NMTAP	36	192	2
NMTAP	37	0	2
NMTAP	38	0	1
NMTAP	38	192	1
NMTAP	39	0	1
NMTAP	40	0	0
NMTAP	40	0	7
NMTAP	41	0	0
NMTAP	41	0	7
NMSTR	42	0	0
NMSI_	42	0	0	96	288	4
NMSTR	44	0	7
NMSI_	44	0	7	96	288	3
NMSTR	46	0	1
NMSI_	46	0	1	96	288	5
NMSTR	48	0	6
NMSI_	48	0	6	96	288	2
NMTAP	50	0	0
NMTAP	50	96	0
NMTAP	50	192	0
NMTAP	51	0	1
NMTAP	51	192	1
NMTAP	52	0	2
NMTAP	52	96	2
NMTAP	52	192	2
NMTAP	53	0	3
NMTAP	53	192	3
NMTAP	54	0	4
NMTAP	54	96	4
NMTAP	54	192	4
NMTAP	55	0	5
NMTAP	55	192	5
NMTAP	56	0	6
NMTAP	56	96	6
NMTAP	56	192	6
NMTAP	57	0	6
NMTAP	57	0	7
NMTAP	58	0	7
NMTAP	58	96	7
NMTAP	58	192	7
NMTAP	59	0	6
NMTAP	59	192	6
NMTAP	60	0	5
NMTAP	60	96	5
NMTAP	60	192	5
NMTAP	61	0	4
NMTAP	61	192	4
NMTAP	62	0	3
NMTAP	62	96	3
NMTAP	62	192	3
NMTAP	63	0	2
NMTAP	63	192	2
NMTAP	64	0	1
NMTAP	64	96	1
NMTAP	64	192	1
NMTAP	65	0	0
NMTAP	65	0	1
NMHLD	66	0	0	192
NMHLD	66	0	1	192
NMTAP	67	0	0
NMTAP	67	0	1
NMHLD	68	0	2	192
NMHLD	68	0	3	192
NMTAP	69	0	2
NMTAP	69	0	3
NMHLD	70	0	4	192
NMHLD	70	0	5	192
NMTAP	71	0	4
NMTAP	71	0	5
NMHLD	72	0	6	192
NMHLD	72	0	7	192
NMTAP	73	0	6
NMTAP	73	0	7
NMTAP	74	0	7
NMTAP	74	96	7
NMTAP	74	192	7
NMTAP	75	0	6
NMTAP	75	96	6
NMTAP	75	192	6
NMTAP	76	0	5
NMTAP	76	96	5
NMTAP	76	192	5
NMTAP	77	0	4
NMTAP	77	96	4
NMTAP	77	192	4
NMTAP	78	0	3
NMTAP	78	96	3
NMTAP	78	192	3
NMTAP	79	0	2
NMTAP	79	96	2
NMTAP	79	192	2
NMTAP	80	0	1
NMTAP	80	96	1
NMTAP	80	192	1
NMTAP	81	0	0
NMTAP	81	96	0
NMTAP	81	192	0
BRTAP	82	0	0
BRTAP	82	0	7
NMTAP	84	0	0
NMTAP	84	192	0
NMTAP	85	0	0
NMTAP	85	0	1
NMTAP	85	192	0
NMTAP	85	192	1
NMTAP	86	0	7
NMTAP	86	192	7
NMTAP	87	0	6
NMTAP	87	0	7
NMTAP	87	192	6
NMTAP	87	192	7
NMTAP	88	0	0
NMTAP	88	192	0
NMHLD	89	0	0	336
NMHLD	89	0	7	336

T_REC_TAP	140
T_REC_BRK	3
T_REC_XTP	0
T_REC_BXX	0
T_REC_HLD	10
T_REC_XHO	0
T_REC_BHO	0
T_REC_BXH	0
T_REC_STR	4
T_REC_BST	0
T_REC_XST	0
T_REC_XBS	0
T_REC_TTP	0
T_REC_THO	0
T_REC_SLD	4
T_REC_BSL	0
T_REC_ALL	161
T_NUM_TAP	144
T_NUM_BRK	3
T_NUM_HLD	10
T_NUM_SLD	4
T_NUM_ALL	161
T_JUDGE_TAP	147
T_JUDGE_HLD	46
T_JUDGE_SLD	4
T_JUDGE_ALL	197
TTM_EACHPAIRS	25
TTM_SCR_TAP	72000
TTM_SCR_BRK	7800
TTM_SCR_HLD	10000
TTM_SCR_SLD	6000
TTM_SCR_ALL	95800
TTM_SCR_S	92650
TTM_SCR_SS	95500
TTM_RAT_ACV	10031

