VERSION	0.00.00	1.04.00
FES_MODE	0
BPM_DEF	165.000	165.000	165.000	165.000
MET_DEF	4	4
RESOLUTION	384
CLK_DEF	384
COMPATIBLE_CODE	MA2

BPM	0	0	165.000
MET	0	0	4	4

NMHLD	1	0	3	48
NMHLD	1	0	5	48
NMTAP	1	96	5
NMTAP	1	120	4
NMTAP	1	144	5
NMHLD	1	168	4	120
NMHLD	1	288	6	96
NMTAP	2	0	5
NMSTR	2	48	4
NMSI_	2	48	4	96	48	7
NMTAP	2	144	5
NMTAP	2	192	5
NMTAP	2	288	4
NMTAP	2	288	6
NMHLD	3	0	2	48
NMHLD	3	0	4	48
NMTAP	3	96	2
NMTAP	3	120	3
NMTAP	3	144	2
NMHLD	3	168	3	120
NMTAP	3	240	1
NMSTR	3	288	1
NMSLR	3	288	1	96	192	0
NMTAP	4	240	7
NMTAP	4	288	0
NMTAP	4	288	6
NMHLD	5	0	1	48
NMHLD	5	0	3	48
NMTAP	5	96	2
NMTAP	5	120	4
NMTAP	5	144	2
NMHLD	5	168	4	72
NMTAP	5	288	3
NMTAP	5	288	5
NMHLD	6	0	4	48
NMHLD	6	0	6	48
NMTAP	6	96	5
NMTAP	6	120	3
NMTAP	6	144	5
NMHLD	6	168	3	72
NMTAP	6	288	2
NMTAP	6	288	4
NMHLD	7	0	1	48
NMHLD	7	0	3	48
NMTAP	7	96	2
NMTAP	7	120	4
NMTAP	7	144	2
NMSTR	7	168	4
NMSI_	7	168	4	96	48	0
NMTAP	7	240	1
NMSTR	7	288	1
NMSCR	7	288	1	96	192	0
NMHLD	8	0	6	192
NMTAP	8	288	2
NMTAP	8	288	7
BRTAP	9	0	0
BRTAP	9	0	5
NMTAP	9	48	1
NMTAP	9	96	2
NMTAP	9	96	7
NMTAP	9	144	1
NMTAP	9	168	0
NMTAP	9	216	0
NMTAP	9	240	1
NMSTR	9	288	2
NMSI_	9	288	2	96	48	6
NMTAP	9	288	6
NMTAP	9	336	5
NMTAP	10	0	4
NMTAP	10	96	0
NMTAP	10	96	5
NMTAP	10	144	0
NMSTR	10	144	5
NMSLR	10	144	5	96	96	3
NMTAP	10	240	1
NMTAP	10	288	1
NMTAP	11	0	2
NMTAP	11	0	4
NMTAP	11	96	1
NMTAP	11	96	5
NMTAP	11	144	6
NMTAP	11	168	7
NMTAP	11	216	1
NMTAP	11	240	0
NMTAP	11	288	2
NMTAP	11	288	7
NMTAP	11	336	1
NMTAP	11	336	6
NMHLD	12	0	0	48
NMHLD	12	0	5	36
NMTAP	12	96	6
NMTAP	12	120	0
NMTAP	12	144	7
NMTAP	12	168	0
NMTAP	12	192	6
NMTAP	12	216	7
NMTAP	12	240	5
NMTAP	12	288	1
NMTAP	12	288	4
NMTAP	13	0	2
NMSTR	13	0	7
NMSCL	13	0	7	96	120	2
NMTAP	13	96	1
NMHLD	13	144	1	96
NMTAP	13	288	0
NMTAP	13	288	1
NMSTR	14	0	0
NMSCR	14	0	0	96	120	5
NMTAP	14	0	5
NMTAP	14	96	6
NMHLD	14	144	6	96
NMSTR	14	288	6
NMSXR	14	288	6	96	192	3
NMSTR	14	288	7
NMSXL	14	288	7	96	192	2
NMTAP	15	288	0
NMTAP	15	288	1
NMTAP	15	336	0
NMTAP	15	336	7
NMTAP	16	0	6
NMTAP	16	0	7
NMTAP	16	48	5
NMTAP	16	72	4
NMTAP	16	96	5
NMTAP	16	144	1
NMTAP	16	168	3
NMTAP	16	216	0
NMTAP	16	240	7
NMSTR	16	288	4
NMSI_	16	288	4	96	48	0
NMTAP	16	288	5
BRTAP	17	0	3
BRSTR	17	0	4
NMSXL	17	0	4	96	672	3
NMTAP	19	0	2
NMHLD	19	48	2	528
NMHLD	20	0	4	384
NMTAP	21	0	3
NMSTR	21	48	3
NMSSL	21	48	3	96	624	7
NMTAP	21	192	4
NMTAP	22	0	4
NMTAP	22	192	4
NMHLD	23	0	5	96
NMHLD	23	144	5	96
NMTAP	23	288	5
NMTAP	23	336	4
NMHLD	24	0	6	96
NMHLD	24	144	6	96
NMTAP	24	288	6
NMTAP	24	336	4
BRSTR	25	0	5
NMSLR	25	0	5	96	192	3
NMTAP	25	96	4
NMSTR	25	192	3
NMSLR	25	192	3	96	192	1
NMTAP	25	288	2
NMSTR	26	0	1
NMSLR	26	0	1	96	192	7
NMTAP	26	96	0
NMSTR	26	192	7
NMSLR	26	192	7	96	192	5
NMTAP	26	288	6
NMSTR	27	0	5
NMSLR	27	0	5	96	192	3
NMTAP	27	96	4
NMTAP	27	192	3
NMSTR	27	288	2
NMSI_	27	288	2	96	96	5
NMSI_	27	288	2	96	96	7
NMHLD	28	192	0	144
NMTAP	29	0	1
NMTAP	29	0	4
NMTAP	29	48	1
NMTAP	29	48	4
NMTAP	29	144	2
NMTAP	29	168	3
NMTAP	29	192	4
NMTAP	29	240	3
NMTAP	29	264	4
NMTAP	29	288	5
NMTAP	29	336	5
NMTAP	30	0	3
NMTAP	30	0	6
NMTAP	30	48	3
NMTAP	30	48	6
NMTAP	30	144	5
NMTAP	30	168	4
NMTAP	30	192	3
NMTAP	30	240	4
NMTAP	30	264	3
NMTAP	30	288	2
NMTAP	30	336	2
NMTAP	31	0	1
NMTAP	31	0	3
NMTAP	31	96	4
NMTAP	31	108	3
NMTAP	31	120	4
NMTAP	31	144	2
NMTAP	31	168	3
NMTAP	31	192	2
NMTAP	31	216	3
NMTAP	31	240	1
NMTAP	31	264	3
NMSTR	31	288	1
NMSI_	31	288	1	96	48	5
NMTAP	31	312	2
NMTAP	31	336	0
NMTAP	32	0	1
NMHLD	32	0	7	240
NMTAP	32	240	0
BRTAP	32	288	1
BRTAP	32	288	5
NMSTR	33	0	2
NMSI_	33	0	2	96	48	7
NMTAP	33	48	3
NMTAP	33	96	2
NMTAP	33	96	4
NMTAP	33	144	5
NMTAP	33	168	5
NMTAP	33	192	0
NMTAP	33	240	1
NMTAP	33	288	2
NMTAP	33	288	7
NMTAP	33	336	5
NMTAP	33	360	4
NMTAP	34	0	5
NMTAP	34	48	4
NMTAP	34	48	6
NMTAP	34	96	3
NMTAP	34	96	5
NMTAP	34	144	2
NMTAP	34	168	4
NMTAP	34	192	1
NMTAP	34	216	3
NMTAP	34	240	2
NMTAP	34	264	3
NMTAP	34	288	1
NMTAP	34	336	0
NMTAP	34	360	0
NMSTR	35	0	7
NMSI_	35	0	7	96	48	3
NMTAP	35	48	6
NMTAP	35	96	5
NMTAP	35	96	7
NMTAP	35	144	4
NMTAP	35	168	4
NMTAP	35	192	2
NMTAP	35	216	3
NMTAP	35	240	2
NMTAP	35	264	3
NMTAP	35	288	1
NMTAP	35	336	0
NMTAP	35	336	4
NMTAP	36	0	1
NMTAP	36	0	5
NMTAP	36	48	2
NMTAP	36	72	3
NMSTR	36	96	4
NMSI_	36	96	4	96	48	1
NMSI_	36	96	4	96	48	7
NMTAP	36	144	3
NMTAP	36	144	5
NMTAP	36	288	2
NMTAP	36	288	6
NMSTR	37	0	3
NMSI_	37	0	3	96	48	7
NMTAP	37	48	4
NMTAP	37	96	3
NMTAP	37	96	5
NMTAP	37	144	6
NMTAP	37	168	6
NMTAP	37	192	0
NMTAP	37	240	1
NMTAP	37	264	7
NMTAP	37	288	2
NMTAP	37	312	6
NMTAP	37	336	3
NMTAP	37	360	5
NMSTR	38	0	2
NMSCL	38	0	2	96	96	5
NMTAP	38	48	4
NMTAP	38	96	4
NMTAP	38	192	3
NMTAP	38	240	4
NMTAP	38	288	5
NMTAP	38	336	6
NMHLD	39	0	3	96
NMHLD	39	0	7	96
NMTAP	39	144	6
NMTAP	39	168	4
NMTAP	39	192	5
NMTAP	39	240	2
NMTAP	39	264	2
NMTAP	39	288	3
NMTAP	39	336	1
NMTAP	39	336	4
NMHLD	40	0	2	24
NMHLD	40	0	5	24
NMHLD	40	48	3	24
NMHLD	40	48	6	24
NMHLD	40	96	2	24
NMHLD	40	96	5	24
NMHLD	40	144	1	24
NMHLD	40	144	4	24
NMHLD	40	192	0	24
NMHLD	40	192	5	24
NMHLD	40	240	3	24
NMHLD	40	240	4	24
BRTAP	40	288	2
BRTAP	40	288	7
NMSTR	41	0	1
NMSI_	41	0	1	96	48	4
NMTAP	41	48	0
NMTAP	41	96	1
NMTAP	41	96	7
NMTAP	41	144	6
NMTAP	41	168	6
NMTAP	41	192	3
NMTAP	41	240	2
NMTAP	41	288	1
NMTAP	41	288	4
NMTAP	41	336	6
NMTAP	41	360	7
NMTAP	42	0	6
NMTAP	42	48	1
NMTAP	42	48	5
NMTAP	42	96	0
NMTAP	42	96	6
NMTAP	42	144	1
NMTAP	42	168	7
NMTAP	42	192	2
NMTAP	42	216	0
NMTAP	42	240	1
NMTAP	42	264	0
NMTAP	42	288	2
NMTAP	42	336	3
NMTAP	42	360	3
NMSTR	43	0	4
NMSI_	43	0	4	96	48	0
NMTAP	43	48	5
NMTAP	43	96	4
NMTAP	43	96	6
NMTAP	43	144	7
NMTAP	43	168	7
NMTAP	43	192	1
NMTAP	43	216	0
NMTAP	43	240	2
NMTAP	43	264	0
NMTAP	43	288	1
NMTAP	43	336	3
NMTAP	43	336	7
NMTAP	44	0	2
NMTAP	44	0	6
NMTAP	44	48	1
NMTAP	44	72	0
NMSTR	44	96	7
NMSI_	44	96	7	96	48	2
NMSI_	44	96	7	96	48	4
NMTAP	44	144	0
NMTAP	44	144	6
NMTAP	44	288	1
NMTAP	44	288	5
NMSTR	45	0	0
NMSI_	45	0	0	96	48	4
NMTAP	45	48	7
NMTAP	45	96	0
NMTAP	45	96	6
NMTAP	45	144	5
NMTAP	45	168	5
NMTAP	45	192	3
NMTAP	45	216	4
NMTAP	45	240	2
NMTAP	45	264	4
NMTAP	45	288	3
NMTAP	45	312	4
NMTAP	45	336	2
NMTAP	45	360	4
NMSTR	46	0	1
NMSCR	46	0	1	96	96	6
NMTAP	46	48	7
NMSTR	46	96	6
NMSCL	46	96	6	96	96	1
NMTAP	46	192	0
NMTAP	46	240	0
NMTAP	46	288	7
NMTAP	46	336	7
BRTAP	47	0	0
BRTAP	47	0	6
BRTAP	47	48	2
BRTAP	47	48	4
NMTAP	47	144	2
NMTAP	47	168	3
NMTAP	47	192	1
NMTAP	47	240	5
NMTAP	47	264	4
NMTAP	47	288	6
NMTAP	47	336	0
NMTAP	47	336	6
NMTAP	48	0	1
NMTAP	48	24	5
NMTAP	48	48	2
NMTAP	48	72	4
NMHLD	48	96	3	48
NMTAP	48	144	6
NMTAP	48	168	6
NMTAP	48	216	1
NMTAP	48	240	0
NMTAP	48	288	2
NMTAP	48	288	7
NMHLD	49	0	4	96
NMHLD	49	0	5	96
NMHLD	49	192	4	96
NMHLD	49	192	5	96
NMSTR	50	0	4
NMSCL	50	0	4	96	72	2
NMTAP	50	0	5
NMSTR	50	96	6
NMSXR	50	96	6	96	96	4
NMHLD	51	0	2	96
NMHLD	51	0	3	96
NMHLD	51	192	2	96
NMHLD	51	192	3	96
NMTAP	52	0	2
NMSTR	52	0	3
NMSCR	52	0	3	96	72	5
NMSTR	52	96	1
NMSV_	52	96	1	96	80	3
NMSTR	53	0	5
NMSLL	53	0	5	96	192	1
NMSTR	53	96	3
NMSLL	53	96	3	96	192	7
NMTAP	53	192	1
NMSTR	54	0	1
NMSLL	54	0	1	96	192	5
NMSTR	54	96	7
NMSLL	54	96	7	96	192	3
NMTAP	54	192	5
NMHLD	55	0	5	192
NMTAP	55	144	3
NMTAP	55	192	3
NMTAP	55	288	1
NMTAP	55	288	3
NMTAP	56	0	0
NMTAP	56	0	7
NMTAP	56	96	4
NMTAP	56	96	6
NMTAP	56	192	3
NMTAP	56	192	4
NMTAP	56	288	2
NMTAP	56	288	5
NMTAP	57	0	1
NMTAP	57	0	7
BRTAP	57	48	1
BRTAP	57	48	7
NMTAP	57	96	1
NMTAP	57	120	2
NMTAP	57	144	3
NMTAP	57	168	4
NMTAP	57	192	7
NMTAP	57	216	6
NMTAP	57	240	5
NMTAP	57	264	4
NMTAP	57	288	0
NMTAP	57	312	1
NMTAP	57	336	2
NMTAP	57	360	3
NMTAP	58	0	6
NMTAP	58	24	5
NMTAP	58	48	4
NMTAP	58	72	3
NMTAP	58	96	7
NMTAP	58	120	6
NMTAP	58	144	5
NMTAP	58	168	4
NMTAP	58	192	1
NMTAP	58	216	2
NMTAP	58	240	3
NMTAP	58	264	4
NMTAP	58	288	0
NMTAP	58	312	1
NMTAP	58	336	2
NMTAP	58	360	3
NMTAP	59	0	5
NMTAP	59	24	6
NMTAP	59	48	7
NMTAP	59	72	0
NMTAP	59	96	3
NMTAP	59	120	2
NMTAP	59	144	1
NMTAP	59	168	0
NMTAP	59	192	6
NMTAP	59	216	5
NMTAP	59	240	0
NMTAP	59	264	1
NMTAP	59	288	5
NMTAP	59	312	4
NMTAP	59	336	1
NMTAP	59	360	2
NMTAP	60	0	4
NMTAP	60	24	5
NMTAP	60	48	6
NMTAP	60	72	7
NMTAP	60	96	3
NMTAP	60	120	4
NMTAP	60	144	5
NMTAP	60	168	6
NMTAP	60	192	2
NMTAP	60	216	3
NMTAP	60	240	4
NMTAP	60	264	5
NMTAP	60	288	1
NMTAP	60	312	2
NMTAP	60	336	3
NMTAP	60	360	4
NMTAP	61	0	5
NMTAP	61	24	4
NMTAP	61	48	6
NMTAP	61	72	3
NMTAP	61	96	5
NMTAP	61	120	4
NMTAP	61	144	6
NMTAP	61	168	3
NMTAP	61	192	6
NMTAP	61	216	7
NMTAP	61	240	5
NMTAP	61	264	0
NMTAP	61	288	6
NMTAP	61	312	7
NMTAP	61	336	5
NMTAP	61	360	0
NMTAP	62	0	3
NMTAP	62	24	2
NMTAP	62	48	4
NMTAP	62	72	1
NMTAP	62	96	3
NMTAP	62	120	2
NMTAP	62	144	4
NMTAP	62	168	1
NMTAP	62	192	0
NMTAP	62	216	2
NMTAP	62	240	7
NMTAP	62	264	1
NMTAP	62	288	0
NMTAP	62	312	2
NMTAP	62	336	7
NMTAP	62	360	4
NMTAP	63	0	6
NMTAP	63	24	5
NMTAP	63	48	6
NMTAP	63	72	4
NMTAP	63	96	5
NMTAP	63	120	3
NMTAP	63	144	4
NMTAP	63	168	1
NMTAP	63	192	3
NMTAP	63	216	2
NMTAP	63	240	4
NMTAP	63	264	2
NMSTR	63	288	4
NMSI_	63	288	4	96	48	0
NMTAP	63	336	3
NMTAP	63	336	5
BRTAP	64	0	4
NMHLD	64	0	6	288
NMSTR	64	288	0
NMSCR	64	288	0	96	1152	7
BRTAP	65	0	7
NMTAP	68	192	0
NMTAP	68	192	6
NMTAP	68	240	1
NMTAP	68	240	5
NMTAP	68	288	2
NMTAP	68	288	4
NMHLD	69	0	1	96
NMTAP	69	96	3
NMTAP	69	144	3
NMTAP	69	168	2
NMTAP	69	192	3
NMTAP	69	216	2
NMTAP	69	240	3
NMTAP	69	288	1
NMTAP	69	288	3
NMTAP	69	336	0
NMHLD	70	0	6	96
NMTAP	70	0	7
NMTAP	70	96	4
NMTAP	70	144	4
NMTAP	70	168	5
NMTAP	70	192	4
NMTAP	70	216	5
NMTAP	70	240	4
NMTAP	70	288	4
NMTAP	70	288	6
NMTAP	70	336	7
NMTAP	71	0	0
NMHLD	71	0	1	96
NMTAP	71	96	3
NMTAP	71	144	4
NMTAP	71	168	4
NMTAP	71	192	2
NMTAP	71	216	2
NMTAP	71	240	3
NMTAP	71	264	3
NMSTR	71	288	1
NMSCL	71	288	1	96	144	3
NMSTR	72	96	2
NMSCL	72	96	2	96	144	4
NMTAP	72	288	3
BRTAP	73	0	0
BRTAP	75	0	2
NMHLD	75	0	6	576
NMTAP	75	12	3
NMHLD	75	24	4	72
NMTAP	75	192	7
NMTAP	75	204	0
NMHLD	75	216	1	72
NMTAP	76	0	3
NMTAP	76	12	4
NMHLD	76	24	5	72
NMTAP	76	192	7
NMTAP	76	204	0
NMTAP	76	216	1
NMTAP	76	288	2
NMTAP	76	288	4
NMSTR	77	0	5
NMSLR	77	0	5	96	192	2
NMTAP	77	96	3
NMSTR	77	192	2
NMSLL	77	192	2	96	192	5
NMTAP	77	288	4
NMSTR	78	0	5
NMSLR	78	0	5	96	192	3
NMTAP	78	96	3
NMTAP	78	192	2
NMTAP	78	288	2
NMTAP	79	0	1
NMTAP	79	0	3
NMTAP	79	48	1
NMTAP	79	48	3
NMTAP	79	96	1
NMTAP	79	96	3
NMTAP	79	144	2
NMTAP	79	168	3
NMTAP	79	192	2
NMTAP	79	240	3
NMTAP	79	240	4
NMTAP	79	288	3
NMTAP	79	288	4
NMTAP	79	336	5
NMTAP	79	360	4
NMTAP	80	0	6
NMTAP	80	24	4
NMTAP	80	48	5
NMTAP	80	72	4
NMTAP	80	96	6
NMTAP	80	120	4
NMTAP	80	144	7
NMTAP	80	168	4
NMTAP	80	192	6
NMTAP	80	216	6
NMTAP	80	240	4
NMTAP	80	264	4
NMTAP	80	288	5
NMTAP	80	312	5
NMTAP	80	336	6
NMTAP	80	360	6
BRSTR	81	0	7
NMSCL	81	0	7	96	48	4
NMTAP	81	48	0
NMTAP	81	96	2
NMTAP	81	96	7
NMTAP	81	144	1
NMTAP	81	168	1
NMSTR	81	192	3
NMSCR	81	192	3	96	48	6
NMTAP	81	240	0
NMTAP	81	288	1
NMTAP	81	288	3
NMTAP	81	336	2
NMSTR	82	0	1
NMSI_	82	0	1	96	48	7
NMTAP	82	48	7
NMTAP	82	72	6
NMSTR	82	96	1
NMSI_	82	96	1	96	48	4
NMTAP	82	144	5
NMTAP	82	168	4
NMTAP	82	192	1
NMTAP	82	240	6
NMTAP	82	264	5
NMTAP	82	288	0
NMTAP	82	336	0
NMTAP	83	0	1
NMSTR	83	0	4
NMSCR	83	0	4	96	48	7
NMTAP	83	48	1
NMTAP	83	96	1
NMTAP	83	96	4
NMTAP	83	144	2
NMTAP	83	168	2
NMSTR	83	192	0
NMSI_	83	192	0	96	48	4
NMSTR	83	240	1
NMSI_	83	240	1	96	48	3
NMSTR	83	288	0
NMSCL	83	288	0	96	48	5
NMTAP	83	336	1
NMTAP	84	0	0
NMTAP	84	48	1
NMTAP	84	72	1
NMTAP	84	96	3
NMTAP	84	144	6
NMTAP	84	168	4
NMTAP	84	192	5
NMTAP	84	216	5
NMTAP	84	240	2
NMTAP	84	264	3
NMSTR	84	288	1
NMSI_	84	288	1	96	48	5
NMTAP	84	312	4
NMTAP	84	336	0
NMTAP	84	360	5
BRTAP	85	0	1
NMTAP	85	96	3
NMTAP	85	96	7
NMTAP	85	144	6
NMTAP	85	168	4
NMSTR	85	192	5
NMSI_	85	192	5	96	48	7
NMTAP	85	240	3
NMTAP	85	288	2
NMSTR	85	288	5
NMSI_	85	288	5	96	48	3
NMTAP	85	336	1
NMTAP	86	0	0
NMTAP	86	0	5
NMTAP	86	48	0
NMTAP	86	96	0
NMTAP	86	96	4
NMTAP	86	144	1
NMTAP	86	168	3
NMSTR	86	192	2
NMSI_	86	192	2	96	48	0
NMTAP	86	240	4
NMSTR	86	288	2
NMSLR	86	288	2	96	96	0
NMTAP	86	288	5
NMTAP	86	336	6
NMTAP	87	0	2
BRTAP	87	0	7
BRTAP	87	48	7
NMTAP	87	144	1
NMTAP	87	168	0
NMSTR	87	192	2
NMSI_	87	192	2	96	48	7
NMTAP	87	240	3
NMTAP	87	264	4
NMTAP	87	288	2
NMTAP	87	336	6
NMTAP	88	0	5
NMTAP	88	24	5
NMTAP	88	48	0
NMTAP	88	72	0
NMTAP	88	96	7
NMTAP	88	120	7
NMTAP	88	144	1
NMTAP	88	168	1
NMTAP	88	192	4
NMTAP	88	216	2
NMTAP	88	240	5
NMTAP	88	264	3
BRTAP	88	288	2
BRTAP	88	288	6
NMSTR	89	0	0
NMSI_	89	0	0	96	48	5
NMTAP	89	0	7
NMTAP	89	48	1
NMTAP	89	96	0
NMSTR	89	96	2
NMSI_	89	96	2	96	48	7
NMTAP	89	144	2
NMTAP	89	192	2
NMSTR	89	192	4
NMSI_	89	192	4	96	48	1
NMTAP	89	240	5
NMTAP	89	288	4
NMSTR	89	288	6
NMSI_	89	288	6	96	48	3
NMTAP	89	336	6
NMSTR	90	0	0
NMSI_	90	0	0	96	48	5
NMTAP	90	0	6
NMTAP	90	48	1
NMTAP	90	96	0
NMSTR	90	96	2
NMSI_	90	96	2	96	48	7
NMTAP	90	144	2
NMTAP	90	192	2
NMSTR	90	192	4
NMSI_	90	192	4	96	48	1
NMTAP	90	240	5
NMTAP	90	288	4
NMTAP	90	288	6
NMTAP	90	336	6
NMTAP	91	0	0
NMSTR	91	0	7
NMSI_	91	0	7	96	48	2
NMTAP	91	48	6
NMSTR	91	96	5
NMSI_	91	96	5	96	48	0
NMTAP	91	96	7
NMTAP	91	144	5
NMSTR	91	192	3
NMSI_	91	192	3	96	48	6
NMTAP	91	192	5
NMTAP	91	240	2
NMSTR	91	288	1
NMSI_	91	288	1	96	48	4
NMTAP	91	288	3
NMTAP	91	336	1
NMTAP	92	0	1
NMSTR	92	0	7
NMSI_	92	0	7	96	48	2
NMTAP	92	48	6
NMSTR	92	96	5
NMSI_	92	96	5	96	48	0
NMTAP	92	96	7
NMTAP	92	144	5
NMTAP	92	192	3
NMTAP	92	192	5
NMSTR	92	240	2
NMSF_	92	240	2	96	48	6
NMTAP	92	288	1
NMTAP	92	288	3
BRTAP	92	336	2

T_REC_TAP	602
T_REC_BRK	23
T_REC_XTP	0
T_REC_BXX	0
T_REC_HLD	60
T_REC_XHO	0
T_REC_BHO	0
T_REC_BXH	0
T_REC_STR	71
T_REC_BST	3
T_REC_XST	0
T_REC_XBS	0
T_REC_TTP	0
T_REC_THO	0
T_REC_SLD	77
T_REC_BSL	0
T_REC_ALL	836
T_NUM_TAP	673
T_NUM_BRK	26
T_NUM_HLD	60
T_NUM_SLD	77
T_NUM_ALL	836
T_JUDGE_TAP	699
T_JUDGE_HLD	134
T_JUDGE_SLD	77
T_JUDGE_ALL	910
TTM_EACHPAIRS	126
TTM_SCR_TAP	336500
TTM_SCR_BRK	67600
TTM_SCR_HLD	60000
TTM_SCR_SLD	115500
TTM_SCR_ALL	579600
TTM_SCR_S	559700
TTM_SCR_SS	577000
TTM_RAT_ACV	10045

