VERSION	0.00.00	1.04.00
FES_MODE	0
BPM_DEF	165.000	165.000	165.000	165.000
MET_DEF	4	4
RESOLUTION	384
CLK_DEF	384
COMPATIBLE_CODE	MA2

BPM	0	0	165.000
MET	0	0	4	4

NMHLD	1	0	5	144
NMHLD	1	144	4	144
NMHLD	1	288	6	144
NMHLD	2	48	4	96
NMTAP	2	144	5
NMTAP	2	192	5
NMTAP	2	288	3
NMTAP	2	288	4
NMHLD	3	0	1	144
NMHLD	3	144	3	96
NMTAP	3	240	2
NMTAP	3	288	2
NMHLD	4	0	0	240
NMHLD	4	0	1	240
NMTAP	4	288	0
NMTAP	4	288	1
NMHLD	5	0	2	144
NMTAP	5	0	3
NMHLD	5	144	4	96
NMTAP	5	240	3
NMTAP	5	288	3
NMTAP	5	288	4
NMTAP	6	0	3
NMHLD	6	0	5	144
NMHLD	6	144	4	96
NMTAP	6	240	6
NMTAP	6	288	4
NMTAP	6	288	6
NMHLD	7	0	3	144
NMTAP	7	0	5
NMHLD	7	144	4	96
NMTAP	7	240	2
NMTAP	7	288	2
NMTAP	7	288	4
NMHLD	8	0	1	288
BRTAP	8	0	5
NMTAP	8	240	7
NMSTR	8	288	7
NMSCL	8	288	7	96	96	4
NMSTR	9	96	0
NMSCR	9	96	0	96	96	3
NMSTR	9	288	4
NMSCR	9	288	4	96	96	7
NMSTR	10	96	3
NMSCL	10	96	3	96	96	0
NMTAP	10	288	7
NMHLD	11	0	6	96
NMHLD	11	96	4	96
NMTAP	11	192	5
NMTAP	11	288	3
NMTAP	11	288	6
BRTAP	12	0	4
BRTAP	12	0	5
NMTAP	12	96	6
NMTAP	12	96	7
NMTAP	12	144	6
NMTAP	12	144	7
NMTAP	12	240	0
NMTAP	12	240	1
NMTAP	12	288	0
NMTAP	12	288	1
NMTAP	13	0	2
NMTAP	13	48	3
NMTAP	13	96	4
NMHLD	13	144	5	144
NMTAP	13	240	4
NMTAP	13	288	4
NMTAP	14	0	6
NMTAP	14	48	7
NMTAP	14	96	0
NMHLD	14	144	1	144
NMTAP	14	240	0
NMTAP	14	288	0
NMTAP	15	0	2
NMTAP	15	48	3
NMTAP	15	96	4
NMHLD	15	144	5	144
NMTAP	15	240	4
NMTAP	15	288	4
NMTAP	16	0	6
NMTAP	16	48	6
NMTAP	16	96	4
NMTAP	16	144	4
NMTAP	16	192	5
NMTAP	16	240	5
NMTAP	16	288	3
NMTAP	16	288	5
NMTAP	17	0	2
NMTAP	17	0	4
NMSTR	17	48	2
NMSUL	17	48	2	96	240	5
NMTAP	17	48	4
NMTAP	18	192	4
NMTAP	18	288	4
NMTAP	19	0	3
NMTAP	19	0	5
NMTAP	19	48	3
NMHLD	19	48	5	336
NMTAP	19	192	4
NMSTR	20	0	6
NMSCR	20	0	6	96	192	1
NMTAP	21	0	1
NMTAP	21	0	3
NMTAP	21	48	1
NMHLD	21	48	3	144
NMHLD	21	192	2	192
NMHLD	22	0	1	192
NMTAP	22	192	0
NMTAP	23	0	6
NMTAP	23	0	7
NMTAP	23	48	6
NMSTR	23	48	7
NMSI_	23	48	7	96	240	3
NMTAP	24	0	4
NMTAP	24	192	2
NMTAP	24	192	3
NMSTR	24	288	1
NMSCR	24	288	1	96	192	4
NMTAP	24	288	4
NMTAP	25	192	5
NMSTR	25	288	5
NMSCR	25	288	5	96	192	0
NMTAP	26	0	3
NMTAP	26	192	2
NMTAP	26	288	2
NMHLD	27	0	1	96
NMHLD	27	0	3	96
NMHLD	27	192	2	96
NMHLD	27	192	3	96
NMHLD	28	0	3	96
NMHLD	28	0	4	96
NMHLD	28	192	4	96
NMHLD	28	192	5	96
NMTAP	29	0	2
NMTAP	29	0	6
NMTAP	29	48	2
NMSTR	29	48	6
NMSI_	29	48	6	96	96	3
NMTAP	29	192	0
NMTAP	29	288	0
NMTAP	30	0	1
NMTAP	30	0	5
NMSTR	30	48	1
NMSI_	30	48	1	96	96	4
NMTAP	30	48	5
NMTAP	30	192	7
NMSTR	30	288	7
NMSCL	30	288	7	96	384	0
BRTAP	32	0	7
NMTAP	32	288	0
NMTAP	32	288	7
NMTAP	33	0	1
NMTAP	33	48	1
NMTAP	33	96	3
NMTAP	33	144	2
NMTAP	33	192	6
NMTAP	33	240	5
NMTAP	33	288	3
NMTAP	33	336	3
NMTAP	34	0	6
NMTAP	34	48	6
NMTAP	34	96	4
NMTAP	34	144	5
NMTAP	34	192	1
NMTAP	34	240	2
NMTAP	34	288	3
NMTAP	34	288	6
NMTAP	35	0	2
NMTAP	35	0	3
NMTAP	35	48	2
NMTAP	35	48	3
NMTAP	35	96	1
NMTAP	35	96	4
NMTAP	35	192	4
NMTAP	35	192	5
NMTAP	35	240	4
NMTAP	35	240	5
NMTAP	35	288	3
NMTAP	35	288	6
NMTAP	36	0	1
NMTAP	36	0	4
NMTAP	36	48	2
NMTAP	36	72	3
NMTAP	36	96	2
NMTAP	36	144	1
NMTAP	36	144	4
NMTAP	36	192	1
NMTAP	36	192	4
NMTAP	36	288	2
NMTAP	36	288	7
NMTAP	37	0	2
NMTAP	37	48	2
NMTAP	37	96	3
NMTAP	37	144	1
NMTAP	37	192	7
NMTAP	37	240	6
NMTAP	37	288	3
NMTAP	37	336	3
NMTAP	38	0	5
NMTAP	38	48	5
NMTAP	38	96	4
NMTAP	38	144	6
NMTAP	38	192	0
NMTAP	38	240	1
NMTAP	38	288	2
NMTAP	38	288	3
NMTAP	39	0	1
NMTAP	39	0	4
NMTAP	39	96	3
NMTAP	39	96	6
NMTAP	39	144	5
NMTAP	39	168	4
NMTAP	39	192	5
NMTAP	39	240	3
NMSTR	39	288	3
NMSCL	39	288	3	96	192	5
NMTAP	40	0	4
NMTAP	40	192	7
NMTAP	40	240	7
NMTAP	40	288	3
NMTAP	40	288	7
NMSTR	41	0	6
NMSI_	41	0	6	96	48	3
NMTAP	41	48	6
NMSTR	41	96	2
NMSI_	41	96	2	96	48	7
NMTAP	41	144	2
NMTAP	41	192	4
NMTAP	41	240	4
NMTAP	41	288	0
NMTAP	41	288	5
NMSTR	42	0	1
NMSI_	42	0	1	96	48	4
NMTAP	42	48	1
NMSTR	42	96	5
NMSI_	42	96	5	96	48	0
NMTAP	42	144	5
NMTAP	42	192	3
NMTAP	42	240	3
NMTAP	42	288	2
NMTAP	42	288	7
NMSTR	43	0	6
NMSI_	43	0	6	96	48	3
NMTAP	43	48	6
NMSTR	43	96	2
NMSI_	43	96	2	96	48	7
NMTAP	43	144	2
NMTAP	43	192	4
NMTAP	43	240	4
NMTAP	43	288	0
NMTAP	43	288	5
NMTAP	44	0	2
NMTAP	44	0	7
NMTAP	44	48	1
NMTAP	44	72	0
NMTAP	44	96	1
NMTAP	44	144	2
NMTAP	44	144	7
NMTAP	44	192	2
NMTAP	44	192	7
NMTAP	44	288	0
NMTAP	44	288	5
NMSTR	45	0	1
NMSCR	45	0	1	96	48	4
NMTAP	45	48	1
NMSTR	45	96	5
NMSI_	45	96	5	96	48	0
NMTAP	45	144	5
NMTAP	45	192	1
NMTAP	45	240	1
NMTAP	45	288	2
NMTAP	45	288	7
NMSTR	46	0	6
NMSCL	46	0	6	96	48	3
NMTAP	46	48	6
NMSTR	46	96	2
NMSI_	46	96	2	96	48	7
NMTAP	46	144	2
NMTAP	46	192	6
NMTAP	46	240	6
NMTAP	46	288	0
NMTAP	46	288	5
NMTAP	47	0	2
NMTAP	47	0	3
NMTAP	47	48	2
NMTAP	47	48	3
NMTAP	47	144	1
NMTAP	47	144	5
NMSTR	47	192	1
NMSI_	47	192	1	96	48	4
NMSTR	47	192	5
NMSI_	47	192	5	96	48	0
BRTAP	48	0	3
BRTAP	48	0	7
NMTAP	48	96	5
NMTAP	48	144	5
NMTAP	48	192	3
NMTAP	48	216	4
NMTAP	48	240	3
NMTAP	48	288	2
NMTAP	48	288	5
NMHLD	49	0	1	384
NMHLD	49	192	3	192
NMTAP	50	96	2
NMTAP	50	96	3
NMTAP	50	192	2
NMHLD	50	192	3	192
NMHLD	51	0	1	384
NMHLD	51	192	0	192
NMTAP	52	96	0
NMTAP	52	96	1
NMTAP	52	192	0
NMTAP	52	192	7
NMTAP	52	288	6
NMTAP	52	288	7
NMHLD	53	0	6	96
NMHLD	53	0	7	288
NMHLD	53	192	6	96
NMTAP	54	0	5
NMTAP	54	96	5
NMTAP	54	192	4
NMTAP	54	192	6
NMTAP	54	288	4
NMTAP	54	288	5
NMHLD	55	0	4	288
NMHLD	55	0	6	96
NMHLD	55	192	6	96
NMTAP	56	0	7
NMTAP	56	96	7
NMTAP	56	192	0
NMTAP	56	240	0
BRTAP	56	288	1
BRTAP	56	288	7
NMTAP	57	0	2
NMTAP	57	0	5
NMTAP	57	48	2
NMTAP	57	48	5
NMTAP	57	96	3
NMTAP	57	120	4
NMTAP	57	144	3
NMTAP	57	192	5
NMTAP	57	216	4
NMTAP	57	240	5
NMTAP	57	288	3
NMTAP	57	288	6
NMTAP	57	336	2
NMTAP	57	336	7
NMTAP	58	0	1
NMTAP	58	24	0
NMTAP	58	48	1
NMTAP	58	96	6
NMTAP	58	120	7
NMTAP	58	144	6
NMTAP	58	192	0
NMTAP	58	192	5
NMTAP	58	240	1
NMTAP	58	240	4
NMTAP	58	288	2
NMTAP	58	288	3
NMTAP	59	0	3
NMTAP	59	0	6
NMTAP	59	48	3
NMTAP	59	48	6
NMTAP	59	96	5
NMTAP	59	120	4
NMTAP	59	144	5
NMTAP	59	192	3
NMTAP	59	192	4
NMTAP	59	240	3
NMTAP	59	240	4
NMTAP	59	288	2
NMTAP	59	312	3
NMTAP	59	336	2
NMTAP	60	0	1
NMTAP	60	24	0
NMTAP	60	48	1
NMTAP	60	96	6
NMTAP	60	120	7
NMTAP	60	144	6
NMTAP	60	192	4
NMTAP	60	192	5
NMTAP	60	240	3
NMTAP	60	240	6
BRTAP	60	288	2
BRTAP	60	288	7
NMTAP	61	0	4
NMTAP	61	0	5
NMTAP	61	48	4
NMTAP	61	48	5
NMTAP	61	96	6
NMTAP	61	120	7
NMTAP	61	144	6
NMTAP	61	192	1
NMTAP	61	216	0
NMTAP	61	240	1
NMTAP	61	288	2
NMTAP	61	312	3
NMTAP	61	336	2
NMTAP	62	0	4
NMTAP	62	0	5
NMTAP	62	48	4
NMTAP	62	48	5
NMTAP	62	96	2
NMTAP	62	120	3
NMTAP	62	144	2
NMTAP	62	192	1
NMTAP	62	192	4
NMTAP	62	240	1
NMTAP	62	240	4
NMTAP	62	288	0
NMTAP	62	288	5
NMTAP	63	0	1
NMTAP	63	24	0
NMTAP	63	48	1
NMTAP	63	72	0
NMTAP	63	96	1
NMTAP	63	120	0
NMTAP	63	144	1
NMTAP	63	168	0
NMTAP	63	192	1
NMTAP	63	216	0
NMTAP	63	240	1
NMHLD	63	288	2	96
NMSTR	63	288	7
NMSUR	63	288	7	96	288	0
NMTAP	65	0	1
NMTAP	65	0	7
NMHLD	65	48	1	624
NMTAP	65	48	7
NMSTR	65	288	0
NMSSL	65	288	0	96	288	4
NMTAP	67	0	3
NMTAP	67	0	5
NMTAP	67	48	3
NMHLD	67	48	5	624
NMSTR	67	288	4
NMSSL	67	288	4	96	288	0
NMTAP	69	0	0
NMHLD	69	0	6	96
NMHLD	69	96	5	96
NMHLD	69	192	4	96
NMHLD	69	288	3	96
NMHLD	70	0	2	96
NMHLD	70	96	1	96
NMHLD	70	192	0	96
NMHLD	70	288	7	96
NMHLD	71	0	6	96
NMHLD	71	96	4	96
NMHLD	71	192	2	96
NMHLD	71	288	0	96
NMSTR	72	0	7
NMSCL	72	0	7	96	144	4
NMSCR	72	0	7	96	144	2
NMHLD	73	0	3	576
NMHLD	74	0	4	192
NMTAP	74	288	0
NMTAP	74	288	7
BRTAP	75	0	1
BRSTR	75	0	6
NMSCR	75	0	6	96	192	1
NMSTR	75	192	2
NMSI_	75	192	2	96	192	6
NMSTR	76	0	5
NMSCL	76	0	5	96	192	2
NMTAP	76	192	0
NMTAP	76	288	0
NMSTR	77	0	1
NMSI_	77	0	1	96	192	5
NMTAP	77	0	7
NMSTR	77	192	6
NMSCR	77	192	6	96	192	1
NMSTR	78	0	2
NMSI_	78	0	2	96	192	6
NMTAP	78	192	3
NMTAP	78	288	3
NMHLD	79	0	7	48
NMHLD	79	96	7	48
NMHLD	79	192	0	48
NMHLD	79	192	6	48
NMHLD	79	288	1	48
NMHLD	79	288	5	48
BRTAP	80	0	0
NMHLD	80	0	6	192
NMTAP	80	192	4
NMTAP	80	240	4
NMTAP	80	288	4
NMTAP	80	288	5
NMSTR	81	0	6
NMSI_	81	0	6	96	48	3
NMTAP	81	48	6
NMSTR	81	96	2
NMSI_	81	96	2	96	48	7
NMTAP	81	144	2
NMSTR	81	192	5
NMSI_	81	192	5	96	48	0
NMTAP	81	240	5
NMTAP	81	288	3
NMTAP	82	0	1
NMTAP	82	0	4
NMTAP	82	48	2
NMTAP	82	72	3
NMTAP	82	96	2
NMTAP	82	144	5
NMTAP	82	168	4
NMTAP	82	192	5
NMTAP	82	240	6
NMTAP	82	264	7
NMTAP	82	288	6
NMTAP	82	312	7
NMTAP	82	336	6
NMSTR	83	0	1
NMSI_	83	0	1	96	48	3
NMTAP	83	0	5
NMTAP	83	48	1
NMSTR	83	96	4
NMSI_	83	96	4	96	48	0
NMTAP	83	144	4
NMSTR	83	192	1
NMSI_	83	192	1	96	48	5
NMTAP	83	240	1
NMSTR	83	288	7
NMSI_	83	288	7	96	48	3
NMTAP	83	336	7
BRTAP	84	0	0
NMTAP	84	96	0
NMTAP	84	96	1
NMTAP	84	144	2
NMTAP	84	144	7
NMSTR	84	192	3
NMSI_	84	192	3	96	48	7
NMSTR	84	192	6
NMSCL	84	192	6	96	48	3
BRTAP	85	0	0
NMSTR	85	96	1
NMSI_	85	96	1	96	48	5
NMTAP	85	144	1
NMSTR	85	192	3
NMSI_	85	192	3	96	48	7
NMTAP	85	240	3
NMSTR	85	288	2
NMSI_	85	288	2	96	48	6
NMTAP	85	336	2
NMSTR	86	0	4
NMSCR	86	0	4	96	48	7
NMTAP	86	48	4
NMSTR	86	96	0
NMSCR	86	96	0	96	48	3
NMTAP	86	144	0
NMSTR	86	192	4
NMSF_	86	192	4	96	48	0
NMTAP	86	240	4
BRTAP	87	0	2
BRTAP	87	0	6
BRTAP	87	48	2
BRTAP	87	48	6
NMTAP	87	144	5
NMTAP	87	168	4
NMTAP	87	192	6
NMTAP	87	240	2
NMTAP	87	264	3
NMTAP	87	288	1
NMTAP	87	336	0
NMTAP	88	0	0
NMTAP	88	0	6
NMTAP	88	48	0
NMTAP	88	48	6
NMTAP	88	96	1
NMTAP	88	96	7
NMTAP	88	144	1
NMTAP	88	144	7
NMTAP	88	192	0
NMTAP	88	216	7
NMTAP	88	240	0
NMTAP	88	264	7
NMTAP	88	288	1
NMTAP	88	312	6
NMTAP	88	336	1
NMTAP	88	360	6
NMSTR	89	0	1
NMSI_	89	0	1	96	48	4
NMTAP	89	96	7
NMSTR	89	192	6
NMSI_	89	192	6	96	48	2
NMTAP	89	192	7
NMTAP	89	288	7
NMSTR	90	0	1
NMSI_	90	0	1	96	48	5
NMTAP	90	0	7
NMTAP	90	96	7
BRSTR	90	192	6
NMSI_	90	192	6	96	48	2
BRTAP	90	192	7
NMTAP	90	288	0
NMTAP	91	0	1
NMSTR	91	0	3
NMSI_	91	0	3	96	48	7
NMTAP	91	96	2
NMSTR	91	192	4
NMSI_	91	192	4	96	48	0
NMTAP	91	192	6
NMTAP	91	288	5
NMSTR	92	0	1
NMSI_	92	0	1	96	48	5
NMTAP	92	0	3
NMSTR	92	96	4
NMSI_	92	96	4	96	48	1
NMSI_	92	96	4	96	48	7
BRTAP	92	288	2
BRTAP	92	288	6
BRTAP	92	336	2
BRTAP	92	336	6

T_REC_TAP	403
T_REC_BRK	23
T_REC_XTP	0
T_REC_BXX	0
T_REC_HLD	67
T_REC_XHO	0
T_REC_BHO	0
T_REC_BXH	0
T_REC_STR	56
T_REC_BST	2
T_REC_XST	0
T_REC_XBS	0
T_REC_TTP	0
T_REC_THO	0
T_REC_SLD	60
T_REC_BSL	0
T_REC_ALL	611
T_NUM_TAP	459
T_NUM_BRK	25
T_NUM_HLD	67
T_NUM_SLD	60
T_NUM_ALL	611
T_JUDGE_TAP	484
T_JUDGE_HLD	220
T_JUDGE_SLD	60
T_JUDGE_ALL	764
TTM_EACHPAIRS	129
TTM_SCR_TAP	229500
TTM_SCR_BRK	65000
TTM_SCR_HLD	67000
TTM_SCR_SLD	90000
TTM_SCR_ALL	451500
TTM_SCR_S	435550
TTM_SCR_SS	449000
TTM_RAT_ACV	10055

