VERSION	0.00.00	1.04.00
FES_MODE	0
BPM_DEF	188.000	188.000	188.000	188.000
MET_DEF	4	4
RESOLUTION	384
CLK_DEF	384
COMPATIBLE_CODE	MA2

BPM	0	0	188.000
MET	0	0	4	4

NMTAP	2	0	2
NMTAP	2	24	3
NMTAP	2	72	3
NMTAP	2	96	4
NMTAP	2	144	3
NMTAP	2	144	5
NMTAP	2	192	2
NMSTR	2	192	6
NMSI_	2	192	6	96	48	2
NMTAP	2	240	1
NMTAP	2	240	7
NMTAP	2	288	2
NMTAP	2	288	6
BRTAP	3	0	0
NMTAP	3	48	0
NMTAP	3	96	7
NMTAP	3	144	7
NMHLD	3	192	0	72
NMHLD	3	264	1	72
NMTAP	3	336	2
NMHLD	4	0	6	72
NMHLD	4	72	5	72
NMTAP	4	144	4
NMTAP	4	192	4
NMSTR	4	240	2
NMSI_	4	240	2	96	48	7
NMSTR	4	288	6
NMSI_	4	288	6	96	48	3
BRTAP	4	336	2
BRTAP	5	0	6
NMTAP	5	48	0
NMTAP	5	96	1
NMTAP	5	144	2
NMHLD	5	192	7	72
NMHLD	5	264	6	72
NMTAP	5	336	5
NMTAP	6	0	1
NMTAP	6	16	2
NMTAP	6	32	3
NMTAP	6	48	4
NMTAP	6	64	5
NMTAP	6	80	6
NMTAP	6	96	0
NMTAP	6	96	7
NMTAP	6	144	1
NMTAP	6	144	6
NMHLD	6	192	2	48
NMHLD	6	192	5	48
NMHLD	6	264	3	48
NMHLD	6	264	4	48
NMTAP	6	336	1
BRTAP	6	336	6
BRTAP	7	0	1
NMTAP	7	0	6
NMTAP	7	48	7
NMTAP	7	96	0
NMTAP	7	144	1
NMHLD	7	192	7	72
NMHLD	7	264	6	72
NMTAP	7	336	5
NMHLD	8	0	1	72
NMHLD	8	72	2	72
NMTAP	8	144	3
NMTAP	8	192	3
NMSTR	8	240	5
NMSI_	8	240	5	96	48	0
NMSTR	8	288	1
NMSI_	8	288	1	96	48	4
BRTAP	8	336	5
BRTAP	9	0	1
NMTAP	9	96	7
NMTAP	9	120	0
NMTAP	9	120	6
NMTAP	9	144	1
NMTAP	9	144	5
NMTAP	9	168	2
NMTAP	9	168	4
NMSTR	9	192	3
NMSF_	9	192	3	96	48	7
BRTAP	10	0	0
NMTAP	10	0	6
BRTAP	10	96	1
NMTAP	10	96	5
BRTAP	10	192	2
NMSTR	10	192	4
NMSI_	10	192	4	96	48	0
NMTAP	10	240	3
NMTAP	10	264	3
NMTAP	10	288	4
NMTAP	11	0	1
NMTAP	11	0	7
NMTAP	11	48	2
NMTAP	11	96	3
NMTAP	11	96	4
NMTAP	11	144	5
NMTAP	11	192	0
NMTAP	11	192	6
NMTAP	11	240	2
NMTAP	11	264	3
NMTAP	11	288	2
NMTAP	11	336	1
NMTAP	11	336	4
NMTAP	12	0	0
NMTAP	12	48	5
NMTAP	12	72	4
NMTAP	12	96	5
NMTAP	12	144	3
NMTAP	12	144	6
NMTAP	12	192	7
NMTAP	12	240	1
NMTAP	12	288	3
NMTAP	12	336	5
NMTAP	13	0	1
NMTAP	13	0	7
NMTAP	13	48	2
NMTAP	13	96	3
NMTAP	13	96	4
NMTAP	13	144	5
NMTAP	13	192	0
NMTAP	13	192	6
NMTAP	13	240	2
NMTAP	13	264	3
NMTAP	13	288	2
NMTAP	13	336	1
NMTAP	13	336	4
NMTAP	14	0	0
NMTAP	14	48	5
NMTAP	14	72	4
NMTAP	14	96	5
NMTAP	14	144	3
NMTAP	14	144	6
NMTAP	14	192	7
NMTAP	14	240	2
NMTAP	14	264	1
NMTAP	14	264	3
NMTAP	14	312	5
NMTAP	14	336	4
NMTAP	14	336	6
NMTAP	15	0	0
NMTAP	15	48	0
NMTAP	15	96	1
NMTAP	15	96	7
NMTAP	15	144	1
NMTAP	15	144	7
NMSTR	15	192	2
NMSCR	15	192	2	96	48	5
NMTAP	15	192	6
NMTAP	15	240	2
NMTAP	15	240	6
NMTAP	16	0	3
NMSTR	16	0	7
NMSI_	16	0	7	96	48	3
NMTAP	16	24	2
NMTAP	16	24	6
NMTAP	16	48	1
NMTAP	16	48	5
NMTAP	16	72	0
NMTAP	16	72	4
NMSTR	16	192	5
NMSCL	16	192	5	96	48	2
NMTAP	16	208	6
NMTAP	16	224	7
NMTAP	16	240	0
NMTAP	16	256	1
NMTAP	16	272	2
NMTAP	17	0	0
NMTAP	17	24	7
NMTAP	17	48	1
NMTAP	17	72	6
NMTAP	17	96	0
NMTAP	17	120	7
NMTAP	17	144	2
NMTAP	17	168	5
NMTAP	17	192	0
NMTAP	17	204	1
NMTAP	17	216	2
NMTAP	17	228	3
NMTAP	17	240	4
NMTAP	17	252	5
NMTAP	17	264	6
NMTAP	17	276	7
NMTAP	17	288	0
NMTAP	17	300	1
NMTAP	17	312	2
NMTAP	17	324	3
NMTAP	17	336	4
NMTAP	17	348	5
NMTAP	17	360	6
NMTAP	17	372	7
NMSTR	18	0	0
NMSCR	18	0	0	96	48	3
NMTAP	18	96	0
NMSTR	18	96	7
NMSCL	18	96	7	96	48	4
NMTAP	18	192	0
NMTAP	18	192	7
NMTAP	18	240	2
NMTAP	18	264	2
NMSTR	18	288	1
NMSI_	18	288	1	96	48	5
BRTAP	18	288	3
BRTAP	19	0	1
NMTAP	19	0	5
NMTAP	19	96	7
NMTAP	19	144	7
NMTAP	19	192	0
NMTAP	19	192	6
NMTAP	19	240	5
NMTAP	19	288	3
NMTAP	19	288	4
NMTAP	19	336	2
NMTAP	20	0	1
NMTAP	20	0	7
NMTAP	20	24	6
NMTAP	20	48	5
NMTAP	20	72	4
NMTAP	20	96	1
NMTAP	20	120	2
NMTAP	20	144	3
NMTAP	20	168	4
NMSTR	20	192	6
NMSUL	20	192	6	96	96	4
NMTAP	20	240	7
BRTAP	20	288	0
NMTAP	21	0	2
NMHLD	21	48	1	48
NMHLD	21	48	3	48
NMHLD	21	144	4	48
NMHLD	21	144	6	48
NMTAP	21	240	0
NMTAP	21	264	0
NMTAP	21	288	0
NMTAP	21	336	1
NMTAP	21	336	7
NMTAP	22	0	0
NMTAP	22	0	6
NMTAP	22	24	1
NMTAP	22	48	2
NMTAP	22	72	3
NMTAP	22	96	6
NMTAP	22	120	5
NMTAP	22	144	4
NMTAP	22	168	3
BRSTR	22	192	1
NMSI_	22	192	1	96	48	6
NMTAP	22	192	2
NMTAP	22	288	1
BRSTR	22	288	5
NMSI_	22	288	5	96	48	2
BRTAP	23	0	1
NMTAP	23	0	5
NMTAP	23	96	0
NMTAP	23	144	0
NMTAP	23	192	1
NMTAP	23	192	7
NMTAP	23	240	2
NMTAP	23	288	3
NMTAP	23	288	4
NMTAP	23	336	5
NMTAP	24	0	0
NMTAP	24	0	6
NMTAP	24	24	1
NMTAP	24	48	2
NMTAP	24	72	3
NMTAP	24	96	4
NMTAP	24	120	5
NMTAP	24	144	6
NMTAP	24	168	7
NMSTR	24	192	0
NMSI_	24	192	0	96	48	4
NMTAP	24	192	4
NMTAP	24	240	0
NMTAP	24	240	4
BRSTR	24	288	5
NMSCR	24	288	5	96	144	3
NMHLD	25	144	0	48
NMHLD	25	216	1	48
NMHLD	25	216	7	48
NMSTR	25	288	2
NMSI_	25	288	2	96	48	0
NMSTR	25	288	6
NMSI_	25	288	6	96	48	0
BRSTR	26	0	2
NMSI_	26	0	2	96	48	4
BRSTR	26	0	6
NMSI_	26	0	6	96	48	4
BRTAP	26	96	2
BRSTR	26	96	6
NMSI_	26	96	6	96	48	2
BRSTR	26	192	0
NMSF_	26	192	0	96	48	4
BRTAP	26	192	6
BRTAP	26	288	0
NMTAP	27	0	2
NMTAP	27	0	6
NMTAP	27	48	2
NMTAP	27	72	3
NMTAP	27	96	1
NMTAP	27	144	5
NMTAP	27	168	4
NMTAP	27	192	6
NMSTR	27	240	1
NMSI_	27	240	1	96	48	3
NMTAP	27	240	7
NMSTR	27	336	0
NMSI_	27	336	0	96	48	4
NMTAP	27	336	1
NMTAP	28	48	0
NMSTR	28	48	7
NMSI_	28	48	7	96	48	3
NMSTR	28	144	6
NMSI_	28	144	6	96	48	4
NMTAP	28	144	7
NMTAP	28	240	0
NMTAP	28	240	6
NMTAP	28	336	2
NMTAP	28	336	3
NMTAP	29	0	1
NMTAP	29	0	4
NMTAP	29	48	5
NMTAP	29	72	4
NMTAP	29	96	6
NMTAP	29	144	2
NMTAP	29	168	3
NMTAP	29	192	1
NMTAP	29	240	0
NMSTR	29	240	6
NMSI_	29	240	6	96	48	4
NMTAP	29	336	6
NMSTR	29	336	7
NMSI_	29	336	7	96	48	3
NMSTR	30	48	0
NMSI_	30	48	0	96	48	4
NMTAP	30	48	7
NMTAP	30	144	0
NMSTR	30	144	1
NMSI_	30	144	1	96	48	3
NMTAP	30	240	1
NMTAP	30	240	7
NMTAP	30	288	7
NMTAP	30	312	6
NMTAP	30	336	5
NMTAP	30	360	4
BRTAP	31	0	2
BRTAP	31	0	3
NMTAP	31	48	1
NMTAP	31	96	1
NMTAP	31	144	1
NMTAP	31	192	0
NMTAP	31	192	7
NMTAP	31	240	6
NMTAP	31	288	6
NMTAP	31	336	6
NMTAP	32	0	4
NMTAP	32	0	5
NMTAP	32	48	3
NMTAP	32	96	2
NMTAP	32	96	4
NMTAP	32	144	1
NMTAP	32	192	0
NMTAP	32	192	7
NMTAP	32	240	6
NMTAP	32	288	3
NMTAP	32	288	5
NMTAP	32	336	2
NMTAP	33	0	1
NMTAP	33	24	0
NMTAP	33	48	1
NMTAP	33	72	0
NMTAP	33	96	3
NMTAP	33	120	4
NMTAP	33	144	3
NMTAP	33	168	4
NMTAP	33	192	7
NMTAP	33	216	6
NMTAP	33	240	7
NMTAP	33	264	6
NMTAP	33	288	0
NMTAP	33	312	7
NMTAP	33	336	1
NMTAP	33	360	6
NMTAP	34	0	2
NMTAP	34	16	3
NMTAP	34	32	4
NMTAP	34	48	5
NMTAP	34	64	6
NMTAP	34	80	7
NMTAP	34	96	0
NMTAP	34	108	1
NMTAP	34	120	2
NMTAP	34	132	3
NMTAP	34	144	4
NMTAP	34	156	5
NMTAP	34	168	6
NMTAP	34	180	7
NMTAP	34	192	0
NMTAP	34	200	1
NMTAP	34	208	2
NMTAP	34	216	3
NMTAP	34	224	4
NMTAP	34	232	5
NMTAP	34	240	6
NMTAP	34	248	7
NMTAP	34	256	0
NMTAP	34	264	1
NMTAP	34	272	2
NMTAP	34	280	3
NMSTR	34	288	4
NMSF_	34	288	4	96	48	0
BRTAP	35	0	4
NMTAP	35	192	2
NMTAP	36	0	3
NMTAP	36	192	4
NMTAP	37	0	5
NMTAP	38	240	4
NMTAP	38	288	2
NMTAP	38	336	3
NMSTR	39	0	1
NMSI_	39	0	1	96	48	3
NMTAP	39	96	1
NMTAP	39	192	5
NMTAP	39	240	3
NMTAP	39	288	4
NMSTR	39	336	2
NMSCR	39	336	2	96	96	5
NMTAP	40	48	2
NMTAP	40	240	6
NMTAP	40	288	4
NMTAP	40	336	5
NMTAP	41	0	3
NMTAP	41	96	7
NMTAP	41	120	7
NMTAP	41	144	7
NMTAP	41	192	2
NMTAP	41	240	4
NMTAP	41	288	3
NMSTR	41	336	5
NMSCL	41	336	5	96	96	2
NMTAP	42	48	5
NMTAP	42	240	1
NMTAP	42	288	3
NMTAP	42	336	2
NMTAP	43	0	4
NMTAP	43	96	3
NMTAP	43	96	5
NMTAP	43	192	4
NMTAP	43	192	6
NMTAP	43	288	7
NMTAP	43	336	7
NMTAP	44	48	2
NMTAP	44	48	4
NMTAP	44	144	1
NMTAP	44	144	3
NMTAP	44	240	0
NMTAP	44	288	0
NMTAP	44	336	7
NMTAP	45	48	3
NMTAP	45	48	4
NMTAP	45	96	3
NMTAP	45	96	4
NMTAP	45	192	5
NMTAP	45	240	4
NMTAP	45	288	3
NMTAP	45	336	2
NMTAP	45	336	5
NMTAP	46	48	0
NMTAP	46	72	7
NMTAP	46	96	0
NMTAP	46	120	7
NMTAP	46	144	0
NMTAP	46	168	7
NMTAP	46	192	0
NMTAP	46	216	7
NMTAP	46	240	1
NMTAP	46	264	2
NMTAP	46	288	3
NMTAP	46	312	4
NMTAP	46	336	5
NMTAP	46	360	6
NMTAP	47	0	0
NMTAP	47	0	7
NMHLD	47	192	1	96
NMTAP	47	288	3
NMHLD	48	0	0	96
NMTAP	48	96	3
NMHLD	48	192	7	96
NMTAP	48	288	4
NMHLD	49	0	6	96
NMTAP	49	96	4
NMTAP	49	192	5
NMTAP	49	240	3
NMTAP	49	288	4
NMSTR	49	336	2
NMSCR	49	336	2	96	96	5
NMSTR	50	48	5
NMSCR	50	48	5	96	96	0
NMSTR	50	144	0
NMSCR	50	144	0	96	96	3
NMTAP	50	240	3
NMTAP	50	336	6
NMTAP	50	360	6
NMTAP	51	0	4
NMTAP	51	96	3
NMTAP	51	96	4
NMTAP	51	192	1
NMTAP	51	264	2
NMTAP	51	336	3
NMTAP	52	0	6
NMTAP	52	72	5
NMTAP	52	144	4
NMTAP	52	216	3
NMTAP	52	288	2
NMTAP	52	336	2
NMTAP	53	0	5
NMTAP	53	48	5
NMTAP	53	96	3
NMTAP	53	144	3
NMHLD	53	192	4	72
NMHLD	53	264	3	72
NMTAP	53	336	4
NMSTR	54	0	1
NMSCR	54	0	1	96	48	3
NMSTR	54	0	6
NMSCL	54	0	6	96	48	4
NMTAP	54	192	0
NMTAP	54	192	7
NMTAP	54	204	1
NMTAP	54	216	2
NMTAP	54	228	3
NMTAP	54	240	4
NMTAP	54	252	5
NMTAP	54	264	6
NMTAP	54	276	7
NMTAP	54	288	0
NMTAP	54	300	1
NMTAP	54	312	2
NMTAP	54	324	3
NMTAP	54	336	4
NMTAP	54	348	5
NMTAP	54	360	6
NMTAP	54	372	7
NMHLD	55	0	0	288
NMTAP	55	96	2
NMTAP	55	144	4
NMSTR	55	192	6
NMSCL	55	192	6	96	48	4
NMSTR	55	288	6
NMSCR	55	288	6	96	240	4
NMHLD	56	0	3	336
NMTAP	56	336	5
BRTAP	57	0	1
NMHLD	57	0	7	288
NMTAP	57	96	5
NMTAP	57	144	3
NMSTR	57	192	1
NMSCR	57	192	1	96	48	3
NMTAP	57	288	1
NMTAP	58	0	1
NMTAP	58	0	4
NMTAP	58	16	0
NMTAP	58	32	7
NMTAP	58	48	6
NMTAP	58	64	5
NMTAP	58	80	4
NMTAP	58	96	3
NMTAP	58	144	3
NMHLD	58	192	1	48
NMHLD	58	192	3	48
NMHLD	58	264	4	48
NMHLD	58	264	6	48
NMTAP	58	336	0
NMTAP	58	336	7
BRTAP	59	0	0
BRTAP	59	0	7
NMTAP	59	96	3
NMTAP	59	96	4
NMTAP	59	144	3
NMTAP	59	144	4
NMSTR	59	192	1
NMSI_	59	192	1	96	48	5
NMTAP	59	192	6
NMSTR	59	288	5
NMSI_	59	288	5	96	48	1
NMTAP	60	0	7
NMTAP	60	96	7
NMTAP	60	144	0
NMTAP	60	144	6
NMTAP	60	192	1
NMTAP	60	192	5
NMTAP	60	336	3
NMTAP	60	336	4
NMTAP	61	0	5
NMTAP	61	48	4
NMTAP	61	96	2
NMTAP	61	144	3
NMSTR	61	192	6
NMSI_	61	192	6	96	48	2
NMSTR	61	288	2
NMSI_	61	288	2	96	48	6
NMHLD	62	0	0	144
NMTAP	62	144	7
NMSTR	62	192	0
NMSCR	62	192	0	96	48	3
NMSTR	62	192	7
NMSCL	62	192	7	96	48	4
BRTAP	62	288	0
BRTAP	62	288	7
NMTAP	63	0	1
NMHLD	63	0	6	48
NMTAP	63	48	1
NMTAP	63	96	1
NMHLD	63	96	7	48
NMTAP	63	144	1
NMHLD	63	192	0	48
NMTAP	63	192	1
NMTAP	63	240	1
NMTAP	63	288	1
NMHLD	63	288	2	48
NMTAP	63	336	1
NMTAP	64	0	1
NMHLD	64	0	3	48
NMTAP	64	48	1
NMTAP	64	96	1
NMHLD	64	96	4	48
NMTAP	64	144	1
NMSTR	64	192	1
NMSI_	64	192	1	96	48	5
NMHLD	64	192	5	48
NMTAP	64	240	1
BRTAP	64	288	7
NMHLD	65	0	0	48
NMTAP	65	0	6
NMTAP	65	48	6
NMTAP	65	96	6
NMHLD	65	96	7	48
NMTAP	65	144	6
NMHLD	65	192	5	48
NMTAP	65	192	6
NMTAP	65	240	6
NMHLD	65	288	4	48
NMTAP	65	288	6
NMTAP	65	336	6
NMHLD	66	0	3	48
NMTAP	66	0	6
NMTAP	66	48	6
NMHLD	66	96	2	48
NMTAP	66	96	6
NMTAP	66	144	6
NMHLD	66	192	1	48
NMTAP	66	192	6
NMTAP	66	208	5
NMTAP	66	224	4
NMSTR	66	240	3
NMSI_	66	240	3	96	48	7
BRTAP	66	336	2
NMTAP	67	0	0
NMTAP	67	48	0
NMTAP	67	96	1
NMTAP	67	96	7
NMTAP	67	144	1
NMTAP	67	144	7
NMSTR	67	192	2
NMSI_	67	192	2	96	48	7
NMSTR	67	192	6
NMSI_	67	192	6	96	48	4
NMTAP	67	240	2
NMTAP	67	240	6
NMSTR	68	0	1
NMSI_	68	0	1	96	48	3
NMSTR	68	0	5
NMSI_	68	0	5	96	48	0
NMTAP	68	48	1
NMTAP	68	48	5
NMSTR	68	192	4
NMSF_	68	192	4	96	48	0
NMTAP	68	208	3
NMTAP	68	208	5
NMTAP	68	224	2
NMTAP	68	224	6
NMTAP	68	240	1
NMTAP	68	240	7
NMTAP	69	0	2
NMTAP	69	24	6
NMTAP	69	48	2
NMTAP	69	72	6
NMSTR	69	96	3
NMSCL	69	96	3	96	144	4
NMTAP	69	120	5
NMTAP	69	144	3
NMTAP	69	168	5
BRTAP	69	192	3
BRSTR	70	0	0
NMSI_	70	0	0	96	32	6
BRSTR	70	96	1
NMSI_	70	96	1	96	48	5
BRSTR	70	192	2
NMSI_	70	192	2	96	32	4
BRTAP	70	288	7
NMTAP	71	0	1
NMTAP	71	0	5
NMTAP	71	48	6
NMTAP	71	72	7
NMTAP	71	96	6
NMTAP	71	144	1
NMTAP	71	168	0
NMTAP	71	192	1
NMTAP	71	240	6
NMTAP	71	264	7
NMTAP	71	288	5
NMTAP	71	336	1
NMTAP	71	360	0
NMTAP	72	0	2
NMTAP	72	48	4
NMTAP	72	72	3
NMSTR	72	96	4
NMSCR	72	96	4	96	32	7
BRTAP	72	144	1
NMTAP	72	160	2
NMTAP	72	176	3
NMTAP	72	192	4
NMTAP	72	288	5
NMTAP	72	312	4
NMTAP	72	336	6
NMTAP	72	360	4
NMTAP	73	0	5
NMTAP	73	48	1
NMTAP	73	72	3
NMTAP	73	96	2
NMTAP	73	144	7
NMTAP	73	168	4
NMTAP	73	192	5
NMTAP	73	240	0
NMTAP	73	264	3
NMTAP	73	288	2
NMTAP	73	336	6
NMTAP	73	360	7
NMTAP	74	0	6
NMTAP	74	48	1
NMTAP	74	72	0
NMTAP	74	96	1
NMTAP	74	144	5
NMTAP	74	168	4
NMTAP	74	192	5
NMTAP	74	240	4
NMTAP	74	240	6
NMSTR	74	288	7
NMSI_	74	288	7	96	48	3
NMTAP	74	312	3
NMTAP	74	336	5
NMTAP	74	360	1
NMTAP	75	0	7
NMSTR	75	96	1
NMSI_	75	96	1	96	48	5
NMTAP	75	96	6
NMTAP	75	144	7
NMSTR	75	192	0
NMSI_	75	192	0	96	48	4
NMTAP	75	192	1
NMTAP	75	288	0
NMSTR	75	288	7
NMSI_	75	288	7	96	48	3
NMSTR	76	0	6
NMSI_	76	0	6	96	48	2
NMTAP	76	0	7
NMSTR	76	96	0
NMSLL	76	96	0	96	96	4
NMSLR	76	96	0	96	96	4
NMTAP	76	144	0
NMTAP	76	336	2
NMTAP	76	336	6
NMTAP	77	0	0
NMTAP	77	0	7
NMTAP	77	48	1
NMSTR	77	96	0
NMSI_	77	96	0	96	48	2
NMSTR	77	96	7
NMSI_	77	96	7	96	48	3
NMTAP	77	144	6
NMSTR	77	192	0
NMSI_	77	192	0	96	48	4
NMSTR	77	192	7
NMSI_	77	192	7	96	48	5
NMSTR	77	288	0
NMSI_	77	288	0	96	48	2
NMSTR	77	288	7
NMSI_	77	288	7	96	48	3
NMTAP	78	0	0
NMTAP	78	0	7
NMTAP	78	96	4
NMTAP	78	144	3
NMTAP	78	144	5
NMSTR	78	192	1
NMSCR	78	192	1	96	48	4
NMSTR	78	192	7
NMSCL	78	192	7	96	48	4
NMSTR	79	0	0
NMSI_	79	0	0	96	48	4
NMTAP	79	12	1
NMTAP	79	24	2
NMTAP	79	36	3
NMTAP	79	48	4
NMTAP	79	60	5
NMTAP	79	72	6
NMTAP	79	84	7
BRTAP	79	96	0
NMTAP	79	192	3
NMTAP	79	192	5
NMTAP	79	240	1
NMTAP	79	264	0
NMTAP	79	288	1
NMTAP	79	336	6
NMTAP	79	360	7
NMTAP	80	0	6
NMTAP	80	48	3
NMTAP	80	72	4
NMSTR	80	96	3
NMSCL	80	96	3	96	32	0
BRTAP	80	144	6
NMTAP	80	160	5
NMTAP	80	176	4
NMTAP	80	192	3
NMTAP	80	288	2
NMTAP	80	312	3
NMTAP	80	336	1
NMTAP	80	360	3
NMTAP	81	0	2
NMTAP	81	48	6
NMTAP	81	72	4
NMTAP	81	96	5
NMTAP	81	144	0
NMTAP	81	168	3
NMTAP	81	192	2
NMTAP	81	240	7
NMTAP	81	264	4
NMTAP	81	288	5
NMTAP	81	336	1
NMTAP	81	360	0
NMTAP	82	0	1
NMTAP	82	48	6
NMTAP	82	72	7
NMTAP	82	96	6
NMTAP	82	144	2
NMTAP	82	168	3
NMTAP	82	192	2
NMTAP	82	240	1
NMTAP	82	240	3
NMSTR	82	288	0
NMSI_	82	288	0	96	48	4
NMTAP	82	312	4
NMTAP	82	336	2
NMTAP	82	360	6
BRTAP	83	0	0
NMSTR	83	96	6
NMSI_	83	96	6	96	48	4
NMTAP	83	144	6
NMSTR	83	192	7
NMSI_	83	192	7	96	48	3
NMTAP	83	240	7
NMSTR	83	288	0
NMSI_	83	288	0	96	48	4
NMTAP	83	336	0
BRSTR	84	0	1
NMSI_	84	0	1	96	48	3
NMTAP	84	48	1
NMSTR	84	96	0
NMSI_	84	96	0	96	48	4
NMTAP	84	144	0
NMSTR	84	192	7
NMSI_	84	192	7	96	48	3
NMTAP	84	240	7
NMSTR	84	288	6
NMSI_	84	288	6	96	48	2
NMTAP	84	336	6
BRTAP	85	0	0
NMSTR	85	96	0
NMSI_	85	96	0	96	48	3
NMSTR	85	96	7
NMSI_	85	96	7	96	48	4
NMTAP	85	144	1
NMTAP	85	144	6
BRSTR	85	192	0
NMSCL	85	192	0	96	48	5
BRSTR	85	192	7
NMSCR	85	192	7	96	48	2
BRSTR	85	288	0
NMSI_	85	288	0	96	48	4
BRSTR	85	288	7
NMSI_	85	288	7	96	48	3
BRTAP	86	0	0
BRTAP	86	0	7
NMTAP	86	96	1
NMTAP	86	96	6
NMTAP	86	144	2
NMTAP	86	144	5
NMSTR	86	192	3
NMSCL	86	192	3	96	48	0
NMSTR	86	192	4
NMSCR	86	192	4	96	48	7
BRTAP	86	288	3
BRTAP	86	288	4
NMTAP	87	0	1
NMTAP	87	0	6
NMTAP	87	48	2
NMTAP	87	72	3
NMTAP	87	96	1
NMTAP	87	144	5
NMTAP	87	168	4
NMTAP	87	192	6
NMTAP	87	240	2
NMTAP	87	264	3
NMTAP	87	288	0
NMTAP	87	336	5
NMTAP	87	360	4
NMTAP	88	0	7
NMTAP	88	48	1
NMTAP	88	72	0
NMSTR	88	96	1
NMSCR	88	96	1	96	32	4
BRTAP	88	144	4
NMTAP	88	160	5
NMTAP	88	176	6
NMTAP	88	192	7
NMSTR	88	240	0
NMSCL	88	240	0	96	48	5
NMSTR	88	288	1
NMSUR	88	288	1	96	96	3
NMTAP	88	336	0
NMTAP	89	0	1
NMTAP	89	96	4
NMTAP	89	120	4
NMTAP	89	144	4
NMSTR	89	192	3
NMSCR	89	192	3	96	48	5
NMSTR	89	240	5
NMSCR	89	240	5	96	48	7
NMSTR	89	288	7
NMSCR	89	288	7	96	48	1
NMSTR	89	336	1
NMSCR	89	336	1	96	48	3
NMSTR	90	48	4
NMSF_	90	48	4	96	48	0
NMTAP	90	240	3
NMTAP	90	240	5
NMTAP	90	288	2
NMSTR	90	288	6
NMSI_	90	288	6	96	48	2
NMTAP	90	336	1
NMTAP	90	336	7
NMSTR	91	0	0
NMSI_	91	0	0	96	48	4
NMTAP	91	96	0
NMSTR	91	96	7
NMSI_	91	96	7	96	48	3
NMSTR	91	192	1
NMSI_	91	192	1	96	48	5
NMTAP	91	192	7
NMTAP	91	288	6
NMSTR	91	336	6
NMSCR	91	336	6	96	48	1
NMSTR	92	48	2
NMSCR	92	48	2	96	48	5
NMTAP	92	48	6
NMTAP	92	144	2
NMSTR	92	144	7
NMSI_	92	144	7	96	48	3
NMTAP	92	240	2
NMTAP	92	288	1
NMSTR	92	336	0
NMSI_	92	336	0	96	48	4
NMTAP	92	336	4
NMTAP	93	48	3
NMTAP	93	96	7
NMSTR	93	192	6
NMSCL	93	192	6	96	48	3
NMTAP	93	240	7
NMTAP	93	288	6
NMTAP	93	336	1
BRTAP	94	0	2
BRTAP	94	0	3
BRTAP	94	48	4
BRTAP	94	48	5
BRTAP	94	96	1
BRTAP	94	96	3
BRTAP	94	144	4
BRTAP	94	144	6
BRTAP	94	192	0
BRTAP	94	192	2
BRTAP	94	240	5
BRTAP	94	240	7
BRTAP	94	288	1
BRTAP	94	288	6
NMSTR	95	0	0
NMSI_	95	0	0	96	48	4
NMSTR	95	0	7
NMSI_	95	0	7	96	48	3
NMTAP	95	16	1
NMTAP	95	16	6
NMTAP	95	32	2
NMTAP	95	32	5
NMTAP	95	48	3
NMTAP	95	48	4
BRTAP	95	96	0
BRTAP	95	96	7
NMTAP	95	192	2
NMHLD	95	192	6	144
NMTAP	95	336	4
NMHLD	96	0	1	96
NMSTR	96	0	7
NMSI_	96	0	7	96	48	3
NMTAP	96	96	7
NMHLD	96	192	0	48
NMHLD	96	192	2	48
NMHLD	96	264	5	48
NMHLD	96	264	7	48
BRTAP	96	336	1
NMTAP	96	336	6
NMTAP	97	0	1
BRTAP	97	0	6
NMSTR	97	96	0
NMSI_	97	96	0	96	48	4
NMTAP	97	96	4
NMTAP	97	192	7
NMTAP	97	240	6
NMTAP	97	288	5
NMTAP	97	336	2
NMTAP	97	336	3
NMTAP	98	0	1
NMTAP	98	0	4
BRTAP	98	48	0
NMTAP	98	64	1
NMTAP	98	80	2
NMTAP	98	96	3
BRTAP	98	144	7
NMTAP	98	160	6
NMTAP	98	176	5
NMHLD	98	192	3	48
NMHLD	98	192	4	48
NMHLD	98	264	0	48
NMHLD	98	264	7	48
BRTAP	98	336	1
BRTAP	98	336	6
BRTAP	99	0	1
BRTAP	99	0	6
NMTAP	99	48	2
NMTAP	99	72	3
NMTAP	99	96	2
BRTAP	99	144	1
BRTAP	99	144	4
NMTAP	99	192	0
NMTAP	99	240	5
NMTAP	99	264	4
NMTAP	99	288	5
BRTAP	99	336	3
BRTAP	99	336	6
NMTAP	100	0	7
BRTAP	100	48	0
BRTAP	100	48	6
NMTAP	100	96	2
BRTAP	100	144	1
BRTAP	100	144	3
NMTAP	100	192	5
BRTAP	100	240	4
BRTAP	100	240	6
NMTAP	100	288	0
BRTAP	100	336	1
BRTAP	100	336	7
BRSTR	101	0	6
NMSI_	101	0	6	96	48	2
NMTAP	101	48	6
BRSTR	101	96	0
NMSI_	101	96	0	96	48	4
NMTAP	101	96	6
NMTAP	101	144	0
NMTAP	101	192	0
BRSTR	101	192	7
NMSI_	101	192	7	96	48	3
NMTAP	101	240	7
BRSTR	101	288	1
NMSI_	101	288	1	96	48	5
NMTAP	101	288	7
NMTAP	101	336	1
NMTAP	102	0	1
BRSTR	102	0	6
NMSI_	102	0	6	96	48	2
NMTAP	102	48	6
BRTAP	102	96	0
NMTAP	102	96	6
NMTAP	102	144	0
BRTAP	102	192	0
NMTAP	102	204	1
NMTAP	102	216	2
NMTAP	102	228	3
NMTAP	102	240	4
NMTAP	102	252	5
NMTAP	102	264	6
NMTAP	102	276	7
NMTAP	102	288	0
NMTAP	102	296	1
NMTAP	102	304	2
NMTAP	102	312	3
NMTAP	102	320	4
NMTAP	102	328	5
NMTAP	102	336	6
NMTAP	102	344	7
NMTAP	102	352	0
NMTAP	102	360	1
NMTAP	102	368	2
NMTAP	102	376	3
BRSTR	103	0	4
NMSCR	103	0	4	96	192	3
BRTAP	103	288	7

T_REC_TAP	731
T_REC_BRK	78
T_REC_XTP	0
T_REC_HLD	59
T_REC_XHO	0
T_REC_STR	100
T_REC_BST	21
T_REC_XST	0
T_REC_TTP	0
T_REC_THO	0
T_REC_SLD	122
T_REC_ALL	1111
T_NUM_TAP	831
T_NUM_BRK	99
T_NUM_HLD	59
T_NUM_SLD	122
T_NUM_ALL	1111
T_JUDGE_TAP	930
T_JUDGE_HLD	96
T_JUDGE_SLD	122
T_JUDGE_ALL	1148
TTM_EACHPAIRS	197
TTM_SCR_TAP	415500
TTM_SCR_BRK	257400
TTM_SCR_HLD	59000
TTM_SCR_SLD	183000
TTM_SCR_ALL	914900
TTM_SCR_S	877850
TTM_SCR_SS	905000
TTM_RAT_ACV	10109

