VERSION	0.00.00	1.04.00
FES_MODE	0
BPM_DEF	188.000	188.000	188.000	188.000
MET_DEF	4	4
RESOLUTION	384
CLK_DEF	384
COMPATIBLE_CODE	MA2

BPM	0	0	188.000
MET	0	0	4	4

NMTAP	2	0	4
NMTAP	2	48	4
NMTAP	2	96	3
NMTAP	2	144	3
NMTAP	2	192	3
NMTAP	2	192	4
BRTAP	2	288	2
BRTAP	2	288	5
BRTAP	3	0	1
NMHLD	3	0	6	384
NMTAP	4	288	2
NMTAP	4	336	3
NMHLD	5	0	1	288
BRTAP	5	0	4
NMSTR	5	288	2
NMSCL	5	288	2	96	192	5
NMTAP	6	192	3
NMTAP	6	264	3
NMTAP	6	336	2
NMTAP	6	336	4
BRTAP	7	0	2
BRTAP	7	0	4
NMTAP	7	96	1
NMTAP	7	192	0
NMTAP	7	192	1
NMTAP	7	288	6
NMTAP	8	0	6
NMTAP	8	0	7
NMTAP	8	96	5
NMTAP	8	192	4
NMTAP	8	192	5
NMTAP	8	288	3
NMTAP	8	336	3
NMSTR	9	0	3
NMSSR	9	0	3	96	144	7
NMHLD	9	288	6	288
BRTAP	10	0	0
BRTAP	10	96	1
BRSTR	10	192	2
NMSI_	10	192	2	96	48	7
BRTAP	11	0	0
BRTAP	11	0	6
NMTAP	11	96	4
NMTAP	11	96	5
NMTAP	11	192	2
NMTAP	11	192	3
NMTAP	11	288	0
NMTAP	11	288	1
NMTAP	12	0	2
NMTAP	12	0	7
NMTAP	12	96	0
NMTAP	12	96	1
NMTAP	12	192	2
NMTAP	12	192	3
NMSTR	12	288	1
NMSI_	12	288	1	96	48	5
NMTAP	12	288	4
BRTAP	13	0	7
NMTAP	13	96	6
NMTAP	13	192	4
NMTAP	13	192	6
NMTAP	13	288	3
NMTAP	13	288	4
NMTAP	14	0	1
NMTAP	14	0	3
NMTAP	14	96	0
NMTAP	14	144	0
NMHLD	14	192	3	72
NMHLD	14	264	2	72
NMTAP	14	336	4
NMTAP	15	0	2
NMTAP	15	0	4
NMTAP	15	96	1
NMTAP	15	96	5
NMTAP	15	144	1
NMTAP	15	144	5
NMTAP	15	192	1
NMTAP	15	192	5
NMTAP	15	288	7
NMTAP	16	0	2
NMTAP	16	0	6
NMTAP	16	96	0
NMTAP	16	192	1
NMTAP	16	192	4
NMHLD	16	288	6	96
NMTAP	16	288	7
NMTAP	17	0	0
NMTAP	17	48	0
NMTAP	17	96	5
NMTAP	17	144	5
NMTAP	17	192	2
NMTAP	17	240	2
NMHLD	17	288	4	288
NMTAP	18	0	3
NMTAP	18	96	3
NMTAP	18	192	3
NMTAP	18	240	2
NMTAP	18	240	5
BRSTR	18	288	1
NMSI_	18	288	1	96	48	4
BRSTR	18	288	6
NMSI_	18	288	6	96	48	3
NMTAP	19	192	5
NMTAP	19	240	5
NMTAP	19	288	4
NMTAP	19	336	4
NMHLD	20	0	6	96
NMTAP	20	96	7
NMTAP	20	192	0
NMTAP	20	192	5
NMTAP	20	288	2
NMTAP	20	288	7
NMTAP	21	0	4
NMTAP	21	0	5
NMTAP	21	96	2
NMTAP	21	96	3
NMTAP	21	192	1
NMTAP	21	240	1
NMTAP	21	288	0
NMTAP	21	336	0
NMHLD	22	0	2	96
NMTAP	22	96	3
BRTAP	22	192	0
BRTAP	22	192	5
BRTAP	22	288	2
BRTAP	22	288	7
BRTAP	23	0	1
BRTAP	23	0	6
NMTAP	23	96	1
NMTAP	23	96	6
NMTAP	23	192	5
NMTAP	23	240	5
NMTAP	23	288	4
NMTAP	23	336	4
NMHLD	24	0	6	96
NMTAP	24	96	0
NMTAP	24	192	3
NMTAP	24	192	5
NMSTR	24	288	2
NMSCL	24	288	2	96	192	5
NMTAP	24	288	4
NMTAP	25	288	3
NMTAP	25	288	4
NMTAP	26	0	1
NMTAP	26	0	3
NMTAP	26	96	4
NMTAP	26	96	6
NMSTR	26	192	0
NMSI_	26	192	0	96	48	4
BRTAP	26	288	7
NMTAP	27	0	3
NMTAP	27	0	5
NMTAP	27	96	1
NMTAP	27	96	7
NMTAP	27	192	2
NMTAP	27	192	3
NMSTR	27	240	2
NMSI_	27	240	2	96	48	6
NMTAP	27	240	3
NMSTR	27	336	4
NMSI_	27	336	4	96	48	0
NMSTR	28	48	1
NMSI_	28	48	1	96	48	5
NMHLD	28	144	7	96
NMTAP	28	240	4
NMTAP	28	336	3
NMTAP	28	336	5
NMTAP	29	0	3
NMTAP	29	0	5
NMHLD	29	96	1	96
NMTAP	29	192	0
NMSTR	29	240	0
NMSI_	29	240	0	96	48	4
NMSTR	29	336	2
NMSI_	29	336	2	96	48	6
NMSTR	30	48	5
NMSI_	30	48	5	96	48	1
NMHLD	30	144	3	96
NMTAP	30	240	0
NMTAP	30	336	2
NMTAP	30	336	7
NMTAP	31	0	2
NMTAP	31	0	7
NMTAP	31	96	4
NMTAP	31	96	5
NMTAP	31	192	2
NMTAP	31	192	3
NMTAP	31	240	2
NMSTR	31	240	3
NMSI_	31	240	3	96	48	7
NMSTR	31	336	0
NMSI_	31	336	0	96	48	4
NMSTR	32	48	6
NMSI_	32	48	6	96	48	2
NMTAP	32	144	3
NMTAP	32	240	1
NMSTR	32	288	1
NMSI_	32	288	1	96	48	6
NMSCR	32	288	1	96	48	4
NMSTR	33	96	5
NMSI_	33	96	5	96	48	2
NMSCR	33	96	5	96	48	0
NMSTR	33	288	1
NMSXL	33	288	1	96	288	4
BRTAP	34	288	0
NMHLD	35	0	2	768
BRTAP	35	0	6
NMTAP	39	0	5
NMTAP	39	96	4
NMTAP	39	192	3
NMTAP	39	240	3
NMSTR	39	336	2
NMSCR	39	336	2	96	96	5
NMTAP	41	0	2
NMTAP	41	0	5
NMTAP	41	96	4
NMTAP	41	120	3
NMTAP	41	144	4
NMTAP	41	288	5
NMSTR	41	336	5
NMSCL	41	336	5	96	96	2
NMTAP	42	336	2
NMHLD	43	0	2	96
NMHLD	43	96	3	96
NMTAP	43	192	4
NMTAP	43	288	5
NMHLD	43	336	5	96
NMHLD	44	48	4	96
NMTAP	44	144	3
NMTAP	44	240	3
NMTAP	44	336	3
NMTAP	44	336	4
NMTAP	45	48	3
NMTAP	45	96	3
NMTAP	45	192	5
NMTAP	45	240	4
NMTAP	45	288	3
NMSTR	45	336	2
NMSUR	45	336	2	96	240	4
NMHLD	47	0	5	192
NMHLD	47	192	6	192
NMHLD	48	0	7	192
NMHLD	48	192	0	192
NMHLD	49	0	1	192
NMHLD	49	192	2	192
NMHLD	50	0	3	192
NMHLD	50	192	4	192
NMHLD	51	0	5	384
NMTAP	51	192	4
NMHLD	52	0	2	384
NMTAP	52	192	3
NMHLD	53	0	4	384
NMHLD	53	192	3	384
BRTAP	54	192	7
NMTAP	55	0	0
NMTAP	55	0	7
NMTAP	55	96	1
NMTAP	55	144	1
NMHLD	55	192	3	96
NMHLD	55	288	5	96
NMTAP	56	0	7
NMTAP	56	96	7
NMTAP	56	192	1
NMTAP	56	192	5
NMTAP	56	288	0
NMTAP	56	336	7
NMTAP	57	0	1
NMTAP	57	0	6
NMTAP	57	96	5
NMTAP	57	144	5
NMHLD	57	192	4	96
NMTAP	57	192	5
NMHLD	57	288	2	96
NMTAP	58	0	0
NMTAP	58	96	0
NMTAP	58	192	2
NMTAP	58	192	6
NMTAP	58	288	7
NMTAP	58	336	0
NMTAP	59	0	1
NMTAP	59	0	6
NMTAP	59	96	2
NMTAP	59	144	3
NMTAP	59	192	4
NMTAP	59	288	3
NMHLD	59	288	6	96
NMTAP	60	0	5
NMTAP	60	96	7
NMTAP	60	144	0
NMTAP	60	192	1
NMTAP	60	192	5
NMTAP	60	288	3
NMTAP	60	336	4
NMTAP	61	0	2
NMTAP	61	0	5
NMTAP	61	96	2
NMTAP	61	96	5
NMTAP	61	192	1
NMTAP	61	192	6
NMSTR	61	288	0
NMSCR	61	288	0	96	288	7
NMTAP	61	288	7
NMHLD	63	0	1	48
NMHLD	63	0	6	48
NMHLD	63	96	1	48
NMHLD	63	96	6	48
NMHLD	63	192	1	48
NMHLD	63	192	3	48
NMHLD	63	288	1	48
NMHLD	63	288	4	48
NMHLD	64	0	1	48
NMHLD	64	0	3	48
NMSTR	64	96	1
NMSI_	64	96	1	96	48	3
NMSTR	64	96	5
NMSI_	64	96	5	96	48	3
NMHLD	65	0	2	48
NMHLD	65	0	5	48
NMHLD	65	96	2	48
NMHLD	65	96	5	48
NMHLD	65	192	4	48
NMHLD	65	192	5	48
NMHLD	65	288	0	48
NMHLD	65	288	5	48
NMHLD	66	0	3	48
NMHLD	66	0	5	48
NMHLD	66	96	1	48
NMHLD	66	96	5	48
NMHLD	66	192	2	48
NMHLD	66	192	4	48
NMTAP	66	336	1
NMTAP	67	0	1
NMTAP	67	48	2
NMTAP	67	96	3
NMTAP	67	144	4
NMTAP	67	192	5
NMTAP	67	240	6
NMTAP	67	288	4
NMHLD	67	288	7	96
NMTAP	68	0	2
NMTAP	68	48	2
NMHLD	68	96	1	96
NMTAP	68	96	5
NMTAP	68	192	4
NMTAP	68	240	5
NMSTR	68	288	0
NMSSL	68	288	0	96	96	4
NMTAP	68	288	6
NMSTR	69	96	5
NMSCL	69	96	5	96	48	2
NMTAP	69	288	1
BRTAP	70	0	0
NMHLD	70	0	3	192
BRTAP	70	96	1
BRSTR	70	192	2
NMSI_	70	192	2	96	48	7
BRTAP	70	288	4
NMTAP	71	0	3
NMTAP	71	0	5
NMTAP	71	48	6
NMTAP	71	96	1
NMTAP	71	96	7
NMTAP	71	144	2
NMTAP	71	192	3
NMTAP	71	192	4
NMTAP	71	240	2
NMTAP	71	288	0
NMTAP	71	288	1
NMTAP	71	336	7
NMTAP	72	0	3
NMSTR	72	0	6
NMSI_	72	0	6	96	48	2
NMSTR	72	96	0
NMSI_	72	96	0	96	48	4
NMTAP	72	192	5
NMTAP	72	288	6
NMTAP	72	336	6
NMTAP	73	0	3
NMTAP	73	0	6
NMTAP	73	48	2
NMTAP	73	96	0
NMTAP	73	96	1
NMTAP	73	144	7
NMTAP	73	192	4
NMTAP	73	192	6
NMTAP	73	240	7
NMTAP	73	288	0
NMTAP	73	288	1
NMTAP	73	336	2
NMTAP	74	0	3
NMSTR	74	0	6
NMSI_	74	0	6	96	48	1
NMSTR	74	96	4
NMSI_	74	96	4	96	48	0
NMTAP	74	192	7
NMTAP	74	288	5
NMTAP	74	336	5
NMTAP	75	0	4
NMTAP	75	0	5
NMTAP	75	48	6
NMTAP	75	96	0
NMTAP	75	96	7
NMTAP	75	144	1
NMSTR	75	192	2
NMSI_	75	192	2	96	48	7
NMSTR	75	192	3
NMSI_	75	192	3	96	48	6
NMTAP	76	0	4
NMTAP	76	0	5
NMTAP	76	96	4
NMTAP	76	96	5
NMTAP	76	144	3
NMTAP	76	144	6
NMSTR	76	192	2
NMSI_	76	192	2	96	48	7
NMSTR	76	192	7
NMSI_	76	192	7	96	48	4
NMTAP	77	0	0
NMTAP	77	0	5
NMTAP	77	48	1
NMTAP	77	96	2
NMTAP	77	96	7
NMTAP	77	144	6
NMSTR	77	192	0
NMSCR	77	192	0	96	48	3
NMSTR	77	192	5
NMSCR	77	192	5	96	48	0
NMSTR	78	0	4
NMSF_	78	0	4	96	48	0
BRTAP	78	192	2
BRTAP	78	192	6
NMTAP	79	0	1
NMTAP	79	0	5
NMTAP	79	48	1
NMTAP	79	48	5
BRTAP	79	96	0
BRTAP	79	96	4
NMTAP	79	192	3
NMTAP	79	192	5
NMTAP	79	240	6
NMTAP	79	288	0
NMTAP	79	288	7
NMTAP	79	336	1
NMSTR	80	0	2
NMSI_	80	0	2	96	48	7
NMTAP	80	0	4
NMSTR	80	96	6
NMSI_	80	96	6	96	48	3
NMTAP	80	192	0
NMTAP	80	288	2
NMTAP	80	336	2
NMTAP	81	0	2
NMTAP	81	0	4
NMTAP	81	48	1
NMTAP	81	96	0
NMTAP	81	96	7
NMTAP	81	144	6
NMTAP	81	192	3
NMTAP	81	192	5
NMTAP	81	240	6
NMTAP	81	288	7
NMTAP	81	336	0
NMSTR	82	0	1
NMSI_	82	0	1	96	48	5
NMTAP	82	0	3
NMSTR	82	96	4
NMSI_	82	96	4	96	48	0
NMTAP	82	192	3
NMTAP	82	288	1
NMTAP	82	288	7
NMTAP	83	0	2
NMTAP	83	0	3
NMTAP	83	48	1
NMTAP	83	96	0
NMTAP	83	96	7
NMTAP	83	144	6
NMSTR	83	192	4
NMSI_	83	192	4	96	48	1
NMSTR	83	192	5
NMSI_	83	192	5	96	48	0
NMTAP	84	0	2
NMTAP	84	0	3
NMTAP	84	96	2
NMTAP	84	96	3
NMTAP	84	144	1
NMTAP	84	144	4
NMSTR	84	192	0
NMSI_	84	192	0	96	48	3
NMSTR	84	192	5
NMSI_	84	192	5	96	48	0
NMTAP	85	0	2
NMTAP	85	0	7
NMTAP	85	48	1
NMTAP	85	96	0
NMTAP	85	96	5
NMTAP	85	144	6
NMSTR	85	192	2
NMSCL	85	192	2	96	48	7
NMSTR	85	192	7
NMSCL	85	192	7	96	48	4
NMSTR	86	0	3
NMSF_	86	0	3	96	48	7
BRTAP	86	192	1
BRTAP	86	192	5
NMSTR	87	0	5
NMSI_	87	0	5	96	48	0
NMSTR	87	96	4
NMSI_	87	96	4	96	48	1
NMSTR	87	192	6
NMSI_	87	192	6	96	48	3
NMSTR	87	288	7
NMSI_	87	288	7	96	48	2
NMSTR	88	0	4
NMSI_	88	0	4	96	48	7
NMSTR	88	96	1
NMSI_	88	96	1	96	48	4
NMSTR	88	192	6
NMSI_	88	192	6	96	48	1
NMSTR	88	288	3
NMSF_	88	288	3	96	48	7
BRTAP	89	96	1
BRTAP	89	96	5
NMSTR	89	192	2
NMSI_	89	192	2	96	48	7
NMSTR	89	192	6
NMSI_	89	192	6	96	48	3
NMSTR	90	0	0
NMSCR	90	0	0	96	48	3
NMSTR	90	0	4
NMSCR	90	0	4	96	48	7
NMTAP	90	192	2
NMTAP	90	192	6
NMSTR	90	288	1
NMSI_	90	288	1	96	48	4
NMTAP	90	288	5
NMSTR	91	0	3
NMSI_	91	0	3	96	48	6
NMSTR	91	96	2
NMSI_	91	96	2	96	48	7
NMSTR	91	192	0
NMSI_	91	192	0	96	48	5
NMSTR	91	288	4
NMSI_	91	288	4	96	48	1
NMSTR	92	0	6
NMSI_	92	0	6	96	48	3
NMSTR	92	96	0
NMSI_	92	96	0	96	48	5
NMTAP	92	192	4
NMTAP	92	288	2
NMTAP	92	288	4
NMTAP	93	0	1
NMTAP	93	48	1
NMTAP	93	96	3
NMTAP	93	144	3
NMTAP	93	192	4
NMTAP	93	240	4
NMTAP	93	288	6
NMTAP	93	336	6
NMTAP	94	0	0
NMTAP	94	24	7
NMTAP	94	48	0
NMTAP	94	72	7
NMTAP	94	96	0
NMTAP	94	120	7
NMTAP	94	144	0
NMTAP	94	168	7
NMTAP	94	192	1
NMTAP	94	216	6
NMTAP	94	240	1
NMTAP	94	264	6
NMTAP	94	288	1
NMTAP	94	312	6
NMTAP	94	336	1
NMTAP	94	360	6
NMTAP	95	0	1
BRTAP	95	96	3
BRTAP	95	96	4
NMHLD	95	192	5	192
NMHLD	96	0	3	192
NMHLD	96	192	1	192
NMHLD	97	0	7	192
NMTAP	97	192	6
NMTAP	97	240	6
NMTAP	97	288	3
NMTAP	97	336	3
NMTAP	98	0	2
NMTAP	98	0	5
NMTAP	98	48	1
NMTAP	98	72	0
BRTAP	98	96	1
NMTAP	98	144	6
NMTAP	98	168	7
BRTAP	98	192	6
NMTAP	98	240	2
NMTAP	98	264	3
BRTAP	98	288	2
NMTAP	98	336	5
NMTAP	98	360	4
BRTAP	99	0	5
NMTAP	99	48	3
NMTAP	99	48	6
NMTAP	99	96	3
NMTAP	99	96	6
NMTAP	99	144	3
NMTAP	99	144	6
NMTAP	99	192	5
NMTAP	99	240	4
NMTAP	99	288	3
NMTAP	99	336	2
NMTAP	100	0	0
NMTAP	100	0	1
NMTAP	100	48	7
NMTAP	100	96	6
NMTAP	100	144	5
NMTAP	100	192	2
NMTAP	100	192	4
NMTAP	100	240	1
NMTAP	100	288	0
NMTAP	100	288	7
NMTAP	100	336	0
NMTAP	100	336	7
NMTAP	101	0	0
NMTAP	101	24	7
NMTAP	101	48	0
NMTAP	101	72	7
NMTAP	101	96	0
NMTAP	101	120	7
NMTAP	101	144	0
NMTAP	101	168	7
NMTAP	101	192	1
NMTAP	101	216	6
NMTAP	101	240	1
NMTAP	101	264	6
NMTAP	101	288	1
NMTAP	101	312	6
NMTAP	101	336	1
NMTAP	101	360	6
NMTAP	102	0	2
NMTAP	102	24	5
NMTAP	102	48	2
NMTAP	102	72	5
NMTAP	102	96	2
NMTAP	102	120	5
NMTAP	102	144	2
NMTAP	102	168	5
NMTAP	102	192	3
NMTAP	102	216	4
NMTAP	102	240	3
NMTAP	102	264	4
BRTAP	102	288	2
BRTAP	102	288	5
BRTAP	103	0	0
NMHLD	103	0	7	288
NMTAP	103	288	5
NMTAP	103	304	4
NMTAP	103	320	3

T_REC_TAP	406
T_REC_BRK	41
T_REC_XTP	0
T_REC_BXX	0
T_REC_HLD	67
T_REC_XHO	0
T_REC_BHO	0
T_REC_BXH	0
T_REC_STR	66
T_REC_BST	4
T_REC_XST	0
T_REC_XBS	0
T_REC_TTP	0
T_REC_THO	0
T_REC_SLD	72
T_REC_BSL	0
T_REC_ALL	656
T_NUM_TAP	472
T_NUM_BRK	45
T_NUM_HLD	67
T_NUM_SLD	72
T_NUM_ALL	656
T_JUDGE_TAP	517
T_JUDGE_HLD	196
T_JUDGE_SLD	72
T_JUDGE_ALL	785
TTM_EACHPAIRS	145
TTM_SCR_TAP	236000
TTM_SCR_BRK	117000
TTM_SCR_HLD	67000
TTM_SCR_SLD	108000
TTM_SCR_ALL	528000
TTM_SCR_S	507800
TTM_SCR_SS	523500
TTM_RAT_ACV	10085

