VERSION	0.00.00	1.04.00
FES_MODE	0
BPM_DEF	188.000	188.000	188.000	188.000
MET_DEF	4	4
RESOLUTION	384
CLK_DEF	384
COMPATIBLE_CODE	MA2

BPM	0	0	188.000
MET	0	0	4	4

NMSTR	3	0	2
NMSCL	3	0	2	96	192	7
NMTAP	4	0	6
NMTAP	4	192	6
NMSTR	5	0	6
NMSCL	5	0	6	96	192	3
NMTAP	6	0	2
NMTAP	6	192	2
NMHLD	7	0	2	192
NMTAP	7	192	3
NMHLD	8	0	5	192
NMTAP	8	192	4
NMTAP	9	0	6
NMTAP	9	192	6
NMTAP	9	192	7
BRTAP	10	0	0
BRTAP	10	96	1
BRTAP	10	192	2
BRTAP	10	288	3
BRTAP	10	288	4
NMTAP	11	0	5
NMTAP	11	96	5
NMTAP	11	192	4
NMTAP	12	0	2
NMTAP	12	96	2
NMTAP	12	192	3
NMTAP	13	0	5
NMTAP	13	96	5
NMTAP	13	192	4
NMTAP	14	0	3
NMTAP	14	0	4
NMTAP	14	96	3
NMTAP	14	96	4
NMTAP	14	192	2
NMTAP	14	192	5
NMTAP	15	0	2
NMTAP	15	96	3
NMTAP	15	192	4
NMTAP	15	288	5
NMTAP	16	0	6
NMTAP	16	96	6
NMTAP	16	192	6
NMTAP	16	192	7
NMTAP	17	0	1
NMTAP	17	96	1
NMTAP	17	192	0
NMTAP	17	192	1
NMTAP	18	0	0
NMTAP	18	0	7
NMTAP	18	96	1
NMTAP	18	96	6
NMTAP	18	192	2
NMTAP	18	192	5
BRTAP	18	288	3
BRTAP	18	288	4
NMHLD	19	0	5	192
NMTAP	19	192	4
NMTAP	19	288	4
NMTAP	20	0	3
NMTAP	20	96	2
NMTAP	20	192	1
NMTAP	20	192	4
NMHLD	21	0	1	192
NMTAP	21	192	0
NMTAP	21	288	0
NMTAP	22	0	7
NMTAP	22	96	6
BRTAP	22	192	4
BRTAP	22	192	5
BRTAP	22	288	4
BRTAP	22	288	5
BRTAP	23	0	3
BRTAP	23	0	6
NMTAP	23	192	3
NMTAP	23	288	3
NMTAP	24	0	4
NMTAP	24	96	5
NMTAP	24	192	6
NMTAP	24	288	7
NMHLD	25	0	0	192
NMHLD	25	0	7	192
NMTAP	26	0	1
NMTAP	26	0	6
NMTAP	26	96	1
NMTAP	26	96	6
BRTAP	26	192	1
BRTAP	26	192	6
NMTAP	27	0	1
NMTAP	27	96	1
NMTAP	27	192	0
NMTAP	27	288	0
NMTAP	28	0	7
NMTAP	28	96	7
NMTAP	28	192	0
NMTAP	28	192	6
NMTAP	29	0	6
NMTAP	29	96	6
NMTAP	29	192	7
NMTAP	29	288	7
NMTAP	30	0	0
NMTAP	30	96	0
NMTAP	30	192	1
NMTAP	30	192	7
NMTAP	31	0	6
NMTAP	31	96	6
NMTAP	31	192	5
NMTAP	31	288	5
NMTAP	32	0	4
NMTAP	32	96	4
NMTAP	32	192	3
NMTAP	32	288	3
NMTAP	33	0	2
NMTAP	33	96	2
NMTAP	33	192	1
NMTAP	33	288	1
NMSTR	34	0	0
NMSI_	34	0	0	96	192	4
BRSTR	35	0	5
NMSCR	35	0	5	96	960	4
NMSTR	39	0	6
NMSI_	39	0	6	96	288	3
NMSTR	41	0	2
NMSCR	41	0	2	96	288	5
NMSTR	43	0	6
NMSI_	43	0	6	96	288	2
NMSTR	45	0	1
NMSI_	45	0	1	96	288	5
NMHLD	47	0	6	384
NMHLD	48	0	7	384
NMHLD	49	0	0	384
NMTAP	50	0	1
NMTAP	50	192	1
NMHLD	51	0	2	384
NMHLD	52	0	3	384
NMHLD	53	0	4	384
NMTAP	54	0	3
NMTAP	54	192	3
NMTAP	54	192	4
BRTAP	55	0	2
NMTAP	55	96	2
NMTAP	55	192	2
NMTAP	55	192	3
NMTAP	56	0	5
NMTAP	56	96	5
NMTAP	56	192	4
NMTAP	56	192	5
NMTAP	57	0	2
NMTAP	57	96	2
NMTAP	57	192	2
NMTAP	57	192	3
NMTAP	58	0	4
NMTAP	58	96	3
NMTAP	58	96	4
NMTAP	58	192	2
NMTAP	58	192	5
NMTAP	59	0	6
NMTAP	59	96	6
NMTAP	59	192	6
NMTAP	59	192	7
NMTAP	60	0	1
NMTAP	60	96	1
NMTAP	60	192	0
NMTAP	60	192	1
NMTAP	61	0	6
NMTAP	61	96	6
NMTAP	61	192	6
NMTAP	61	192	7
NMTAP	62	0	0
NMTAP	62	0	7
NMTAP	62	192	1
NMTAP	62	192	6
NMTAP	63	0	2
NMTAP	63	96	2
NMTAP	63	192	1
NMTAP	63	288	1
NMTAP	64	0	0
NMTAP	64	96	0
NMTAP	64	192	1
NMTAP	64	192	7
NMTAP	65	0	6
NMTAP	65	96	6
NMTAP	65	192	5
NMTAP	65	288	5
NMTAP	66	0	4
NMTAP	66	96	4
NMTAP	66	192	3
NMTAP	66	192	5
NMTAP	67	0	5
NMTAP	67	96	4
NMTAP	67	192	3
NMTAP	67	288	2
NMTAP	68	0	1
NMTAP	68	96	1
NMTAP	68	192	0
NMTAP	68	192	1
NMTAP	69	0	6
NMTAP	69	96	6
NMTAP	69	192	6
NMTAP	69	192	7
BRTAP	70	0	0
BRTAP	70	96	1
BRTAP	70	192	2
BRTAP	70	288	3
BRTAP	70	288	4
NMTAP	71	0	5
NMTAP	71	96	5
NMTAP	71	192	4
NMTAP	71	192	6
NMTAP	71	288	4
NMTAP	71	288	6
NMTAP	72	0	7
NMTAP	72	48	7
NMTAP	72	96	7
NMTAP	72	192	0
NMTAP	72	192	6
NMTAP	73	0	1
NMTAP	73	96	1
NMTAP	73	192	0
NMTAP	73	192	1
NMTAP	73	288	0
NMTAP	73	288	1
NMTAP	74	0	2
NMTAP	74	48	2
NMTAP	74	96	2
NMTAP	74	192	1
NMTAP	74	192	3
NMTAP	75	0	4
NMTAP	75	96	5
NMTAP	75	192	4
NMTAP	75	192	6
NMTAP	75	288	4
NMTAP	75	288	6
NMTAP	76	0	7
NMTAP	76	48	7
NMTAP	76	96	7
NMTAP	76	192	0
NMTAP	76	192	6
NMTAP	77	0	1
NMTAP	77	96	0
NMTAP	77	96	1
NMTAP	77	192	6
NMTAP	77	288	6
NMTAP	77	288	7
NMTAP	78	0	0
NMTAP	78	96	0
NMTAP	78	96	7
BRTAP	78	192	1
BRTAP	78	192	6
NMTAP	79	0	5
NMTAP	79	48	5
NMTAP	79	96	5
NMTAP	79	192	4
NMTAP	79	192	6
NMTAP	79	288	4
NMTAP	79	288	6
NMTAP	80	0	3
NMTAP	80	96	2
NMTAP	80	192	0
NMTAP	80	192	1
NMTAP	81	0	7
NMTAP	81	48	7
NMTAP	81	96	7
NMTAP	81	192	0
NMTAP	81	192	6
NMTAP	81	288	0
NMTAP	81	288	6
NMTAP	82	0	5
NMTAP	82	96	4
NMTAP	82	192	3
NMTAP	82	192	5
NMTAP	83	0	6
NMTAP	83	48	6
NMTAP	83	96	6
NMTAP	83	192	6
NMTAP	83	192	7
NMTAP	83	288	0
NMTAP	83	288	5
NMTAP	84	0	1
NMTAP	84	96	0
NMTAP	84	96	1
NMTAP	84	192	2
NMTAP	84	192	7
NMTAP	85	0	3
NMTAP	85	48	3
NMTAP	85	96	3
NMTAP	85	192	3
NMTAP	85	192	4
NMTAP	85	288	3
NMTAP	85	288	4
NMTAP	86	0	3
NMTAP	86	0	4
NMTAP	86	96	2
NMTAP	86	96	5
BRTAP	86	192	1
BRTAP	86	192	6
NMTAP	87	0	5
NMTAP	87	96	5
NMTAP	87	192	4
NMTAP	87	192	5
NMTAP	87	288	4
NMTAP	87	288	5
NMTAP	88	0	6
NMTAP	88	96	6
NMTAP	88	192	6
NMTAP	88	192	7
NMTAP	88	288	6
NMTAP	88	288	7
NMTAP	89	0	0
NMTAP	89	96	1
NMTAP	89	192	2
NMTAP	89	288	3
NMTAP	90	0	4
NMTAP	90	0	5
NMTAP	90	96	4
NMTAP	90	96	5
NMTAP	90	192	3
NMTAP	90	192	6
NMTAP	91	0	2
NMTAP	91	96	2
NMTAP	91	192	2
NMTAP	91	192	3
NMTAP	91	288	2
NMTAP	91	288	3
NMTAP	92	0	1
NMTAP	92	96	1
NMTAP	92	192	0
NMTAP	92	192	1
NMTAP	92	288	0
NMTAP	92	288	1
NMTAP	93	0	7
NMTAP	93	96	6
NMTAP	93	192	5
NMTAP	93	288	4
NMTAP	94	0	3
NMTAP	94	0	4
NMTAP	94	96	3
NMTAP	94	96	4
NMTAP	94	192	2
NMTAP	94	192	5
NMSTR	95	0	1
NMSI_	95	0	1	96	192	4
NMSTR	96	0	5
NMSI_	96	0	5	96	192	0
NMSTR	97	0	1
NMSI_	97	0	1	96	192	4
NMTAP	98	0	5
NMTAP	98	96	5
NMTAP	98	192	4
NMTAP	98	192	5
NMTAP	99	0	3
NMTAP	99	96	2
NMTAP	99	192	1
NMTAP	99	288	0
NMTAP	100	0	7
NMTAP	100	96	6
NMTAP	100	192	5
NMTAP	100	288	4
NMTAP	101	0	3
NMTAP	101	0	4
NMTAP	101	48	3
NMTAP	101	48	4
NMTAP	101	96	3
NMTAP	101	96	4
NMTAP	101	192	2
NMTAP	101	192	5
NMTAP	101	240	2
NMTAP	101	240	5
NMTAP	101	288	2
NMTAP	101	288	5
NMTAP	102	0	1
NMTAP	102	0	6
NMTAP	102	48	1
NMTAP	102	48	6
NMTAP	102	96	1
NMTAP	102	96	6
NMTAP	102	192	0
NMTAP	102	192	7
NMTAP	102	240	0
NMTAP	102	240	7
NMTAP	102	288	0
NMTAP	102	288	7
BRTAP	103	0	1
BRTAP	103	0	6

T_REC_TAP	322
T_REC_BRK	27
T_REC_XTP	0
T_REC_BXX	0
T_REC_HLD	12
T_REC_XHO	0
T_REC_BHO	0
T_REC_BXH	0
T_REC_STR	10
T_REC_BST	1
T_REC_XST	0
T_REC_XBS	0
T_REC_TTP	0
T_REC_THO	0
T_REC_SLD	11
T_REC_BSL	0
T_REC_ALL	383
T_NUM_TAP	332
T_NUM_BRK	28
T_NUM_HLD	12
T_NUM_SLD	11
T_NUM_ALL	383
T_JUDGE_TAP	360
T_JUDGE_HLD	72
T_JUDGE_SLD	11
T_JUDGE_ALL	443
TTM_EACHPAIRS	93
TTM_SCR_TAP	166000
TTM_SCR_BRK	72800
TTM_SCR_HLD	12000
TTM_SCR_SLD	16500
TTM_SCR_ALL	267300
TTM_SCR_S	256600
TTM_SCR_SS	264500
TTM_RAT_ACV	10105

