VERSION	0.00.00	1.05.00
FES_MODE	0
BPM_DEF	150.000	150.000	150.000	150.000
MET_DEF	4	4
RESOLUTION	384
CLK_DEF	384
COMPATIBLE_CODE	MA2

BPM	0	0	150.000
MET	0	0	4	4

BRTAP	1	0	3
NMHLD	1	0	5	192
NMTAP	1	96	3
NMTAP	1	192	3
NMTAP	1	288	2
NMSTR	1	288	4
NMSI_	1	288	4	96	192	0
NMTAP	1	336	2
NMTAP	2	0	2
NMTAP	2	96	1
NMTAP	2	192	1
NMTAP	2	288	2
NMTAP	2	336	2
NMHLD	3	0	1	192
NMTAP	3	0	3
NMTAP	3	96	3
NMTAP	3	192	3
NMSTR	3	288	2
NMSI_	3	288	2	96	192	7
NMTAP	3	288	4
NMTAP	3	336	4
NMTAP	4	0	4
NMTAP	4	96	5
NMTAP	4	192	5
NMTAP	4	288	6
NMTAP	4	336	6
NMTAP	5	0	1
NMSTR	5	0	7
NMSV_	5	0	7	96	96	2
NMSTR	5	96	2
NMSCR	5	96	2	96	96	5
NMTAP	5	192	1
NMTAP	5	288	0
NMTAP	5	336	0
NMSTR	6	0	0
NMSV_	6	0	0	96	96	5
NMTAP	6	0	6
NMSTR	6	96	5
NMSCL	6	96	5	96	96	2
NMTAP	6	192	6
NMTAP	6	288	7
NMTAP	6	336	7
NMTAP	7	0	0
NMTAP	7	0	1
NMTAP	7	96	2
NMTAP	7	96	3
NMTAP	7	192	4
NMSTR	7	192	5
NMSI_	7	192	5	96	48	2
NMSTR	7	288	3
NMSUR	7	288	3	96	48	7
NMSSR	7	288	3	96	48	7
BRTAP	8	0	3
NMHLD	9	0	1	288
BRTAP	9	0	5
NMTAP	9	288	0
NMTAP	9	336	6
NMTAP	9	336	7
BRTAP	10	0	0
NMHLD	10	0	5	288
NMTAP	10	288	4
NMTAP	10	336	2
NMTAP	10	336	3
NMHLD	11	0	1	192
BRTAP	11	0	4
NMSTR	11	288	3
NMSI_	11	288	3	96	48	0
NMSTR	11	288	6
NMSI_	11	288	6	96	48	4
NMTAP	12	0	3
NMTAP	12	0	6
NMSTR	12	96	1
NMSI_	12	96	1	96	48	3
NMSTR	12	96	3
NMSI_	12	96	3	96	48	0
NMTAP	12	192	1
NMTAP	12	192	3
BRTAP	12	288	4
BRTAP	12	288	7
BRSTR	13	0	3
NMSLR	13	0	3	96	96	7
NMHLD	13	0	6	288
NMTAP	13	288	1
NMTAP	14	0	5
NMTAP	14	24	4
NMTAP	14	72	2
NMTAP	14	96	3
NMTAP	14	144	7
NMHLD	14	168	0	120
NMTAP	14	288	4
NMHLD	15	0	1	96
BRSTR	15	0	3
NMSCR	15	0	3	96	48	6
NMTAP	15	192	7
NMTAP	15	240	6
NMSTR	15	288	0
NMSCL	15	288	0	96	48	5
NMTAP	15	288	5
NMTAP	15	336	1
NMSTR	16	0	2
NMSI_	16	0	2	96	48	7
NMSTR	16	96	4
NMSI_	16	96	4	96	48	0
NMTAP	16	192	1
NMTAP	16	288	2
NMTAP	16	288	7
NMTAP	16	336	1
NMTAP	16	336	6
NMTAP	17	0	0
NMTAP	17	0	5
NMTAP	17	48	2
NMTAP	17	64	3
NMTAP	17	80	2
NMTAP	17	96	3
NMTAP	17	144	5
NMTAP	17	160	4
NMTAP	17	176	5
NMSTR	17	192	4
NMSI_	17	192	4	96	48	0
BRTAP	17	288	6
NMHLD	18	0	1	72
NMTAP	18	0	7
NMTAP	18	72	3
NMTAP	18	96	2
NMTAP	18	144	3
NMTAP	18	144	5
NMTAP	18	192	6
NMTAP	18	216	4
NMTAP	18	264	4
NMTAP	18	288	6
NMTAP	18	336	3
NMTAP	18	336	7
NMTAP	19	0	2
NMTAP	19	24	2
NMTAP	19	72	0
NMTAP	19	96	0
NMTAP	19	144	6
NMTAP	19	168	6
NMTAP	19	216	4
NMTAP	19	240	4
NMTAP	19	288	3
NMTAP	19	288	5
NMTAP	19	336	3
NMTAP	19	336	5
NMTAP	20	0	2
NMTAP	20	0	4
NMTAP	20	48	1
NMTAP	20	48	3
NMTAP	20	96	1
NMTAP	20	96	3
NMTAP	20	144	1
NMTAP	20	168	3
NMTAP	20	192	2
NMTAP	20	240	1
NMTAP	20	240	4
NMTAP	20	288	5
NMTAP	20	336	3
NMTAP	20	336	6
NMTAP	21	0	7
NMTAP	21	24	7
NMTAP	21	72	1
NMTAP	21	96	1
NMTAP	21	144	3
NMTAP	21	168	3
NMTAP	21	216	5
NMTAP	21	240	5
BRTAP	21	288	3
BRTAP	21	288	7
NMHLD	22	0	6	72
NMTAP	22	72	4
NMTAP	22	96	5
NMTAP	22	144	2
NMTAP	22	144	4
NMTAP	22	192	1
NMTAP	22	216	3
NMTAP	22	264	3
NMTAP	22	288	1
NMTAP	22	336	0
NMTAP	22	336	4
NMHLD	23	0	7	72
NMHLD	23	72	5	72
NMHLD	23	144	3	72
NMTAP	23	216	2
NMTAP	23	288	1
NMTAP	23	288	3
NMTAP	23	336	1
NMTAP	23	336	3
NMTAP	24	0	2
NMTAP	24	0	4
NMTAP	24	48	3
NMTAP	24	48	5
NMTAP	24	96	3
NMTAP	24	96	5
NMTAP	24	144	6
NMTAP	24	168	4
NMSTR	24	192	5
NMSI_	24	192	5	96	48	0
NMTAP	24	240	3
NMTAP	24	288	2
NMTAP	24	336	2
BRTAP	25	0	2
BRTAP	25	0	7
BRTAP	25	96	0
BRTAP	25	96	5
BRSTR	25	192	3
NMSI_	25	192	3	96	48	0
BRSTR	25	192	4
NMSI_	25	192	4	96	48	7
BRTAP	25	288	3
BRTAP	25	288	4
BRTAP	26	0	1
BRTAP	26	0	6
NMTAP	26	96	2
NMSTR	26	120	3
NMSCR	26	120	3	96	72	6
NMTAP	26	168	1
NMTAP	26	216	1
NMTAP	26	264	0
NMTAP	26	312	0
NMTAP	26	360	7
BRTAP	27	0	1
NMTAP	27	48	3
NMTAP	27	48	6
NMTAP	27	96	5
NMSTR	27	120	4
NMSCL	27	120	4	96	72	1
NMTAP	27	168	6
NMTAP	27	216	6
NMTAP	27	264	7
NMTAP	27	312	7
NMTAP	27	360	0
BRTAP	28	0	6
NMTAP	28	48	1
NMTAP	28	48	4
NMTAP	28	96	2
NMSTR	28	120	3
NMSV_	28	120	3	96	72	6
NMTAP	28	168	1
NMTAP	28	216	1
NMTAP	28	264	0
NMTAP	28	312	0
NMTAP	28	360	7
BRTAP	29	0	1
NMTAP	29	48	3
NMTAP	29	48	6
NMTAP	29	96	5
NMTAP	29	120	4
NMTAP	29	168	3
NMTAP	29	168	6
NMTAP	29	216	2
NMTAP	29	216	5
NMTAP	29	264	1
NMTAP	29	264	4
NMTAP	29	312	0
NMTAP	29	312	3
NMTAP	29	360	1
NMTAP	29	360	4
BRTAP	30	0	1
BRTAP	30	0	4
NMTAP	30	96	6
NMSTR	30	120	7
NMSCR	30	120	7	96	72	2
NMTAP	30	168	5
NMTAP	30	216	5
NMTAP	30	264	4
NMTAP	30	312	4
NMTAP	30	360	3
BRTAP	31	0	5
NMTAP	31	48	2
NMTAP	31	48	7
NMTAP	31	96	1
NMSTR	31	120	0
NMSCL	31	120	0	96	72	5
NMTAP	31	168	2
NMTAP	31	216	2
NMTAP	31	264	3
NMTAP	31	312	3
NMTAP	31	360	4
BRTAP	32	0	2
NMTAP	32	48	0
NMTAP	32	48	5
NMTAP	32	96	7
NMSTR	32	120	6
NMSV_	32	120	6	96	72	3
NMTAP	32	168	0
NMTAP	32	216	0
NMTAP	32	264	1
NMTAP	32	312	2
NMTAP	32	360	2
BRTAP	33	0	4
NMTAP	33	48	3
NMTAP	33	48	5
NMTAP	33	96	6
NMTAP	33	120	4
NMTAP	33	168	3
NMTAP	33	168	5
NMTAP	33	216	2
NMTAP	33	216	4
NMTAP	33	264	1
NMTAP	33	264	3
NMTAP	33	312	1
NMTAP	33	312	3
NMTAP	33	360	0
NMSTR	34	0	0
NMSCR	34	0	0	96	144	4
NMSSR	34	0	0	96	144	4
NMHLD	35	0	5	96
NMTAP	35	96	7
NMTAP	35	144	7
NMHLD	35	240	0	96
NMTAP	35	240	6
NMTAP	35	336	1
NMHLD	36	48	2	96
NMTAP	36	48	7
NMTAP	36	144	0
NMSTR	36	192	0
NMSCL	36	192	0	96	96	5
NMSTR	36	288	3
NMSXR	36	288	3	96	160	3
NMTAP	37	96	4
NMSTR	37	144	4
NMSXL	37	144	4	96	192	3
NMTAP	37	240	2
NMTAP	37	336	1
NMHLD	38	48	0	96
NMHLD	38	144	3	96
NMHLD	38	240	7	96
NMTAP	38	336	3
BRTAP	39	0	0
BRTAP	39	0	4
NMTAP	39	96	1
NMSTR	39	144	1
NMSUR	39	144	1	96	96	5
NMSTR	39	240	5
NMSUR	39	240	5	96	96	1
NMTAP	39	336	6
NMHLD	40	48	7	96
NMTAP	40	144	1
NMHLD	40	192	1	96
NMSTR	40	288	0
NMSI_	40	288	0	96	96	3
NMTAP	41	0	2
NMTAP	41	96	1
NMSTR	41	144	1
NMSUR	41	144	1	96	96	6
NMTAP	41	240	3
BRTAP	42	0	0
NMHLD	42	0	4	192
NMTAP	42	192	1
NMTAP	42	216	3
NMTAP	42	240	1
NMTAP	42	264	3
NMTAP	42	288	2
NMTAP	42	312	4
NMTAP	42	336	2
NMTAP	42	360	4
NMSTR	43	0	3
NMSI_	43	0	3	96	48	1
NMTAP	43	96	3
NMSTR	43	96	5
NMSI_	43	96	5	96	48	3
NMSTR	43	192	0
NMSI_	43	192	0	96	48	4
NMTAP	43	192	5
NMTAP	43	288	0
NMSTR	43	288	6
NMSI_	43	288	6	96	48	0
NMSTR	44	0	1
NMSI_	44	0	1	96	48	3
NMTAP	44	0	6
NMTAP	44	96	1
NMTAP	44	96	3
NMSTR	44	192	4
NMSI_	44	192	4	96	48	0
NMSTR	44	192	6
NMSI_	44	192	6	96	48	4
NMTAP	44	288	4
NMTAP	44	288	6
NMSTR	45	0	1
NMSI_	45	0	1	96	48	7
NMTAP	45	0	3
NMTAP	45	96	1
NMSTR	45	96	6
NMSI_	45	96	6	96	48	2
NMSTR	45	192	3
NMSI_	45	192	3	96	48	7
NMTAP	45	192	6
NMTAP	45	288	3
NMTAP	45	288	4
BRTAP	46	0	0
BRTAP	46	0	6
BRTAP	46	96	2
BRTAP	46	96	3
BRTAP	46	192	0
BRTAP	46	192	5
BRTAP	46	240	6
BRTAP	46	240	7
BRSTR	46	288	6
NMSI_	46	288	6	96	48	4
BRTAP	46	288	7
NMSTR	47	0	0
NMSI_	47	0	0	96	48	6
NMTAP	47	0	6
NMTAP	47	96	0
NMSTR	47	96	3
NMSI_	47	96	3	96	48	7
NMSTR	47	192	1
NMSI_	47	192	1	96	48	3
NMTAP	47	192	3
NMTAP	47	288	1
NMSTR	47	288	6
NMSI_	47	288	6	96	48	2
NMTAP	48	0	6
NMTAP	48	0	7
NMSTR	48	96	1
NMSI_	48	96	1	96	48	3
NMSTR	48	96	7
NMSI_	48	96	7	96	48	3
NMSTR	48	192	1
NMSI_	48	192	1	96	48	5
NMSTR	48	192	7
NMSI_	48	192	7	96	48	5
NMTAP	48	288	1
NMSTR	48	288	7
NMSI_	48	288	7	96	48	1
NMSTR	49	0	3
NMSI_	49	0	3	96	48	7
NMTAP	49	0	7
NMTAP	49	96	3
NMSTR	49	96	5
NMSCL	49	96	5	96	48	3
NMSTR	49	192	0
NMSF_	49	192	0	96	48	4
NMTAP	49	192	5
NMTAP	49	288	0
NMHLD	50	0	2	96
BRTAP	50	0	6
NMHLD	50	96	4	96
NMSTR	50	192	5
NMSI_	50	192	5	96	48	0
NMSI_	50	192	5	96	48	1
BRTAP	50	288	5
NMHLD	51	0	2	288
BRSTR	51	0	7
NMSLR	51	0	7	96	120	3
NMTAP	51	336	1
NMTAP	51	336	4
BRSTR	52	0	1
NMSLL	52	0	1	96	120	5
NMHLD	52	0	4	288
NMTAP	52	336	4
NMTAP	52	336	6
BRTAP	53	0	4
BRSTR	53	0	6
NMSXL	53	0	6	96	144	1
NMSTR	53	192	2
NMSXL	53	192	2	96	144	5
NMTAP	53	336	7
BRTAP	54	0	7
BRTAP	54	96	4
BRTAP	54	96	6
BRTAP	54	192	2
BRSTR	54	192	3
NMSUL	54	192	3	96	48	7
NMSUR	54	192	3	96	48	7
BRTAP	54	288	3
BRSTR	55	0	0
NMSLL	55	0	0	96	120	3
BRSTR	55	0	5
NMSLR	55	0	5	96	120	3
NMTAP	55	288	1
NMTAP	55	288	4
NMTAP	55	336	0
NMTAP	55	336	5
NMTAP	56	0	6
NMTAP	56	24	7
NMTAP	56	72	3
NMTAP	56	96	4
NMTAP	56	144	1
NMHLD	56	168	0	120
NMSTR	56	288	7
NMSI_	56	288	7	96	48	3
BRTAP	57	0	6
NMTAP	57	96	5
NMTAP	57	192	4
NMTAP	57	192	6
NMTAP	57	240	4
NMTAP	57	240	6
NMTAP	57	288	3
NMTAP	57	288	5
NMTAP	57	336	2
NMTAP	57	336	4
NMHLD	58	0	1	48
NMHLD	58	0	3	48
NMHLD	58	96	4	48
NMHLD	58	96	6	48
NMTAP	58	192	2
NMSTR	58	192	3
NMSV_	58	192	3	96	48	0
NMSV_	58	192	3	96	48	6
BRTAP	58	288	3
NMSTR	59	0	1
NMSI_	59	0	1	96	48	7
NMTAP	59	0	5
NMTAP	59	48	2
NMTAP	59	48	6
NMTAP	59	96	1
NMTAP	59	96	5
NMTAP	59	144	3
NMTAP	59	192	2
NMSTR	59	192	6
NMSI_	59	192	6	96	48	4
NMTAP	59	240	3
NMTAP	59	240	7
NMSTR	59	288	2
NMSI_	59	288	2	96	48	4
NMSTR	59	288	6
NMSI_	59	288	6	96	48	0
NMTAP	59	336	0
NMSTR	60	0	2
NMSV_	60	0	2	96	48	7
NMSTR	60	0	6
NMSV_	60	0	6	96	48	3
NMSTR	60	96	2
NMSLR	60	96	2	96	80	6
NMSTR	60	96	6
NMSLR	60	96	6	96	80	2
BRTAP	60	192	2
BRTAP	60	192	6
NMSTR	61	0	6
NMSI_	61	0	6	96	48	4
NMSTR	61	48	7
NMSI_	61	48	7	96	48	3
NMTAP	61	96	6
NMTAP	61	144	7
NMSTR	61	192	0
NMSI_	61	192	0	96	48	4
NMSTR	61	240	1
NMSI_	61	240	1	96	48	3
NMSTR	61	288	0
NMSCL	61	288	0	96	48	5
NMTAP	61	336	1
NMSTR	62	0	0
NMSI_	62	0	0	96	48	2
NMSI_	62	0	0	96	48	3
NMSTR	62	96	0
NMSF_	62	96	0	96	48	4
NMTAP	62	192	0
BRTAP	62	288	1
BRTAP	62	288	7
NMTAP	62	336	1
NMTAP	62	336	7
NMTAP	63	0	2
NMSTR	63	0	6
NMSI_	63	0	6	96	48	0
NMTAP	63	48	1
NMTAP	63	48	5
NMTAP	63	96	2
NMTAP	63	96	6
NMTAP	63	144	3
NMSTR	63	192	1
NMSI_	63	192	1	96	48	3
NMTAP	63	192	5
NMTAP	63	240	0
NMTAP	63	240	4
NMTAP	63	288	1
NMSTR	63	288	6
NMSI_	63	288	6	96	48	4
NMSTR	63	336	7
NMSI_	63	336	7	96	48	3
NMSTR	64	0	6
NMSI_	64	0	6	96	48	2
NMSTR	64	48	7
NMSI_	64	48	7	96	48	1
NMSTR	64	96	6
NMSCL	64	96	6	96	96	0
NMTAP	64	144	7
BRTAP	64	192	6
NMSTR	65	0	4
NMSCR	65	0	4	96	48	7
NMTAP	65	0	6
NMTAP	65	48	5
NMTAP	65	96	2
NMSTR	65	96	4
NMSCL	65	96	4	96	48	1
NMTAP	65	144	3
NMSTR	65	192	0
NMSI_	65	192	0	96	48	4
NMTAP	65	192	4
NMTAP	65	240	7
NMTAP	65	288	0
NMSTR	65	288	6
NMSI_	65	288	6	96	48	2
NMTAP	65	336	5
BRSTR	66	0	1
NMSI_	66	0	1	96	48	5
BRTAP	66	96	1
BRSTR	66	96	3
NMSUL	66	96	3	96	48	7
NMSUR	66	96	3	96	48	7
BRTAP	66	192	3
NMTAP	66	288	0
NMTAP	66	288	6
NMTAP	66	336	0
NMTAP	66	336	6
NMTAP	67	0	1
NMTAP	67	0	5
NMTAP	67	48	1
NMTAP	67	64	2
NMTAP	67	80	3
NMTAP	67	96	4
NMTAP	67	144	6
NMTAP	67	160	5
NMTAP	67	176	4
NMSTR	67	192	3
NMSF_	67	192	3	96	48	7
BRTAP	67	288	3
NMSTR	68	0	1
NMSCR	68	0	1	96	48	4
NMTAP	68	0	5
NMTAP	68	72	0
NMTAP	68	96	1
NMTAP	68	144	5
NMSTR	68	192	6
NMSI_	68	192	6	96	48	3
NMTAP	68	216	7
NMTAP	68	264	7
NMTAP	68	288	6
NMTAP	68	336	0
NMTAP	69	0	1
NMTAP	69	24	3
NMTAP	69	72	3
NMTAP	69	96	4
NMTAP	69	144	4
NMTAP	69	168	6
NMTAP	69	216	6
NMTAP	69	240	7
NMTAP	69	288	0
NMTAP	69	288	5
NMTAP	69	336	1
NMTAP	69	336	4
NMSTR	70	0	2
NMSI_	70	0	2	96	48	7
NMTAP	70	0	3
NMTAP	70	48	1
NMTAP	70	96	4
NMTAP	70	144	6
NMTAP	70	168	6
NMSTR	70	192	6
NMSCL	70	192	6	96	48	3
NMSTR	70	240	7
NMSV_	70	240	7	96	48	2
NMTAP	70	288	6
NMTAP	70	336	7
NMTAP	71	0	0
NMTAP	71	24	0
NMTAP	71	72	3
NMTAP	71	96	2
NMTAP	71	96	4
NMTAP	71	144	7
NMTAP	71	168	7
NMTAP	71	216	4
NMTAP	71	240	3
NMTAP	71	240	5
BRTAP	71	288	1
BRTAP	71	288	7
BRTAP	72	0	2
BRSTR	72	0	6
NMSCL	72	0	6	96	48	3
NMTAP	72	72	7
NMTAP	72	96	6
NMTAP	72	144	2
NMSTR	72	192	1
NMSI_	72	192	1	96	48	4
NMTAP	72	216	0
NMTAP	72	264	0
NMTAP	72	288	1
NMTAP	72	336	7
NMTAP	73	0	6
NMTAP	73	24	4
NMTAP	73	72	4
NMTAP	73	96	3
NMTAP	73	144	3
NMTAP	73	168	1
NMTAP	73	216	1
NMTAP	73	240	0
NMTAP	73	288	2
NMTAP	73	288	7
NMTAP	73	336	3
NMTAP	73	336	6
NMTAP	74	0	4
NMSTR	74	0	5
NMSI_	74	0	5	96	48	0
NMTAP	74	48	6
NMTAP	74	96	3
NMTAP	74	144	1
NMTAP	74	168	1
NMTAP	74	192	1
NMTAP	74	240	0
NMTAP	74	240	7
NMTAP	74	288	1
NMSTR	74	288	6
NMSI_	74	288	6	96	48	1
NMTAP	74	336	5
BRSTR	75	0	4
NMSI_	75	0	4	96	48	0
BRSTR	75	96	2
NMSCR	75	96	2	96	48	5
BRSTR	75	192	7
NMSF_	75	192	7	96	48	3
BRTAP	75	288	7
BRTAP	76	0	1
BRTAP	76	0	5
NMTAP	76	96	2
NMTAP	76	120	3
NMTAP	76	168	3
NMTAP	76	192	1
NMTAP	76	216	3
NMTAP	76	264	3
NMTAP	76	288	2
NMTAP	76	312	3
NMTAP	76	360	3
BRTAP	77	0	2
NMTAP	77	24	4
NMHLD	77	48	3	48
NMTAP	77	96	5
NMTAP	77	120	4
NMTAP	77	168	4
NMTAP	77	192	6
NMTAP	77	216	4
NMTAP	77	264	4
NMTAP	77	288	5
NMTAP	77	312	4
NMTAP	77	360	4
BRTAP	78	0	5
NMTAP	78	24	3
NMHLD	78	48	4	48
NMTAP	78	96	2
NMTAP	78	120	3
NMTAP	78	168	3
NMTAP	78	192	1
NMTAP	78	216	3
NMTAP	78	264	3
NMTAP	78	288	2
NMTAP	78	312	3
NMTAP	78	360	3
BRTAP	79	0	2
NMTAP	79	24	4
NMTAP	79	48	3
NMTAP	79	72	5
NMTAP	79	96	4
NMTAP	79	120	6
NMTAP	79	144	5
NMTAP	79	168	7
NMTAP	79	216	0
NMTAP	79	216	6
NMTAP	79	264	3
NMTAP	79	312	2
NMTAP	79	312	4
NMTAP	79	360	1
NMTAP	79	360	5
BRTAP	80	0	1
BRTAP	80	0	5
NMTAP	80	96	6
NMTAP	80	120	7
NMTAP	80	168	7
NMTAP	80	192	5
NMTAP	80	216	7
NMTAP	80	264	7
NMTAP	80	288	6
NMTAP	80	312	7
NMTAP	80	360	7
BRTAP	81	0	6
NMTAP	81	24	0
NMTAP	81	48	7
NMTAP	81	72	1
NMTAP	81	96	0
NMTAP	81	120	2
NMTAP	81	168	2
NMTAP	81	192	3
NMTAP	81	216	2
NMTAP	81	264	2
NMTAP	81	288	0
NMTAP	81	312	2
NMTAP	81	360	2
BRTAP	82	0	0
NMTAP	82	24	1
NMTAP	82	48	7
NMTAP	82	72	0
NMTAP	82	96	6
NMTAP	82	120	7
NMTAP	82	168	7
NMTAP	82	192	5
NMTAP	82	216	7
NMTAP	82	264	7
NMTAP	82	288	6
NMTAP	82	312	7
NMTAP	82	360	7
BRTAP	83	0	6
NMTAP	83	24	0
NMTAP	83	48	5
NMTAP	83	72	1
NMTAP	83	96	4
NMTAP	83	120	2
NMTAP	83	120	3
NMTAP	83	168	1
NMTAP	83	168	4
NMTAP	83	192	1
NMTAP	83	192	4
NMTAP	83	240	3
NMTAP	83	240	6
NMTAP	83	288	0
NMSTR	83	288	7
NMSI_	83	288	7	96	48	4
NMSLR	83	288	7	96	72	5
NMTAP	83	336	2
NMTAP	83	336	5
BRTAP	84	0	7

T_REC_TAP	486
T_REC_BRK	71
T_REC_XTP	0
T_REC_BXX	0
T_REC_HLD	33
T_REC_XHO	0
T_REC_BHO	0
T_REC_BXH	0
T_REC_STR	93
T_REC_BST	17
T_REC_XST	0
T_REC_XBS	0
T_REC_TTP	0
T_REC_THO	0
T_REC_SLD	118
T_REC_BSL	0
T_REC_ALL	818
T_NUM_TAP	579
T_NUM_BRK	88
T_NUM_HLD	33
T_NUM_SLD	118
T_NUM_ALL	818
T_JUDGE_TAP	667
T_JUDGE_HLD	90
T_JUDGE_SLD	118
T_JUDGE_ALL	875
TTM_EACHPAIRS	162
TTM_SCR_TAP	289500
TTM_SCR_BRK	228800
TTM_SCR_HLD	33000
TTM_SCR_SLD	177000
TTM_SCR_ALL	728300
TTM_SCR_S	697950
TTM_SCR_SS	719500
TTM_RAT_ACV	10122

