VERSION	0.00.00	1.05.00
FES_MODE	0
BPM_DEF	150.000	150.000	150.000	150.000
MET_DEF	4	4
RESOLUTION	384
CLK_DEF	384
COMPATIBLE_CODE	MA2

BPM	0	0	150.000
MET	0	0	4	4

NMTAP	1	0	5
NMHLD	1	96	5	480
NMTAP	1	192	4
NMTAP	1	288	4
NMTAP	2	0	3
NMTAP	2	96	3
NMTAP	2	192	4
NMTAP	2	288	3
NMTAP	3	0	2
NMHLD	3	96	2	480
NMTAP	3	192	3
NMTAP	3	288	3
NMTAP	4	0	4
NMTAP	4	96	4
NMTAP	4	192	3
NMTAP	4	288	4
NMTAP	5	0	5
NMHLD	5	96	6	960
NMTAP	5	192	4
NMTAP	5	288	4
NMTAP	6	0	3
NMTAP	6	96	3
NMTAP	6	192	4
NMTAP	6	288	4
NMTAP	7	0	5
NMTAP	7	96	5
NMTAP	7	192	7
NMTAP	7	288	7
BRTAP	8	0	0
BRTAP	8	0	5
NMTAP	9	0	1
NMTAP	9	48	1
NMTAP	9	96	3
NMTAP	9	192	2
NMTAP	9	192	4
NMTAP	9	288	2
NMTAP	9	288	4
NMHLD	10	0	5	96
NMHLD	10	96	4	96
NMTAP	10	192	7
NMTAP	11	0	6
NMTAP	11	48	6
NMTAP	11	96	4
NMTAP	11	192	2
NMTAP	11	240	2
NMTAP	11	288	3
NMTAP	12	0	1
NMTAP	12	0	4
NMTAP	12	96	1
NMTAP	12	96	4
NMTAP	12	192	2
NMTAP	12	192	3
BRTAP	12	288	0
NMTAP	13	0	1
NMTAP	13	48	1
NMTAP	13	96	3
NMTAP	13	192	2
NMTAP	13	192	4
NMTAP	13	288	3
NMTAP	13	288	5
NMTAP	14	0	6
NMTAP	14	48	6
NMTAP	14	96	4
NMTAP	14	192	3
NMTAP	14	192	5
NMTAP	14	288	2
NMTAP	14	288	4
NMTAP	15	0	1
NMTAP	15	48	1
NMTAP	15	96	0
NMTAP	15	192	6
NMTAP	15	240	6
NMTAP	15	288	7
NMTAP	16	0	4
NMTAP	16	0	5
NMTAP	16	96	3
NMTAP	16	96	6
NMTAP	16	192	1
NMTAP	16	192	4
NMTAP	16	288	2
NMTAP	16	336	2
NMTAP	17	0	0
NMTAP	17	0	1
NMTAP	17	96	6
NMTAP	17	96	7
NMTAP	17	192	0
NMTAP	17	192	5
BRTAP	17	288	0
BRTAP	17	288	5
NMSTR	18	0	1
NMSCR	18	0	1	96	96	4
NMSTR	18	192	5
NMSCR	18	192	5	96	96	0
NMHLD	19	0	2	96
NMTAP	19	96	3
NMHLD	19	192	5	96
NMTAP	19	288	4
NMSTR	20	0	7
NMSCL	20	0	7	96	96	4
NMSTR	20	192	2
NMSCL	20	192	2	96	96	7
NMHLD	21	0	6	96
NMHLD	21	96	7	96
NMHLD	21	192	0	96
BRTAP	21	288	1
NMSTR	22	0	2
NMSCR	22	0	2	96	96	5
NMSTR	22	192	6
NMSCR	22	192	6	96	96	1
NMHLD	23	0	2	96
NMTAP	23	96	3
NMHLD	23	192	5	96
NMTAP	23	288	4
NMSTR	24	0	3
NMSCL	24	0	3	96	96	0
NMSTR	24	192	6
NMSI_	24	192	6	96	96	2
NMTAP	25	0	0
NMTAP	25	96	0
NMTAP	25	192	2
NMTAP	25	192	6
BRTAP	25	288	2
BRTAP	25	288	6
NMHLD	26	0	0	96
NMHLD	26	0	1	96
NMTAP	26	192	2
NMTAP	26	240	2
NMTAP	26	288	3
NMHLD	27	0	4	96
NMHLD	27	0	5	96
NMTAP	27	192	6
NMTAP	27	240	6
NMTAP	27	288	7
NMHLD	28	0	6	96
NMHLD	28	0	7	96
NMTAP	28	192	4
NMTAP	28	192	5
NMTAP	28	288	4
NMTAP	28	288	5
NMHLD	29	0	2	96
NMHLD	29	0	3	96
NMTAP	29	192	0
NMTAP	29	192	1
NMTAP	29	288	2
NMTAP	29	288	7
NMHLD	30	0	6	96
NMHLD	30	0	7	96
NMTAP	30	192	5
NMTAP	30	240	5
NMTAP	30	288	4
NMHLD	31	0	2	96
NMHLD	31	0	3	96
NMTAP	31	192	1
NMTAP	31	240	1
NMTAP	31	288	0
NMHLD	32	0	0	96
NMHLD	32	0	1	96
NMTAP	32	192	2
NMTAP	32	192	3
NMTAP	32	288	2
NMTAP	32	288	3
NMHLD	33	0	4	96
NMHLD	33	0	5	96
NMTAP	33	192	6
NMTAP	33	192	7
NMTAP	33	288	6
NMTAP	33	288	7
BRTAP	34	0	0
BRTAP	34	0	5
NMTAP	35	0	2
NMTAP	35	0	3
NMTAP	35	96	1
NMHLD	35	144	1	96
NMHLD	35	240	3	96
NMTAP	35	336	2
NMTAP	36	48	0
NMTAP	36	48	1
NMTAP	36	144	7
NMTAP	36	192	7
NMTAP	36	288	6
NMTAP	36	288	7
NMTAP	37	0	4
NMTAP	37	0	5
NMTAP	37	96	6
NMHLD	37	144	6	96
NMHLD	37	240	4	96
NMTAP	37	336	5
NMTAP	38	48	6
NMTAP	38	48	7
NMTAP	38	144	0
NMTAP	38	144	7
NMTAP	38	240	0
BRTAP	38	240	1
NMTAP	38	288	0
BRTAP	38	288	1
BRTAP	39	0	2
NMTAP	39	96	1
NMTAP	39	96	3
NMTAP	39	144	1
NMTAP	39	144	3
NMHLD	39	240	2	96
NMHLD	39	336	3	96
NMHLD	40	48	1	96
NMTAP	40	144	2
NMTAP	40	192	2
NMTAP	40	288	1
NMTAP	40	288	2
NMTAP	41	0	0
NMTAP	41	0	7
NMTAP	41	96	5
NMTAP	41	96	6
NMTAP	41	144	5
NMTAP	41	144	6
NMTAP	41	240	4
NMHLD	41	288	4	96
NMTAP	42	0	5
NMHLD	42	48	5	96
NMHLD	42	144	6	96
BRTAP	42	240	7
BRTAP	42	288	7
NMTAP	43	0	4
NMHLD	43	0	5	1152
NMTAP	43	96	0
NMTAP	43	192	7
NMTAP	43	288	3
NMTAP	44	0	4
NMTAP	44	96	0
NMTAP	44	192	7
NMTAP	44	288	3
NMTAP	45	0	4
NMTAP	45	96	0
NMTAP	45	192	7
NMTAP	45	288	3
NMTAP	46	0	4
NMTAP	46	96	2
NMTAP	46	96	7
BRTAP	46	192	0
BRTAP	46	192	1
BRTAP	46	240	0
BRTAP	46	240	1
BRTAP	46	288	0
BRTAP	46	288	1
NMHLD	47	0	2	1056
NMTAP	47	0	3
NMTAP	47	96	7
NMTAP	47	192	0
NMTAP	47	288	4
NMTAP	48	0	3
NMTAP	48	96	7
NMTAP	48	192	0
NMTAP	48	288	4
NMTAP	49	0	3
NMTAP	49	96	7
NMTAP	49	192	0
NMTAP	49	288	4
NMTAP	50	0	3
NMTAP	50	96	4
NMTAP	50	96	6
NMTAP	50	192	1
NMTAP	50	192	3
BRTAP	50	288	0
NMTAP	50	288	4
NMHLD	51	0	2	288
NMSTR	51	0	6
NMSI_	51	0	6	96	96	3
NMSTR	52	0	1
NMSI_	52	0	1	96	96	4
NMHLD	52	0	5	288
NMTAP	53	0	3
NMSTR	53	0	6
NMSV_	53	0	6	96	96	1
NMSTR	53	192	2
NMSI_	53	192	2	96	96	5
NMSTR	54	0	6
NMSI_	54	0	6	96	96	2
NMSI_	54	0	6	96	96	3
BRTAP	54	288	0
NMSTR	55	0	1
NMSI_	55	0	1	96	96	3
NMSTR	55	192	4
NMSI_	55	192	4	96	96	6
NMSTR	56	0	7
NMSLR	56	0	7	96	192	4
NMTAP	57	0	6
NMTAP	57	48	6
NMTAP	57	96	7
NMTAP	57	192	1
NMTAP	57	240	1
NMTAP	57	288	0
NMHLD	58	0	2	192
NMHLD	58	0	4	192
BRTAP	58	288	0
BRTAP	58	288	7
NMTAP	59	0	1
NMTAP	59	48	1
NMTAP	59	96	3
NMTAP	59	144	2
NMTAP	59	192	6
NMTAP	59	240	6
NMTAP	59	288	4
NMTAP	60	0	4
NMTAP	60	0	5
NMTAP	60	96	6
NMTAP	60	96	7
NMTAP	60	192	0
NMTAP	60	192	1
NMTAP	60	288	2
NMTAP	60	288	3
NMTAP	61	0	1
NMTAP	61	48	1
NMTAP	61	96	0
NMTAP	61	192	6
NMTAP	61	240	6
NMTAP	61	288	7
NMTAP	62	0	4
NMTAP	62	0	5
NMTAP	62	96	1
NMTAP	62	96	3
NMTAP	62	192	6
NMTAP	62	192	7
BRTAP	62	288	2
BRTAP	62	288	4
NMHLD	63	0	5	96
NMHLD	63	96	7	96
NMHLD	63	192	0	96
NMTAP	63	288	2
NMHLD	64	0	2	96
NMHLD	64	96	0	96
NMHLD	64	192	7	96
NMTAP	64	288	5
NMTAP	65	0	6
NMTAP	65	48	6
NMTAP	65	96	4
NMTAP	65	96	6
NMTAP	65	192	1
NMTAP	65	240	1
NMTAP	65	288	1
NMTAP	65	288	3
NMTAP	66	0	2
NMTAP	66	0	4
NMTAP	66	96	4
NMTAP	66	96	6
NMTAP	66	192	0
NMTAP	66	192	7
NMTAP	66	288	6
NMTAP	66	336	6
NMTAP	67	0	6
NMTAP	67	0	7
NMTAP	67	96	0
NMTAP	67	96	1
NMTAP	67	192	5
NMTAP	67	192	7
BRTAP	67	288	0
BRTAP	67	288	4
NMHLD	68	0	1	96
NMTAP	68	96	3
NMTAP	68	192	5
NMTAP	68	240	5
NMTAP	68	288	3
NMTAP	69	0	4
NMTAP	69	0	6
NMTAP	69	96	4
NMTAP	69	96	6
NMTAP	69	192	1
NMTAP	69	192	3
NMTAP	69	288	1
NMTAP	69	288	3
NMHLD	70	0	6	96
NMTAP	70	96	4
NMTAP	70	192	2
NMTAP	70	240	2
NMTAP	70	288	4
NMTAP	71	0	1
NMTAP	71	0	3
NMTAP	71	96	1
NMTAP	71	96	3
NMTAP	71	192	4
NMTAP	71	192	6
BRTAP	71	288	3
BRTAP	71	288	7
NMHLD	72	0	6	96
NMTAP	72	96	4
NMTAP	72	192	1
NMTAP	72	240	1
NMTAP	72	288	3
NMTAP	73	0	0
NMTAP	73	0	2
NMTAP	73	96	0
NMTAP	73	96	2
NMTAP	73	192	5
NMTAP	73	192	7
NMTAP	73	288	5
NMTAP	73	288	7
NMHLD	74	0	1	96
NMTAP	74	96	3
NMTAP	74	192	6
NMTAP	74	240	6
NMTAP	74	288	4
NMTAP	75	0	6
NMTAP	75	0	7
NMTAP	75	96	0
NMTAP	75	96	1
NMTAP	75	192	6
NMTAP	75	192	7
BRTAP	75	288	0
BRTAP	75	288	5
NMHLD	76	0	1	288
NMSTR	76	0	4
NMSXR	76	0	4	96	192	0
NMSTR	77	0	2
NMSXL	77	0	2	96	192	5
NMHLD	77	0	7	288
NMSTR	78	0	4
NMSXR	78	0	4	96	192	7
NMHLD	78	0	6	288
NMTAP	79	0	0
NMTAP	79	0	5
NMTAP	79	96	0
NMTAP	79	96	5
NMTAP	79	192	2
NMTAP	79	192	7
NMTAP	79	288	2
NMTAP	79	288	7
NMHLD	80	0	0	288
NMSTR	80	0	1
NMSXL	80	0	1	96	192	5
NMHLD	81	0	4	288
NMSTR	81	0	7
NMSXL	81	0	7	96	192	3
NMTAP	82	0	4
NMTAP	82	0	5
NMTAP	82	96	6
NMTAP	82	96	7
NMTAP	82	192	0
NMTAP	82	192	1
NMTAP	82	288	2
NMTAP	82	288	3
NMTAP	83	0	1
NMTAP	83	0	3
NMTAP	83	96	4
NMTAP	83	96	6
NMTAP	83	192	7
NMTAP	83	240	7
NMTAP	83	288	0
NMTAP	83	336	6
BRTAP	84	0	1
BRTAP	84	0	5

T_REC_TAP	310
T_REC_BRK	35
T_REC_XTP	0
T_REC_BXX	0
T_REC_HLD	59
T_REC_XHO	0
T_REC_BHO	0
T_REC_BXH	0
T_REC_STR	21
T_REC_BST	0
T_REC_XST	0
T_REC_XBS	0
T_REC_TTP	0
T_REC_THO	0
T_REC_SLD	22
T_REC_BSL	0
T_REC_ALL	447
T_NUM_TAP	331
T_NUM_BRK	35
T_NUM_HLD	59
T_NUM_SLD	22
T_NUM_ALL	447
T_JUDGE_TAP	366
T_JUDGE_HLD	226
T_JUDGE_SLD	22
T_JUDGE_ALL	614
TTM_EACHPAIRS	113
TTM_SCR_TAP	165500
TTM_SCR_BRK	91000
TTM_SCR_HLD	59000
TTM_SCR_SLD	33000
TTM_SCR_ALL	348500
TTM_SCR_S	334650
TTM_SCR_SS	345000
TTM_RAT_ACV	10101

