VERSION	0.00.00	1.04.00
FES_MODE	0
BPM_DEF	238.000	238.000	238.000	238.000
MET_DEF	4	4
RESOLUTION	384
CLK_DEF	384
COMPATIBLE_CODE	MA2

BPM	0	0	238.000
MET	0	0	4	4
MET	11	0	4	2
MET	11	192	4	4
MET	15	192	4	2
MET	16	0	4	4
MET	53	0	4	2
MET	53	192	4	4

NMSTR	3	0	2
NMSCL	3	0	2	96	192	7
NMSTR	4	0	5
NMSCR	4	0	5	96	192	0
NMSTR	5	0	1
NMSCR	5	0	1	96	192	4
NMSTR	6	0	6
NMSCL	6	0	6	96	192	3
NMSTR	7	0	2
NMSCL	7	0	2	96	192	7
NMHLD	7	0	4	192
NMHLD	8	0	3	192
NMSTR	8	0	5
NMSCR	8	0	5	96	192	0
NMSTR	9	0	1
NMSCR	9	0	1	96	192	4
NMHLD	9	0	7	192
NMTAP	10	0	0
NMSTR	10	0	6
NMSCL	10	0	6	96	192	3
NMSTR	10	288	0
NMSF_	10	288	0	96	48	4
NMTAP	11	0	0
NMTAP	11	192	3
NMSTR	11	192	5
NMSCR	11	192	5	96	192	0
NMTAP	12	0	3
NMSTR	12	192	2
NMSCL	12	192	2	96	192	7
NMTAP	12	192	4
NMTAP	13	0	4
NMTAP	13	192	0
NMSTR	13	192	6
NMSCL	13	192	6	96	192	3
NMTAP	14	0	0
NMSTR	14	192	1
NMSCR	14	192	1	96	192	4
NMTAP	14	192	7
NMTAP	15	0	7
NMSTR	15	192	7
NMSI_	15	192	7	96	48	3
NMSI_	15	192	7	96	48	4
NMTAP	15	288	7
NMSTR	16	0	2
NMSCL	16	0	2	96	192	7
NMTAP	16	96	4
NMTAP	16	192	4
NMTAP	16	288	4
NMSTR	17	0	5
NMSCR	17	0	5	96	192	0
NMTAP	17	96	3
NMTAP	17	192	3
NMTAP	17	288	3
NMSTR	18	0	1
NMSCR	18	0	1	96	192	4
NMTAP	18	96	7
NMTAP	18	192	7
NMTAP	18	288	7
NMSTR	19	0	6
NMSCL	19	0	6	96	192	3
NMTAP	19	96	0
NMTAP	19	192	0
NMTAP	19	288	0
NMSTR	20	0	1
NMSI_	20	0	1	96	48	5
NMTAP	20	96	6
NMSTR	20	144	7
NMSI_	20	144	7	96	48	3
NMTAP	20	240	1
NMSTR	20	288	0
NMSI_	20	288	0	96	48	4
NMTAP	21	0	5
NMSTR	21	48	6
NMSI_	21	48	6	96	48	2
NMTAP	21	144	1
NMSTR	21	192	0
NMSCR	21	192	0	96	48	3
NMSTR	21	288	7
NMSCL	21	288	7	96	48	4
NMSTR	22	0	0
NMSCR	22	0	0	96	48	3
NMSTR	22	96	7
NMSCL	22	96	7	96	48	4
NMHLD	22	192	0	96
NMTAP	22	288	7
NMTAP	23	0	0
NMTAP	23	0	5
NMTAP	23	24	1
NMSTR	23	48	2
NMSI_	23	48	2	96	48	6
NMTAP	23	144	2
NMTAP	23	144	6
NMTAP	23	168	5
NMSTR	23	192	4
NMSI_	23	192	4	96	48	0
NMTAP	23	288	1
NMTAP	23	288	4
NMTAP	23	312	2
NMSTR	23	336	3
NMSI_	23	336	3	96	48	0
NMTAP	24	48	3
NMTAP	24	48	7
NMTAP	24	72	6
NMSTR	24	96	5
NMSI_	24	96	5	96	48	2
NMSTR	24	192	1
NMSI_	24	192	1	96	48	5
NMTAP	24	192	5
NMTAP	24	288	1
NMSTR	24	288	3
NMSCL	24	288	3	96	576	4
BRTAP	25	0	4
NMTAP	27	0	1
NMTAP	27	0	5
NMTAP	27	24	4
NMTAP	27	48	3
NMTAP	27	72	2
NMTAP	27	96	1
NMTAP	27	120	0
NMTAP	27	144	7
NMTAP	27	168	6
NMTAP	27	192	2
NMTAP	27	192	5
NMTAP	27	216	3
NMTAP	27	240	4
NMTAP	27	264	5
NMTAP	27	288	6
NMTAP	27	312	7
NMTAP	27	336	0
NMTAP	27	360	1
NMHLD	28	0	2	192
NMHLD	28	0	6	192
NMHLD	29	0	1	192
NMHLD	29	192	3	192
NMHLD	30	0	5	192
NMHLD	30	192	7	192
NMTAP	31	0	1
NMTAP	31	96	1
NMTAP	31	192	3
NMTAP	31	288	3
NMTAP	32	0	2
NMTAP	32	24	4
NMTAP	32	48	2
NMTAP	32	72	4
NMTAP	32	96	2
NMTAP	32	120	4
NMTAP	32	144	2
NMTAP	32	168	4
NMTAP	32	192	3
NMSTR	32	288	1
NMSI_	32	288	1	96	48	4
NMSTR	32	288	5
NMSV_	32	288	5	96	48	0
NMTAP	33	0	1
NMTAP	33	0	5
NMTAP	33	96	3
NMTAP	33	96	7
NMTAP	33	120	2
NMTAP	33	120	6
NMTAP	33	144	1
NMTAP	33	144	5
NMSTR	33	192	2
NMSV_	33	192	2	96	48	7
NMSTR	33	192	6
NMSI_	33	192	6	96	48	3
NMTAP	33	288	2
NMTAP	33	288	6
NMTAP	34	0	0
NMTAP	34	0	4
NMTAP	34	24	1
NMTAP	34	24	5
NMTAP	34	48	2
NMTAP	34	48	6
NMSTR	34	96	1
NMSV_	34	96	1	96	48	4
NMSTR	34	96	5
NMSI_	34	96	5	96	48	0
NMSTR	34	192	1
NMSCR	34	192	1	96	672	0
NMTAP	34	192	5
BRTAP	34	288	7
NMTAP	37	0	2
NMTAP	37	0	6
NMTAP	37	144	3
NMTAP	37	144	5
NMTAP	37	240	2
NMTAP	37	240	4
NMSTR	37	336	1
NMSCR	37	336	1	96	96	4
NMHLD	38	0	1	192
NMTAP	38	288	2
NMTAP	38	288	5
NMTAP	39	0	3
NMHLD	39	0	6	144
NMTAP	39	144	4
NMTAP	39	240	2
NMTAP	39	336	1
NMTAP	40	0	1
NMTAP	40	48	2
NMTAP	40	96	3
NMTAP	40	144	4
NMTAP	40	288	3
NMTAP	40	288	5
NMTAP	41	0	3
NMTAP	41	0	5
NMTAP	41	96	2
NMHLD	41	144	2	96
NMTAP	41	240	4
NMTAP	41	336	5
NMTAP	42	0	5
NMTAP	42	48	3
NMTAP	42	144	0
NMTAP	42	240	5
NMTAP	42	288	5
NMTAP	42	336	4
NMTAP	43	0	3
NMTAP	43	48	2
NMTAP	43	96	2
NMTAP	43	144	3
NMTAP	43	240	5
NMTAP	43	336	4
NMTAP	44	0	4
NMTAP	44	144	3
NMTAP	44	240	2
NMTAP	44	288	2
NMHLD	45	0	1	144
NMTAP	45	144	3
NMTAP	45	240	4
NMTAP	45	336	2
NMHLD	46	0	2	144
NMTAP	46	144	3
NMTAP	46	240	4
NMTAP	46	336	1
NMTAP	47	0	1
NMTAP	47	96	3
NMTAP	47	144	3
NMTAP	47	240	5
NMTAP	47	288	4
NMTAP	47	336	3
NMTAP	48	0	2
NMTAP	48	96	1
NMTAP	48	96	3
NMTAP	48	144	1
NMTAP	48	144	3
NMTAP	48	240	2
NMTAP	48	336	3
NMTAP	48	336	4
NMSTR	49	0	3
NMSUR	49	0	3	96	384	4
NMTAP	49	0	4
NMSTR	50	0	5
NMSCR	50	0	5	96	384	2
NMHLD	51	0	3	192
NMTAP	51	192	4
NMTAP	52	0	0
NMTAP	52	0	7
NMTAP	52	48	0
NMTAP	52	96	0
NMTAP	52	96	3
NMTAP	52	144	0
NMTAP	52	192	0
NMTAP	52	192	5
NMTAP	52	240	0
NMTAP	52	288	0
NMTAP	52	288	2
NMTAP	52	336	0
NMTAP	53	0	0
NMSTR	53	0	7
NMSI_	53	0	7	96	48	3
BRTAP	53	96	7
NMTAP	53	192	2
NMTAP	53	192	4
NMTAP	53	288	2
NMSTR	53	288	4
NMSCR	53	288	4	96	96	0
NMTAP	54	0	3
NMTAP	54	96	3
NMTAP	54	192	2
NMSTR	54	192	6
NMSI_	54	192	6	96	48	4
NMTAP	54	288	2
NMTAP	55	0	3
NMSTR	55	0	7
NMSI_	55	0	7	96	48	4
NMTAP	55	96	2
NMTAP	55	192	1
NMTAP	55	192	3
NMTAP	55	288	1
NMSTR	55	288	3
NMSCR	55	288	3	96	96	7
NMTAP	56	0	2
NMTAP	56	96	2
NMTAP	56	192	3
NMTAP	56	192	7
NMTAP	56	288	3
NMSTR	56	288	7
NMSCL	56	288	7	96	96	3
NMTAP	57	0	2
NMTAP	57	96	2
NMTAP	57	192	3
NMTAP	57	192	5
NMSTR	57	288	3
NMSCL	57	288	3	96	96	7
NMTAP	57	288	5
NMTAP	58	0	4
NMTAP	58	96	4
NMSTR	58	192	1
NMSI_	58	192	1	96	48	3
NMTAP	58	192	5
NMTAP	58	288	5
NMSTR	59	0	0
NMSI_	59	0	0	96	48	3
NMTAP	59	0	4
NMTAP	59	96	5
NMTAP	59	192	4
NMTAP	59	192	6
NMSTR	59	288	4
NMSCL	59	288	4	96	96	0
NMTAP	59	288	6
NMTAP	60	0	5
NMTAP	60	96	5
NMTAP	60	192	4
NMTAP	60	288	1
NMTAP	60	288	6
NMTAP	61	0	0
NMTAP	61	24	7
NMTAP	61	48	0
NMTAP	61	72	7
NMTAP	61	96	0
NMTAP	61	120	7
NMTAP	61	144	0
NMTAP	61	168	7
BRTAP	61	192	1
NMTAP	61	288	2
NMTAP	61	288	4
NMSTR	61	336	2
NMSCL	61	336	2	96	48	7
NMTAP	61	336	4
NMTAP	62	48	3
NMTAP	62	144	5
NMTAP	62	192	5
NMTAP	62	288	4
NMTAP	62	288	6
NMSTR	62	336	4
NMSI_	62	336	4	96	48	2
NMTAP	62	336	6
NMSTR	63	48	4
NMSI_	63	48	4	96	48	7
NMTAP	63	144	0
NMSTR	63	192	0
NMSCR	63	192	0	96	48	3
NMTAP	63	288	6
NMHLD	63	336	6	96
NMTAP	64	48	4
NMSTR	64	96	4
NMSCR	64	96	4	96	96	0
NMSTR	64	192	0
NMSCR	64	192	0	96	96	4
NMSTR	64	288	4
NMSCR	64	288	4	96	96	0
NMTAP	65	0	0
NMTAP	65	96	4
NMHLD	65	192	1	96
NMSTR	65	192	3
NMSI_	65	192	3	96	48	0
NMHLD	66	0	2	96
NMSTR	66	0	4
NMSI_	66	0	4	96	48	0
NMSTR	66	192	4
NMSI_	66	192	4	96	48	7
NMHLD	66	192	6	96
NMSTR	67	0	3
NMSI_	67	0	3	96	48	7
NMHLD	67	0	5	96
NMTAP	67	192	1
NMTAP	67	192	3
NMTAP	67	240	1
NMTAP	67	240	3
NMTAP	67	288	0
NMTAP	67	336	7
NMTAP	68	0	4
NMTAP	68	0	6
NMTAP	68	48	4
NMTAP	68	48	6
NMTAP	68	96	7
NMTAP	68	144	0
NMHLD	68	192	1	96
NMTAP	68	192	4
NMTAP	68	288	3
NMSTR	68	336	3
NMSCR	68	336	3	96	96	1
NMSTR	69	48	2
NMSXL	69	48	2	96	192	0
NMSTR	69	288	7
NMSI_	69	288	7	96	48	3
NMTAP	70	0	7
NMTAP	70	192	2
NMTAP	70	288	1
NMTAP	71	0	0
NMTAP	71	0	4
NMTAP	71	96	7
NMHLD	71	192	4	48
NMHLD	71	192	6	48
NMHLD	71	288	3	48
NMHLD	71	288	5	48
NMHLD	72	0	2	48
NMHLD	72	0	4	48
NMHLD	72	96	1	48
NMHLD	72	96	3	48
NMTAP	72	192	0
NMTAP	72	288	7
NMTAP	73	0	2
NMTAP	73	0	6
NMTAP	73	96	5
NMHLD	73	192	2	48
NMHLD	73	192	4	48
NMHLD	73	288	1	48
NMHLD	73	288	3	48
NMHLD	74	0	0	48
NMHLD	74	0	2	48
NMHLD	74	96	1	48
NMHLD	74	96	7	48
NMTAP	74	192	6
NMTAP	74	288	5
NMTAP	75	0	0
NMTAP	75	0	4
NMTAP	75	96	3
NMHLD	75	192	0	48
NMHLD	75	192	2	48
NMHLD	75	288	1	48
NMHLD	75	288	7	48
NMHLD	76	0	0	48
NMHLD	76	0	6	48
NMHLD	76	96	5	48
NMHLD	76	96	7	48
NMSTR	76	192	4
NMSXL	76	192	4	96	192	4
NMSTR	77	0	2
NMSXR	77	0	2	96	192	2
NMSTR	77	192	5
NMSXL	77	192	5	96	192	5
NMSTR	78	0	3
NMSXR	78	0	3	96	192	3
NMSTR	78	192	4
NMSCR	78	192	4	96	288	3
NMTAP	80	0	3
NMTAP	80	24	4
NMTAP	80	48	3
NMTAP	80	72	4
NMTAP	80	96	2
NMSTR	80	192	1
NMSLR	80	192	1	96	192	7
NMTAP	80	288	7
NMTAP	81	0	6
NMTAP	81	96	5
NMSTR	81	192	4
NMSLR	81	192	4	96	192	2
NMTAP	81	288	2
NMTAP	82	0	1
NMTAP	82	96	0
NMSTR	82	192	4
NMSLL	82	192	4	96	192	6
NMTAP	82	288	0
NMTAP	83	0	1
NMTAP	83	96	2
NMTAP	83	192	2
NMTAP	83	216	4
NMTAP	83	240	2
NMTAP	83	264	4
NMTAP	83	288	3
NMTAP	83	312	5
NMTAP	83	336	3
NMTAP	83	360	5
NMTAP	84	0	2
NMTAP	84	24	4
NMTAP	84	48	2
NMTAP	84	72	4
NMSTR	84	96	3
NMSI_	84	96	3	96	48	0
NMTAP	84	192	3
NMTAP	84	288	6
NMSTR	84	336	7
NMSI_	84	336	7	96	48	3
NMTAP	85	48	2
NMTAP	85	48	7
NMSTR	85	96	1
NMSI_	85	96	1	96	48	6
NMTAP	85	192	1
NMTAP	85	192	4
NMSTR	85	240	5
NMSI_	85	240	5	96	48	2
NMTAP	85	336	1
NMTAP	85	336	5
NMSTR	86	0	0
NMSI_	86	0	0	96	48	4
NMTAP	86	96	0
NMTAP	86	96	6
NMSTR	86	192	7
NMSI_	86	192	7	96	48	3
NMSTR	86	288	1
NMSI_	86	288	1	96	48	4
NMTAP	86	288	7
NMTAP	87	0	1
NMTAP	87	0	5
NMTAP	87	96	3
NMTAP	87	96	6
NMTAP	87	192	3
NMTAP	87	224	2
NMTAP	87	256	1
NMTAP	87	288	4
NMTAP	87	320	5
NMTAP	87	352	6
NMTAP	88	0	2
NMTAP	88	32	1
NMTAP	88	64	0
NMTAP	88	96	5
NMTAP	88	128	6
NMTAP	88	160	7
NMTAP	88	192	1
NMTAP	88	240	1
NMTAP	88	288	0
NMTAP	88	288	2
NMTAP	88	336	3
NMTAP	89	0	3
NMTAP	89	48	2
NMTAP	89	48	4
NMTAP	89	96	5
NMTAP	89	144	5
NMTAP	89	192	4
NMTAP	89	192	6
NMTAP	89	240	7
NMSTR	89	288	7
NMSI_	89	288	7	96	48	3
NMTAP	89	336	0
NMTAP	89	336	6
BRTAP	90	96	1
BRTAP	90	96	5
NMTAP	90	192	0
NMTAP	90	192	6
NMTAP	90	216	1
NMSTR	90	240	2
NMSI_	90	240	2	96	48	7
NMTAP	90	336	2
NMTAP	90	336	6
NMTAP	90	360	5
NMSTR	91	0	4
NMSI_	91	0	4	96	48	7
NMTAP	91	96	1
NMTAP	91	96	4
NMTAP	91	120	2
NMSTR	91	144	3
NMSI_	91	144	3	96	48	0
NMTAP	91	240	0
NMTAP	91	240	3
NMTAP	91	264	7
NMSTR	91	288	6
NMSI_	91	288	6	96	48	3
NMSTR	92	0	1
NMSI_	92	0	1	96	48	5
NMTAP	92	0	6
NMTAP	92	96	1
NMSTR	92	96	4
NMSCR	92	96	4	96	288	3
BRTAP	92	192	3
NMTAP	93	96	0
NMTAP	93	192	2
NMHLD	93	192	6	192
NMTAP	94	0	4
NMTAP	94	96	4
NMTAP	94	192	3
NMHLD	94	192	5	96
NMTAP	94	288	3
NMHLD	95	0	2	96
NMTAP	95	0	4
NMTAP	95	96	4
NMTAP	95	192	2
NMTAP	95	216	4
NMTAP	95	240	2
NMTAP	95	264	4
NMTAP	95	288	2
NMTAP	95	312	4
NMTAP	95	336	2
NMTAP	95	360	4
NMTAP	96	0	3
NMTAP	96	24	5
NMTAP	96	48	3
NMTAP	96	72	5
NMSTR	96	96	3
NMSV_	96	96	3	96	48	0
NMSV_	96	96	3	96	48	6
NMTAP	96	192	3
BRTAP	96	288	1
BRTAP	96	288	5
NMTAP	97	0	2
NMSTR	97	0	4
NMSV_	97	0	4	96	48	1
NMSV_	97	0	4	96	48	7
NMTAP	97	96	4
BRTAP	97	192	2
BRTAP	97	192	6
NMSTR	97	288	3
NMSI_	97	288	3	96	48	7
NMTAP	97	288	5
NMSTR	98	0	3
NMSCL	98	0	3	96	288	4
NMSCR	98	0	3	96	288	2
NMTAP	99	144	2
NMTAP	99	144	4
NMTAP	99	192	2
NMTAP	99	192	4
NMTAP	99	288	3
NMHLD	99	288	5	96
NMTAP	100	0	4
BRSTR	100	96	6
NMSI_	100	96	6	96	48	2
BRSTR	100	96	7
NMSI_	100	96	7	96	48	3
BRTAP	100	192	6
BRTAP	100	192	7
NMTAP	100	288	1
NMTAP	100	288	4
NMTAP	100	336	1
NMTAP	100	336	4
NMTAP	101	48	3
NMSTR	101	48	6
NMSXR	101	48	6	96	96	7
NMSTR	101	144	7
NMSCR	101	144	7	96	144	4
NMSTR	102	96	6
NMSI_	102	96	6	96	48	4
NMSTR	102	96	7
NMSI_	102	96	7	96	48	3
NMTAP	102	192	6
NMTAP	102	192	7
NMTAP	102	288	2
NMSTR	102	336	1
NMSI_	102	336	1	96	48	5
NMSTR	103	48	7
NMSCL	103	48	7	96	48	4
NMTAP	103	144	3
NMTAP	103	192	3
NMTAP	103	240	2
NMTAP	103	288	1
NMHLD	103	336	0	96
NMHLD	103	336	4	96
NMSTR	104	96	2
NMSV_	104	96	2	96	48	7
NMSTR	104	96	6
NMSI_	104	96	6	96	48	3
NMTAP	104	192	2
NMTAP	104	192	6
NMTAP	104	288	0
NMSTR	104	336	0
NMSCR	104	336	0	96	48	3
NMTAP	105	48	0
NMSTR	105	48	5
NMSI_	105	48	5	96	48	1
NMSTR	105	144	2
NMSI_	105	144	2	96	48	6
NMTAP	105	144	5
NMTAP	105	240	2
NMSTR	105	240	7
NMSI_	105	240	7	96	48	4
NMSTR	105	336	0
NMSI_	105	336	0	96	48	3
NMTAP	105	336	7
NMTAP	106	48	0
NMTAP	106	48	3
NMTAP	106	96	4
NMTAP	106	144	5
NMTAP	106	192	6
NMTAP	106	240	7
NMTAP	106	288	0
NMSTR	106	336	1
NMSCL	106	336	1	96	48	6
NMTAP	107	48	3
NMTAP	107	144	4
NMTAP	107	192	4
NMTAP	107	288	4
NMTAP	107	288	5
NMTAP	107	336	4
NMTAP	107	336	5
NMTAP	108	48	3
NMTAP	108	48	6
NMSTR	108	96	3
NMSI_	108	96	3	96	48	7
NMSTR	108	96	6
NMSI_	108	96	6	96	48	4
NMTAP	108	192	3
NMTAP	108	192	6
NMTAP	108	288	0
NMSTR	108	336	0
NMSI_	108	336	0	96	48	5
NMSTR	109	48	0
NMSCR	109	48	0	96	48	3
NMTAP	109	144	4
NMSTR	109	192	4
NMSI_	109	192	4	96	48	0
NMTAP	109	288	6
NMSTR	109	336	6
NMSCR	109	336	6	96	48	1
NMSTR	110	48	6
NMSI_	110	48	6	96	48	3
NMTAP	110	144	2
NMSTR	110	192	2
NMSI_	110	192	2	96	48	0
NMTAP	110	288	3
NMSTR	110	336	3
NMSCR	110	336	3	96	48	6
NMTAP	111	48	3
NMTAP	111	96	2
NMTAP	111	144	1
NMSTR	111	192	0
NMSI_	111	192	0	96	48	4
NMTAP	111	288	4
NMSTR	111	336	5
NMSI_	111	336	5	96	48	2
NMSTR	112	48	1
NMSCL	112	48	1	96	144	4
NMTAP	112	144	3
NMTAP	112	336	0
NMTAP	113	48	2
NMTAP	113	48	4
NMTAP	113	144	6
NMTAP	113	192	4
NMTAP	113	192	6
NMTAP	113	288	0
NMSTR	113	336	1
NMSI_	113	336	1	96	48	4
NMTAP	113	336	7
NMSTR	114	48	6
NMSCL	114	48	6	96	144	0
NMTAP	114	144	2
NMTAP	115	48	0
NMTAP	115	48	1
NMTAP	115	96	2
NMTAP	115	96	7
NMTAP	115	144	3
NMTAP	115	144	6
NMTAP	115	192	4
NMTAP	115	192	5
NMTAP	115	288	2
NMTAP	115	288	4
NMTAP	115	336	2
NMTAP	115	336	4
BRTAP	116	48	1
BRTAP	116	48	5
NMSTR	116	192	0
NMSXL	116	192	0	96	288	4
NMTAP	117	96	5
NMSTR	117	192	6
NMSXL	117	192	6	96	288	2
NMTAP	118	96	3
NMSTR	118	192	4
NMSXL	118	192	4	96	288	0
NMTAP	119	96	1
NMHLD	119	192	2	192
NMHLD	120	0	0	192
NMHLD	120	192	7	192
NMHLD	121	0	5	192
NMSTR	121	192	3
NMSCL	121	192	3	96	96	0
NMSTR	122	0	4
NMSCR	122	0	4	96	96	7
NMHLD	122	192	0	576
NMSTR	123	0	3
NMSCL	123	0	3	96	288	4
NMHLD	124	192	1	96
NMHLD	124	192	4	96
NMHLD	124	336	2	96
NMHLD	124	336	3	96
NMTAP	125	96	6
NMTAP	125	96	7
NMTAP	125	192	6
NMTAP	125	216	5
NMTAP	125	240	4
NMTAP	125	264	3
NMTAP	125	288	6
NMTAP	125	312	5
NMTAP	125	336	4
NMTAP	125	360	3
NMTAP	126	0	6
NMTAP	126	24	5
NMTAP	126	48	4
NMTAP	126	72	3
NMTAP	126	96	7
NMHLD	126	192	3	96
NMHLD	126	192	6	96
NMHLD	126	336	4	96
NMHLD	126	336	5	96
NMTAP	127	96	0
NMTAP	127	96	1
NMTAP	127	192	1
NMTAP	127	216	2
NMTAP	127	240	3
NMTAP	127	264	4
NMTAP	127	288	1
NMTAP	127	312	2
NMTAP	127	336	3
NMTAP	127	360	4
NMTAP	128	0	1
NMTAP	128	24	2
NMTAP	128	48	3
NMTAP	128	72	4
NMHLD	128	96	7	192
NMSTR	128	288	0
NMSI_	128	288	0	96	48	3
NMSTR	129	0	0
NMSI_	129	0	0	96	48	5
NMSTR	129	96	0
NMSI_	129	96	0	96	48	4
NMSTR	129	192	0
NMSCL	129	192	0	96	48	5
NMSTR	129	288	0
NMSCR	129	288	0	96	48	3
NMSTR	130	0	0
NMSF_	130	0	0	96	48	4
BRTAP	130	192	1
BRTAP	130	192	7
NMHLD	132	192	4	96
NMTAP	132	192	6
NMTAP	132	288	7
NMTAP	133	0	0
NMTAP	133	96	1
NMTAP	133	192	1
NMHLD	133	192	3	96
NMTAP	133	288	0
NMTAP	134	0	7
NMTAP	134	96	6
NMHLD	134	192	4	96
NMTAP	134	192	6
NMTAP	134	288	7
NMTAP	135	0	0
NMTAP	135	96	1
NMTAP	135	192	2
NMTAP	135	192	4
NMSTR	135	288	3
NMSCL	135	288	3	96	96	0
NMTAP	135	288	5
NMHLD	136	0	4	768
NMSTR	136	192	1
NMSI_	136	192	1	96	48	3
NMTAP	136	288	1
NMSTR	137	0	5
NMSI_	137	0	5	96	48	7
NMTAP	137	96	5
NMSTR	137	192	1
NMSI_	137	192	1	96	48	3
NMTAP	137	288	1
NMSTR	138	0	5
NMSI_	138	0	5	96	48	7
NMTAP	138	96	5
NMSTR	138	192	1
NMSCR	138	192	1	96	96	5
NMSTR	138	288	5
NMSCR	138	288	5	96	96	1
NMSTR	139	0	1
NMSCR	139	0	1	96	96	5
NMSTR	139	96	5
NMSCR	139	96	5	96	96	1
NMSTR	139	192	1
NMSCR	139	192	1	96	96	5
NMSTR	139	288	5
NMSCR	139	288	5	96	96	1
NMTAP	140	0	1
NMTAP	140	96	4
NMSTR	140	192	2
NMSI_	140	192	2	96	48	6
NMTAP	140	288	2
NMTAP	140	288	5
NMSTR	140	336	4
NMSI_	140	336	4	96	48	0
NMTAP	141	48	2
NMTAP	141	48	4
NMSTR	141	96	3
NMSI_	141	96	3	96	48	7
NMTAP	141	192	3
NMTAP	141	192	6
NMSTR	141	240	5
NMSI_	141	240	5	96	48	1
NMTAP	141	336	2
NMTAP	141	336	5
NMSTR	142	0	3
NMSCL	142	0	3	96	48	0
NMTAP	142	96	3
NMSTR	142	96	4
NMSCR	142	96	4	96	48	7
NMSTR	142	192	3
NMSCL	142	192	3	96	48	0
NMTAP	142	192	4
NMTAP	142	288	3
NMSTR	142	288	4
NMSI_	142	288	4	96	48	1
NMSI_	142	288	4	96	48	7
NMTAP	143	0	4
BRTAP	143	96	3
BRTAP	143	96	5
NMTAP	143	192	0
NMTAP	143	216	7
NMTAP	143	240	0
NMTAP	143	264	7
NMTAP	143	288	0
NMTAP	143	312	7
NMTAP	143	336	0
NMTAP	143	360	7
NMTAP	144	0	0
NMTAP	144	24	7
NMTAP	144	48	0
NMTAP	144	72	7
NMTAP	144	96	0
NMTAP	144	120	6
NMTAP	144	144	0
NMTAP	144	168	5
NMTAP	144	192	0
NMTAP	144	216	4
NMTAP	144	240	0
NMTAP	144	264	3
NMTAP	144	288	0
NMTAP	144	312	2
NMTAP	144	336	0
NMTAP	144	360	1
NMTAP	145	0	0
NMTAP	145	24	1
NMTAP	145	48	2
NMTAP	145	72	3
NMSTR	145	96	4
NMSCL	145	96	4	96	1152	5
NMTAP	145	120	5
NMTAP	145	144	6
NMTAP	145	168	7
NMHLD	145	192	0	1152

T_REC_TAP	528
T_REC_BRK	19
T_REC_XTP	0
T_REC_BXX	0
T_REC_HLD	71
T_REC_XHO	0
T_REC_BHO	0
T_REC_BXH	0
T_REC_STR	152
T_REC_BST	2
T_REC_XST	0
T_REC_XBS	0
T_REC_TTP	0
T_REC_THO	0
T_REC_SLD	159
T_REC_BSL	0
T_REC_ALL	931
T_NUM_TAP	680
T_NUM_BRK	21
T_NUM_HLD	71
T_NUM_SLD	159
T_NUM_ALL	931
T_JUDGE_TAP	701
T_JUDGE_HLD	201
T_JUDGE_SLD	159
T_JUDGE_ALL	1061
TTM_EACHPAIRS	166
TTM_SCR_TAP	340000
TTM_SCR_BRK	54600
TTM_SCR_HLD	71000
TTM_SCR_SLD	238500
TTM_SCR_ALL	704100
TTM_SCR_S	680950
TTM_SCR_SS	702000
TTM_RAT_ACV	10029

