VERSION	0.00.00	1.04.00
FES_MODE	0
BPM_DEF	238.000	238.000	238.000	238.000
MET_DEF	4	4
RESOLUTION	384
CLK_DEF	384
COMPATIBLE_CODE	MA2

BPM	0	0	238.000
MET	0	0	4	4
MET	11	0	4	2
MET	11	192	4	4
MET	15	192	4	2
MET	16	0	4	4
MET	53	0	4	2
MET	53	192	4	4

NMTAP	3	0	2
NMHLD	3	96	2	480
NMTAP	3	192	4
NMTAP	3	288	4
NMTAP	4	0	3
NMTAP	4	96	3
NMTAP	4	192	4
NMTAP	5	0	5
NMHLD	5	96	5	480
NMTAP	5	192	3
NMTAP	5	288	3
NMTAP	6	0	4
NMTAP	6	96	4
NMTAP	6	192	3
NMTAP	7	0	1
NMHLD	7	96	1	576
NMTAP	7	192	3
NMTAP	7	288	3
NMTAP	8	0	2
NMTAP	8	96	3
NMTAP	8	192	4
NMTAP	8	288	5
NMTAP	9	0	6
NMHLD	9	96	6	672
NMTAP	9	192	4
NMTAP	9	288	4
NMTAP	10	0	5
NMTAP	10	96	4
NMTAP	10	192	3
NMTAP	10	288	2
BRTAP	11	0	1
BRTAP	11	192	1
NMHLD	11	288	1	576
NMTAP	12	0	7
NMTAP	12	96	7
NMTAP	12	192	0
NMTAP	12	288	0
NMTAP	13	0	7
NMTAP	13	96	7
NMTAP	13	192	6
NMHLD	13	288	6	768
NMTAP	14	0	0
NMTAP	14	96	0
NMTAP	14	192	7
NMTAP	14	288	7
NMTAP	15	0	0
NMTAP	15	96	1
NMHLD	15	192	1	96
BRTAP	16	0	0
BRTAP	16	0	7
NMHLD	16	96	0	96
BRTAP	16	96	7
NMTAP	16	192	2
NMHLD	16	288	2	96
NMTAP	17	0	1
NMHLD	17	96	1	96
NMTAP	17	192	3
NMHLD	17	288	3	96
NMTAP	18	0	4
NMHLD	18	96	4	96
NMTAP	18	192	6
NMHLD	18	288	6	96
NMTAP	19	0	5
NMHLD	19	96	5	96
NMTAP	19	192	7
NMTAP	19	288	0
NMTAP	19	288	7
NMHLD	20	0	0	144
NMHLD	20	144	1	144
NMHLD	20	288	2	144
NMHLD	21	48	3	144
NMTAP	21	192	4
NMTAP	21	288	4
NMTAP	21	288	5
NMTAP	22	0	6
NMTAP	22	96	7
NMTAP	22	192	0
NMTAP	22	288	1
BRTAP	23	0	2
BRTAP	23	0	3
BRTAP	23	144	4
BRTAP	23	144	5
BRTAP	23	288	1
BRTAP	23	288	3
BRTAP	24	48	4
BRTAP	24	48	6
NMTAP	24	192	0
NMTAP	24	192	7
NMTAP	24	288	1
NMTAP	24	288	6
BRSTR	25	0	2
NMSCL	25	0	2	96	480	4
BRTAP	25	0	5
NMSTR	27	0	3
NMSUR	27	0	3	96	288	4
NMTAP	28	192	4
NMTAP	28	192	5
NMTAP	29	0	5
NMTAP	29	192	4
NMTAP	29	192	6
NMTAP	30	0	2
NMTAP	30	192	1
NMTAP	30	192	3
NMTAP	31	0	2
NMTAP	31	96	2
NMTAP	31	192	3
NMTAP	31	288	3
NMTAP	32	0	4
NMTAP	32	96	4
NMTAP	32	192	5
NMTAP	32	288	5
NMTAP	33	0	4
NMTAP	33	0	5
NMHLD	33	96	3	96
NMHLD	33	96	6	96
NMTAP	33	288	2
NMTAP	33	288	3
NMHLD	34	0	1	96
NMHLD	34	0	4	96
NMTAP	34	192	0
NMTAP	34	192	7
NMHLD	34	288	1	672
NMHLD	34	288	6	672
NMSTR	37	0	1
NMSUR	37	0	1	96	480	4
NMSTR	39	0	5
NMSI_	39	0	5	96	192	3
NMSTR	40	0	2
NMSI_	40	0	2	96	192	4
NMSTR	41	0	6
NMSUL	41	0	6	96	480	3
NMSTR	43	0	1
NMSCR	43	0	1	96	288	4
NMSTR	44	0	6
NMSCL	44	0	6	96	288	3
NMSTR	45	0	1
NMSI_	45	0	1	96	192	4
NMSTR	46	0	6
NMSI_	46	0	6	96	192	3
NMSTR	47	0	2
NMSI_	47	0	2	96	192	7
NMSTR	48	0	5
NMSI_	48	0	5	96	192	0
NMHLD	49	0	1	192
NMHLD	49	192	3	192
NMHLD	50	0	4	192
NMHLD	50	192	6	192
NMTAP	51	0	2
NMTAP	51	96	1
NMTAP	51	96	3
NMTAP	51	192	5
NMTAP	51	288	4
NMTAP	51	288	6
NMTAP	52	0	2
NMTAP	52	48	2
NMTAP	52	96	3
NMTAP	52	192	5
NMTAP	52	240	5
NMTAP	52	288	4
NMTAP	53	0	1
NMTAP	53	0	6
BRTAP	53	96	0
BRTAP	53	96	7
NMTAP	53	192	1
NMTAP	53	240	1
NMTAP	53	288	3
NMTAP	53	336	3
NMTAP	54	0	2
NMTAP	54	48	2
NMTAP	54	96	4
NMTAP	54	192	3
NMTAP	54	192	5
NMTAP	54	288	2
NMTAP	54	288	6
NMTAP	55	0	1
NMTAP	55	0	7
NMTAP	55	96	0
NMTAP	55	192	7
NMTAP	55	288	4
NMTAP	55	288	6
NMTAP	56	0	0
NMTAP	56	96	1
NMTAP	56	96	3
NMTAP	56	192	2
NMTAP	56	240	2
NMTAP	56	288	4
NMTAP	57	0	1
NMTAP	57	0	5
NMTAP	57	96	0
NMTAP	57	96	7
NMTAP	57	192	6
NMTAP	57	240	6
NMTAP	57	288	4
NMTAP	57	336	4
NMTAP	58	0	5
NMTAP	58	48	5
NMTAP	58	96	3
NMTAP	58	192	2
NMTAP	58	192	4
NMTAP	58	288	1
NMTAP	58	288	5
NMTAP	59	0	0
NMTAP	59	0	6
NMTAP	59	96	7
NMTAP	59	192	0
NMTAP	59	288	1
NMTAP	59	288	3
NMTAP	60	0	2
NMTAP	60	0	4
NMTAP	60	96	3
NMTAP	60	96	5
NMTAP	60	192	6
NMTAP	60	240	6
NMTAP	60	288	4
NMTAP	61	0	1
NMTAP	61	48	1
NMTAP	61	96	3
NMTAP	61	144	3
NMTAP	61	192	2
NMTAP	61	288	1
NMTAP	61	288	3
NMTAP	62	0	5
NMTAP	62	96	4
NMTAP	62	96	6
NMTAP	62	192	3
NMTAP	62	288	1
NMTAP	62	288	7
NMTAP	63	0	4
NMTAP	63	96	0
NMTAP	63	96	6
NMTAP	63	192	7
NMTAP	63	288	4
NMTAP	63	288	5
NMTAP	64	0	0
NMTAP	64	96	2
NMTAP	64	96	3
NMTAP	64	192	5
NMTAP	64	240	4
NMTAP	64	288	5
NMTAP	65	0	2
NMTAP	65	48	3
NMTAP	65	96	2
NMTAP	65	192	0
NMTAP	65	288	2
NMTAP	65	288	4
NMTAP	66	0	7
NMTAP	66	96	3
NMTAP	66	96	5
NMTAP	66	192	2
NMTAP	66	192	4
NMTAP	66	288	6
NMTAP	66	288	7
NMTAP	67	0	3
NMTAP	67	0	5
NMTAP	67	96	0
NMTAP	67	96	1
NMHLD	67	192	1	96
NMTAP	67	192	7
NMTAP	67	288	3
NMTAP	68	0	0
NMHLD	68	0	6	96
NMTAP	68	96	4
NMHLD	68	192	2	96
NMTAP	68	192	3
NMTAP	68	288	7
NMTAP	69	0	4
NMHLD	69	0	5	96
NMTAP	69	96	0
NMTAP	69	192	0
NMTAP	69	192	7
NMTAP	69	288	1
NMTAP	69	288	6
BRTAP	70	0	2
BRTAP	70	0	5
NMSTR	70	192	1
NMSI_	70	192	1	96	192	4
NMSTR	71	192	6
NMSI_	71	192	6	96	192	3
NMHLD	72	192	2	192
NMHLD	73	0	3	192
NMHLD	73	192	4	192
NMHLD	74	0	5	192
NMSTR	74	192	2
NMSI_	74	192	2	96	192	7
NMSTR	75	192	5
NMSI_	75	192	5	96	192	0
NMHLD	76	192	1	192
NMHLD	77	0	3	192
NMHLD	77	192	4	192
NMHLD	78	0	6	192
NMTAP	78	192	1
NMTAP	78	288	1
NMTAP	79	0	3
NMTAP	79	192	6
NMTAP	79	288	6
NMTAP	80	0	4
NMTAP	80	192	5
NMTAP	80	288	5
NMTAP	81	0	4
NMTAP	81	0	6
NMTAP	81	96	7
NMTAP	81	192	1
NMTAP	81	288	2
NMTAP	82	0	1
NMTAP	82	0	3
NMTAP	82	96	0
NMTAP	82	192	7
NMTAP	82	288	6
NMTAP	83	0	3
NMTAP	83	0	5
NMTAP	83	96	7
NMTAP	83	192	0
NMTAP	83	288	1
NMTAP	84	0	2
NMTAP	84	0	4
NMTAP	84	96	0
NMSTR	84	192	1
NMSI_	84	192	1	96	48	4
NMSTR	84	336	7
NMSI_	84	336	7	96	48	3
NMSTR	85	96	0
NMSI_	85	96	0	96	48	4
NMSTR	85	240	6
NMSI_	85	240	6	96	48	3
NMTAP	86	0	1
NMTAP	86	96	1
NMTAP	86	96	3
NMTAP	86	192	2
NMTAP	86	192	4
NMTAP	86	288	3
NMTAP	86	288	5
NMTAP	87	0	4
NMTAP	87	0	6
NMSTR	87	96	0
NMSI_	87	96	0	96	192	3
NMSTR	87	96	7
NMSI_	87	96	7	96	192	4
NMTAP	88	192	2
NMTAP	88	240	2
NMTAP	88	288	3
NMTAP	88	336	3
NMTAP	89	0	1
NMTAP	89	96	5
NMTAP	89	144	5
NMTAP	89	192	4
NMTAP	89	240	4
NMTAP	89	288	6
NMTAP	90	0	6
NMTAP	90	0	7
NMTAP	90	96	3
NMTAP	90	96	4
BRTAP	90	192	0
BRTAP	90	192	1
BRTAP	90	336	2
BRTAP	90	336	3
BRTAP	91	96	4
BRTAP	91	96	5
BRTAP	91	240	6
BRTAP	91	240	7
BRTAP	92	0	0
BRTAP	92	0	1
NMTAP	92	96	3
NMTAP	92	96	4
NMSTR	92	192	2
NMSCL	92	192	2	96	192	7
BRTAP	92	192	5
NMTAP	93	96	6
NMSTR	93	192	6
NMSCL	93	192	6	96	192	2
NMTAP	94	96	0
NMSTR	94	192	0
NMSUR	94	192	0	96	192	6
NMTAP	95	96	7
NMSTR	95	192	7
NMSI_	95	192	7	96	96	3
NMTAP	96	0	2
NMTAP	96	192	0
NMTAP	96	192	1
NMHLD	96	288	2	96
NMHLD	96	288	7	96
NMTAP	97	96	6
NMTAP	97	96	7
NMHLD	97	192	0	96
NMHLD	97	192	5	96
NMTAP	98	0	3
NMTAP	98	0	4
BRSTR	98	96	1
NMSCR	98	96	1	96	480	7
BRSTR	98	96	6
NMSCL	98	96	6	96	480	0
BRTAP	100	96	0
BRTAP	100	96	7
NMTAP	100	192	2
NMTAP	100	192	5
NMTAP	100	288	4
NMTAP	100	288	6
NMTAP	100	336	4
NMTAP	100	336	6
NMTAP	101	48	0
NMTAP	101	48	7
NMTAP	101	144	1
NMTAP	101	144	3
NMHLD	101	192	1	192
NMTAP	101	192	3
NMTAP	101	288	2
NMTAP	102	0	0
NMTAP	102	96	1
NMTAP	102	96	7
NMTAP	102	192	0
NMTAP	102	192	6
NMTAP	102	288	6
NMTAP	102	336	6
NMTAP	103	0	7
NMTAP	103	48	7
NMTAP	103	144	0
NMTAP	103	144	5
NMTAP	103	240	1
NMTAP	103	288	1
NMSTR	103	336	3
NMSI_	103	336	3	96	48	7
NMTAP	104	192	0
NMTAP	104	192	6
NMTAP	104	288	1
NMTAP	104	288	4
NMTAP	104	336	1
NMTAP	104	336	4
NMTAP	105	48	3
NMTAP	105	48	6
NMTAP	105	144	7
NMTAP	105	192	7
NMTAP	105	240	0
NMTAP	105	288	0
NMTAP	105	336	6
NMTAP	106	48	3
NMTAP	106	48	5
NMTAP	106	96	3
NMTAP	106	96	5
NMTAP	106	192	1
NMTAP	106	240	1
NMTAP	106	288	0
NMTAP	106	336	0
NMTAP	107	48	2
NMTAP	107	48	7
NMTAP	107	144	3
NMTAP	107	144	6
NMTAP	107	192	3
NMHLD	107	192	6	144
NMTAP	107	288	4
NMHLD	107	336	4	144
NMTAP	108	48	3
NMTAP	108	96	3
NMHLD	108	192	0	96
NMHLD	108	192	1	96
NMTAP	108	336	2
NMTAP	108	336	7
NMTAP	109	48	3
NMTAP	109	48	4
NMTAP	109	144	0
NMTAP	109	144	5
NMHLD	109	192	0	96
NMHLD	109	192	5	96
NMTAP	110	0	2
NMTAP	110	0	3
NMTAP	110	48	2
NMTAP	110	48	3
NMTAP	110	144	1
NMHLD	110	192	1	144
NMTAP	110	288	7
NMTAP	110	336	7
NMTAP	111	48	4
NMTAP	111	48	5
NMTAP	111	144	1
NMTAP	111	144	3
NMTAP	111	192	1
NMTAP	111	192	3
NMTAP	111	288	4
NMTAP	111	288	6
NMTAP	111	336	4
NMTAP	111	336	6
NMTAP	112	48	0
NMTAP	112	48	7
NMTAP	112	144	6
NMHLD	112	192	6	336
NMTAP	112	288	0
NMTAP	112	336	0
NMTAP	113	48	2
NMHLD	113	144	4	144
NMTAP	113	288	5
NMTAP	113	336	5
NMTAP	114	48	2
NMTAP	114	48	6
NMTAP	114	144	1
NMSTR	114	144	7
NMSI_	114	144	7	96	96	3
NMTAP	115	48	2
NMTAP	115	48	4
NMTAP	115	96	2
NMTAP	115	96	4
NMTAP	115	192	3
NMTAP	115	192	5
NMTAP	115	288	0
NMTAP	115	288	7
NMTAP	115	336	0
NMTAP	115	336	7
NMTAP	116	48	1
NMTAP	116	48	6
NMSTR	116	192	2
NMSUL	116	192	2	96	288	7
NMTAP	116	192	4
NMSTR	117	192	6
NMSUL	117	192	6	96	288	3
NMSTR	118	192	2
NMSCL	118	192	2	96	48	7
NMSTR	119	0	6
NMSCL	119	0	6	96	48	3
NMSTR	119	192	1
NMSI_	119	192	1	96	48	4
NMSTR	120	0	5
NMSI_	120	0	5	96	48	0
NMSTR	120	192	1
NMSXL	120	192	1	96	288	4
NMSTR	121	192	6
NMSI_	121	192	6	96	48	2
NMSTR	122	0	3
NMSI_	122	0	3	96	48	0
NMSTR	122	192	7
NMSCL	122	192	7	96	480	0
NMTAP	124	192	0
NMTAP	124	288	1
NMTAP	124	288	7
NMTAP	124	336	1
NMTAP	124	336	7
NMTAP	125	48	0
NMTAP	125	48	6
NMTAP	125	96	0
NMHLD	125	96	6	288
NMTAP	125	288	7
NMTAP	126	0	0
NMTAP	126	96	1
NMTAP	126	192	2
NMTAP	126	192	7
NMTAP	126	288	0
NMTAP	126	288	1
NMTAP	126	336	0
NMTAP	126	336	1
NMTAP	127	48	6
NMTAP	127	48	7
NMHLD	127	96	6	480
NMTAP	127	96	7
NMTAP	127	288	7
NMTAP	128	0	0
NMHLD	128	96	1	96
NMTAP	128	288	2
NMTAP	128	288	3
NMTAP	129	0	4
NMTAP	129	0	5
NMTAP	129	96	6
NMTAP	129	96	7
NMTAP	129	192	0
NMTAP	129	192	1
NMTAP	129	288	1
NMTAP	129	288	3
NMTAP	130	0	3
NMTAP	130	0	4
NMTAP	130	96	4
NMTAP	130	96	6
BRSTR	130	192	0
NMSCR	130	192	0	96	480	3
BRSTR	130	192	7
NMSCL	130	192	7	96	480	4
NMHLD	132	192	2	576
NMHLD	132	192	4	192
NMHLD	133	192	3	192
NMHLD	134	192	3	192
NMHLD	134	192	5	576
NMHLD	135	192	4	192
NMHLD	136	192	1	192
NMHLD	137	0	3	192
NMHLD	137	192	4	192
NMHLD	138	0	6	192
NMTAP	138	192	2
NMTAP	138	288	2
NMTAP	139	0	3
NMTAP	139	96	3
NMTAP	139	192	4
NMTAP	139	288	4
NMTAP	140	0	5
NMTAP	140	96	3
NMTAP	140	96	5
NMSTR	140	192	2
NMSI_	140	192	2	96	48	7
NMSTR	140	336	4
NMSI_	140	336	4	96	48	0
NMSTR	141	96	3
NMSI_	141	96	3	96	48	7
NMSTR	141	240	5
NMSI_	141	240	5	96	48	0
NMTAP	142	0	1
NMTAP	142	96	0
NMTAP	142	96	1
NMTAP	142	192	6
NMTAP	142	192	7
NMTAP	142	288	4
NMTAP	142	288	5
NMTAP	143	0	2
NMTAP	143	0	3
BRTAP	143	96	1
BRTAP	143	96	6
BRTAP	143	192	0
NMTAP	143	240	7
BRTAP	143	288	0
NMTAP	143	336	7
BRTAP	144	0	0
NMTAP	144	48	7
BRTAP	144	96	0
NMTAP	144	144	7
BRTAP	144	192	0
NMTAP	144	240	7
BRTAP	144	288	0
NMTAP	144	336	7
BRTAP	145	0	0
NMTAP	145	48	7
BRSTR	145	96	0
NMSF_	145	96	0	96	48	4

T_REC_TAP	423
T_REC_BRK	40
T_REC_XTP	0
T_REC_BXX	0
T_REC_HLD	67
T_REC_XHO	0
T_REC_BHO	0
T_REC_BXH	0
T_REC_STR	41
T_REC_BST	6
T_REC_XST	0
T_REC_XBS	0
T_REC_TTP	0
T_REC_THO	0
T_REC_SLD	47
T_REC_BSL	0
T_REC_ALL	624
T_NUM_TAP	464
T_NUM_BRK	46
T_NUM_HLD	67
T_NUM_SLD	47
T_NUM_ALL	624
T_JUDGE_TAP	510
T_JUDGE_HLD	307
T_JUDGE_SLD	47
T_JUDGE_ALL	864
TTM_EACHPAIRS	146
TTM_SCR_TAP	232000
TTM_SCR_BRK	119600
TTM_SCR_HLD	67000
TTM_SCR_SLD	70500
TTM_SCR_ALL	489100
TTM_SCR_S	470000
TTM_SCR_SS	484500
TTM_RAT_ACV	10094

