VERSION	0.00.00	1.04.00
FES_MODE	0
BPM_DEF	238.000	238.000	238.000	238.000
MET_DEF	4	4
RESOLUTION	384
CLK_DEF	384
COMPATIBLE_CODE	MA2

BPM	0	0	238.000
MET	0	0	4	4
MET	11	0	4	2
MET	11	192	4	4
MET	15	192	4	2
MET	16	0	4	4
MET	53	0	4	2
MET	53	192	4	4

NMTAP	3	0	1
NMTAP	3	192	1
NMTAP	4	0	0
NMTAP	4	0	1
NMTAP	5	0	2
NMTAP	5	192	2
NMTAP	6	0	2
NMTAP	6	0	3
NMTAP	7	0	5
NMTAP	7	192	5
NMTAP	8	0	4
NMTAP	8	0	5
NMTAP	9	0	6
NMTAP	9	192	6
NMTAP	10	0	6
NMTAP	10	0	7
BRTAP	11	0	0
BRTAP	11	0	7
NMTAP	11	192	6
NMTAP	11	192	7
NMTAP	12	0	6
NMTAP	12	0	7
NMTAP	12	192	0
NMTAP	12	192	5
NMTAP	13	192	0
NMTAP	13	192	1
NMTAP	14	0	0
NMTAP	14	0	1
NMTAP	14	192	2
NMTAP	14	192	7
NMTAP	15	0	2
NMTAP	15	0	7
NMTAP	16	0	0
NMTAP	16	0	7
NMTAP	16	192	0
NMTAP	16	192	7
NMTAP	17	0	1
NMTAP	17	0	6
NMTAP	17	192	1
NMTAP	17	192	6
NMTAP	18	0	2
NMTAP	18	0	5
NMTAP	18	192	2
NMTAP	18	192	5
NMTAP	19	0	3
NMTAP	19	0	4
NMTAP	20	0	4
NMTAP	20	0	6
NMTAP	20	288	4
NMTAP	20	288	6
NMTAP	21	192	4
NMTAP	21	192	6
NMHLD	22	0	2	192
NMHLD	22	0	5	192
NMTAP	23	0	1
NMTAP	23	0	3
NMTAP	23	288	1
NMTAP	23	288	3
NMTAP	24	192	1
NMTAP	24	192	3
BRTAP	25	0	2
BRTAP	25	0	5
NMSTR	27	0	1
NMSI_	27	0	1	96	480	5
NMTAP	29	0	6
NMTAP	29	0	7
NMTAP	29	192	6
NMTAP	29	192	7
NMTAP	30	0	4
NMTAP	30	0	5
NMTAP	30	192	4
NMTAP	30	192	5
NMTAP	31	0	2
NMTAP	31	0	3
NMTAP	31	192	2
NMTAP	31	192	3
NMHLD	32	0	0	192
NMHLD	32	0	1	192
NMTAP	33	0	6
NMTAP	33	0	7
NMTAP	33	96	6
NMTAP	33	96	7
NMTAP	33	288	0
NMTAP	33	288	1
NMTAP	34	0	0
NMTAP	34	0	1
NMTAP	34	192	1
NMTAP	34	192	6
NMHLD	34	288	1	480
NMHLD	34	288	6	480
NMHLD	37	0	2	384
NMHLD	38	0	3	384
NMHLD	39	0	4	384
NMTAP	40	0	5
NMHLD	41	0	5	384
NMHLD	42	0	4	384
NMHLD	43	0	3	384
NMTAP	44	0	2
NMHLD	45	0	1	384
NMHLD	46	0	2	384
NMHLD	47	0	3	384
NMTAP	48	0	4
NMHLD	49	0	6	384
NMHLD	50	0	5	384
NMHLD	51	0	4	384
NMTAP	52	0	3
BRTAP	53	0	3
BRTAP	53	0	4
NMTAP	53	192	5
NMTAP	53	288	5
NMTAP	54	0	5
NMTAP	54	192	6
NMTAP	54	288	6
NMTAP	55	0	6
NMTAP	55	192	7
NMTAP	55	288	7
NMTAP	56	0	7
NMTAP	56	192	0
NMTAP	56	192	1
NMTAP	56	288	0
NMTAP	56	288	1
NMTAP	57	0	0
NMTAP	57	0	1
NMTAP	57	192	2
NMTAP	57	288	2
NMTAP	58	0	2
NMTAP	58	192	1
NMTAP	58	288	1
NMTAP	59	0	1
NMTAP	59	192	0
NMTAP	59	288	0
NMTAP	60	0	0
NMTAP	60	192	6
NMTAP	60	192	7
NMTAP	60	288	6
NMTAP	60	288	7
NMTAP	61	0	6
NMTAP	61	0	7
NMTAP	61	192	6
NMTAP	61	288	6
NMTAP	62	0	5
NMTAP	62	96	5
NMTAP	62	192	4
NMTAP	62	288	4
NMTAP	63	0	2
NMTAP	63	0	3
NMTAP	63	192	1
NMTAP	63	288	1
NMTAP	64	0	2
NMTAP	64	96	2
NMTAP	64	192	3
NMTAP	64	288	3
NMTAP	65	0	4
NMTAP	65	0	5
NMTAP	65	192	6
NMTAP	65	288	6
NMTAP	66	0	6
NMTAP	66	0	7
NMTAP	66	192	5
NMTAP	66	288	5
NMTAP	67	0	4
NMTAP	67	0	5
NMTAP	67	192	2
NMTAP	67	288	2
NMTAP	68	0	2
NMTAP	68	0	3
NMTAP	68	192	1
NMTAP	68	288	1
NMTAP	69	0	0
NMTAP	69	0	1
NMHLD	69	192	0	192
NMHLD	69	192	7	192
NMSTR	70	192	1
NMSI_	70	192	1	96	480	5
NMSTR	72	192	6
NMSI_	72	192	6	96	480	2
NMSTR	74	192	0
NMSI_	74	192	0	96	480	4
NMSTR	76	192	6
NMSCL	76	192	6	96	480	3
NMSTR	78	192	1
NMSCR	78	192	1	96	480	4
NMTAP	80	192	6
NMTAP	81	0	6
NMTAP	81	192	7
NMTAP	82	0	7
NMTAP	82	192	0
NMTAP	83	0	0
NMTAP	83	192	1
NMTAP	84	0	1
NMTAP	84	192	0
NMTAP	84	192	7
NMTAP	84	336	0
NMTAP	84	336	7
NMTAP	85	96	0
NMTAP	85	96	7
NMTAP	85	240	0
NMTAP	85	240	7
NMTAP	86	0	0
NMTAP	86	0	7
NMHLD	86	192	1	384
NMHLD	86	192	6	384
NMTAP	88	192	2
NMTAP	88	288	2
NMTAP	89	0	3
NMTAP	89	96	3
NMTAP	89	192	4
NMTAP	89	288	4
NMTAP	90	0	5
NMTAP	90	192	3
NMTAP	90	192	4
NMTAP	90	336	3
NMTAP	90	336	4
NMTAP	91	96	3
NMTAP	91	96	4
NMTAP	91	240	3
NMTAP	91	240	4
NMTAP	92	0	3
NMTAP	92	0	4
NMHLD	92	192	2	384
NMHLD	92	192	5	384
NMHLD	94	192	1	384
NMHLD	94	192	6	384
BRTAP	96	192	4
BRTAP	96	192	5
NMTAP	96	288	4
NMTAP	96	288	5
BRTAP	97	96	2
BRTAP	97	96	3
NMTAP	97	192	2
NMTAP	97	192	3
BRTAP	98	0	3
BRTAP	98	0	4
NMHLD	98	96	3	672
NMHLD	98	96	4	672
NMTAP	100	192	2
NMTAP	100	288	2
NMTAP	101	0	2
NMTAP	101	0	3
NMTAP	101	96	2
NMTAP	101	96	3
NMTAP	101	192	1
NMTAP	101	288	1
NMTAP	102	0	0
NMTAP	102	0	1
NMTAP	102	96	0
NMTAP	102	96	1
NMTAP	102	192	7
NMTAP	102	288	7
NMTAP	103	0	6
NMTAP	103	0	7
NMTAP	103	96	6
NMTAP	103	96	7
NMTAP	103	192	4
NMTAP	103	192	5
NMTAP	103	288	4
NMTAP	103	288	5
NMTAP	104	0	4
NMTAP	104	0	5
NMTAP	104	192	5
NMTAP	104	288	5
NMTAP	105	0	4
NMTAP	105	0	5
NMTAP	105	96	4
NMTAP	105	96	5
NMTAP	105	192	6
NMTAP	105	288	6
NMTAP	106	0	6
NMTAP	106	0	7
NMTAP	106	96	6
NMTAP	106	96	7
NMTAP	106	192	0
NMTAP	106	288	0
NMTAP	107	0	0
NMTAP	107	0	1
NMTAP	107	96	0
NMTAP	107	96	1
NMTAP	107	192	2
NMTAP	107	192	3
NMTAP	107	288	2
NMTAP	107	288	3
NMTAP	108	0	2
NMTAP	108	0	3
NMTAP	108	192	3
NMTAP	108	288	2
NMTAP	109	0	1
NMTAP	109	96	0
NMTAP	109	192	7
NMTAP	109	288	6
NMTAP	110	0	5
NMTAP	110	96	4
NMTAP	110	192	3
NMTAP	110	288	2
NMTAP	111	0	1
NMTAP	111	96	0
NMTAP	111	192	7
NMTAP	111	288	6
NMTAP	112	0	4
NMTAP	112	0	5
NMTAP	112	192	4
NMTAP	112	288	5
NMTAP	113	0	6
NMTAP	113	96	7
NMTAP	113	192	0
NMTAP	113	288	1
NMTAP	114	0	2
NMTAP	114	96	3
NMTAP	114	192	4
NMTAP	114	288	5
NMTAP	115	0	6
NMTAP	115	96	7
NMTAP	115	192	0
NMTAP	115	288	1
NMTAP	116	0	2
NMTAP	116	0	3
NMSTR	116	192	1
NMSI_	116	192	1	96	480	4
NMSTR	118	192	6
NMSI_	118	192	6	96	480	3
NMSTR	120	192	1
NMSI_	120	192	1	96	480	5
NMSTR	122	192	6
NMSI_	122	192	6	96	480	2
NMTAP	124	192	1
NMTAP	124	192	3
NMTAP	124	336	1
NMTAP	124	336	3
NMTAP	125	96	1
NMTAP	125	96	3
NMTAP	126	192	4
NMTAP	126	192	6
NMTAP	126	336	4
NMTAP	126	336	6
NMTAP	127	96	4
NMTAP	127	96	6
NMHLD	128	96	2	864
NMHLD	128	96	5	864
NMTAP	132	192	3
NMTAP	133	0	2
NMTAP	133	192	1
NMTAP	134	0	0
NMTAP	134	192	7
NMTAP	135	0	6
NMTAP	135	192	5
NMTAP	136	0	4
NMTAP	136	192	3
NMTAP	136	192	4
NMTAP	137	0	3
NMTAP	137	0	4
NMTAP	137	192	2
NMTAP	137	192	5
NMTAP	138	0	2
NMTAP	138	0	5
NMTAP	138	192	1
NMTAP	138	192	6
NMTAP	139	0	1
NMTAP	139	0	6
NMHLD	139	192	0	192
NMHLD	139	192	7	192
NMTAP	140	192	6
NMTAP	140	192	7
NMTAP	140	336	6
NMTAP	140	336	7
NMTAP	141	96	0
NMTAP	141	96	1
NMTAP	141	240	0
NMTAP	141	240	1
NMTAP	142	0	7
NMTAP	142	96	7
NMTAP	142	192	0
NMTAP	142	288	0
NMTAP	143	0	0
NMTAP	143	0	7
NMTAP	143	96	0
NMTAP	143	96	7
NMHLD	143	192	0	576
NMHLD	143	192	7	576
BRTAP	145	192	1
BRTAP	145	192	6

T_REC_TAP	311
T_REC_BRK	14
T_REC_XTP	0
T_REC_BXX	0
T_REC_HLD	34
T_REC_XHO	0
T_REC_BHO	0
T_REC_BXH	0
T_REC_STR	10
T_REC_BST	0
T_REC_XST	0
T_REC_XBS	0
T_REC_TTP	0
T_REC_THO	0
T_REC_SLD	10
T_REC_BSL	0
T_REC_ALL	379
T_NUM_TAP	321
T_NUM_BRK	14
T_NUM_HLD	34
T_NUM_SLD	10
T_NUM_ALL	379
T_JUDGE_TAP	335
T_JUDGE_HLD	284
T_JUDGE_SLD	10
T_JUDGE_ALL	629
TTM_EACHPAIRS	115
TTM_SCR_TAP	160500
TTM_SCR_BRK	36400
TTM_SCR_HLD	34000
TTM_SCR_SLD	15000
TTM_SCR_ALL	245900
TTM_SCR_S	237200
TTM_SCR_SS	244500
TTM_RAT_ACV	10057

