VERSION	0.00.00	1.03.00
FES_MODE	0
BPM_DEF	 95.500	191.000	191.000	 61.000
MET_DEF	4	4
RESOLUTION	384
CLK_DEF	384
COMPATIBLE_CODE	MA2

BPM	0	0	 95.500
BPM	8	96	 87.000
BPM	8	288	 78.000
BPM	9	96	 69.000
BPM	9	288	 61.000
BPM	10	0	 63.000
BPM	10	96	191.000
MET	0	0	4	4

TAP	1	288	5
TAP	1	312	4
TAP	1	336	3
TAP	1	360	2
HLD	2	0	1	288
HLD	2	0	6	672
HLD	3	0	4	672
HLD	4	0	3	480
STR	5	0	2
SCR	5	0	2	96	96	5
BRK	5	192	7
TAP	5	288	0
TAP	5	312	1
TAP	5	336	2
TAP	5	360	3
STR	6	0	4
SCL	6	0	4	96	96	1
TAP	6	0	5
TAP	6	96	6
STR	6	192	3
SCR	6	192	3	96	96	6
TAP	6	288	1
STR	7	0	3
SCL	7	0	3	96	96	1
STR	7	96	1
SCL	7	96	1	96	96	6
STR	7	192	6
SCL	7	192	6	96	96	4
TAP	7	288	3
TAP	7	336	3
HLD	8	0	3	144
HLD	8	96	1	144
HLD	8	192	5	336
TAP	8	288	7
TAP	8	320	0
TAP	8	352	1
HLD	9	0	2	144
STR	9	192	3
SCL	9	192	3	96	156	4
STR	9	192	4
SUL	9	192	4	96	156	1
TAP	10	192	3
HLD	10	192	4	96
TAP	10	240	5
TAP	10	264	6
TAP	10	288	7
TAP	10	312	0
TAP	10	336	1
TAP	10	360	2
TAP	11	0	3
TAP	11	0	6
STR	11	48	5
SI_	11	48	5	96	48	0
TAP	11	72	4
TAP	11	96	5
STR	11	144	1
SI_	11	144	1	96	48	6
STR	11	240	3
SI_	11	240	3	96	48	7
STR	11	336	0
SI_	11	336	0	96	48	4
STR	12	48	5
SI_	12	48	5	96	48	2
TAP	12	144	1
TAP	12	240	3
TAP	12	240	7
TAP	12	288	6
TAP	12	336	5
TAP	13	0	1
TAP	13	0	4
STR	13	48	2
SI_	13	48	2	96	48	7
TAP	13	72	3
TAP	13	96	2
STR	13	144	6
SI_	13	144	6	96	48	1
STR	13	240	4
SI_	13	240	4	96	48	0
STR	13	336	7
SI_	13	336	7	96	48	3
STR	14	48	2
SI_	14	48	2	96	48	5
STR	14	144	6
SI_	14	144	6	96	48	3
STR	14	240	1
SCL	14	240	1	96	96	6
HLD	14	336	5	96
TAP	15	144	3
HLD	15	192	3	144
TAP	15	240	2
TAP	15	288	1
STR	15	336	0
SCL	15	336	0	96	96	5
STR	16	48	5
SCL	16	48	5	96	96	2
TAP	16	144	2
TAP	16	240	1
TAP	16	288	1
HLD	17	0	0	96
HLD	17	0	2	96
TAP	17	144	5
TAP	17	144	7
STR	17	240	4
SXR	17	240	4	96	144	7
TAP	17	240	6
TAP	17	288	3
TAP	17	336	2
TAP	17	336	4
BRK	18	96	0
HLD	18	192	3	96
TAP	18	192	4
TAP	18	240	2
TAP	18	264	1
TAP	18	288	0
TAP	18	312	7
TAP	18	336	6
TAP	18	360	5
TAP	19	0	1
TAP	19	0	4
STR	19	48	2
SI_	19	48	2	96	48	7
TAP	19	72	3
TAP	19	96	2
STR	19	144	6
SI_	19	144	6	96	48	1
STR	19	240	4
SI_	19	240	4	96	48	0
STR	19	336	7
SI_	19	336	7	96	48	3
STR	20	48	2
SI_	20	48	2	96	48	5
TAP	20	144	6
TAP	20	240	0
TAP	20	240	4
TAP	20	288	1
TAP	20	336	2
TAP	21	0	3
TAP	21	0	6
STR	21	48	5
SI_	21	48	5	96	48	0
TAP	21	72	4
TAP	21	96	5
STR	21	144	1
SI_	21	144	1	96	48	6
STR	21	240	3
SI_	21	240	3	96	48	7
STR	21	336	0
SI_	21	336	0	96	48	4
STR	22	48	5
SI_	22	48	5	96	48	2
TAP	22	144	1
TAP	22	240	0
TAP	22	240	6
TAP	22	336	1
TAP	22	336	7
TAP	22	360	2
TAP	22	360	6
TAP	23	0	3
STR	23	0	5
SXR	23	0	5	96	144	6
TAP	23	96	7
TAP	23	192	0
TAP	23	240	0
TAP	23	288	1
STR	23	336	2
SXL	23	336	2	96	144	1
TAP	24	48	0
TAP	24	96	0
TAP	24	192	7
TAP	24	240	7
TAP	24	288	6
STR	24	336	5
SCR	24	336	5	96	120	2
TAP	25	48	3
TAP	25	96	3
TAP	25	144	3
TAP	25	192	3
TAP	25	216	4
TAP	25	240	2
TAP	25	264	5
TAP	25	288	1
TAP	25	312	6
TAP	25	336	0
TAP	25	360	7
TAP	26	0	1
TAP	26	24	2
TAP	26	48	3
TAP	26	72	4
TAP	26	96	0
TAP	26	120	1
TAP	26	144	2
TAP	26	168	3
STR	26	192	0
SI_	26	192	0	96	48	5
STR	26	192	4
SI_	26	192	4	96	48	1
TAP	26	216	1
TAP	26	216	5
TAP	26	240	2
TAP	26	240	6
TAP	26	264	3
TAP	26	264	7
BRK	27	96	3
BRK	27	96	7
TAP	27	192	5
TAP	27	240	5
TAP	27	288	4
HLD	27	336	6	96
HLD	28	48	4	96
STR	28	144	2
SCR	28	144	2	96	72	5
TAP	28	240	1
TAP	28	288	1
TAP	29	0	3
TAP	29	96	1
TAP	29	96	4
TAP	29	192	2
TAP	29	240	2
TAP	29	288	3
HLD	29	336	1	96
TAP	30	48	3
HLD	30	96	3	96
TAP	30	192	2
TAP	30	216	4
TAP	30	240	2
TAP	30	264	4
TAP	30	288	3
TAP	30	312	5
TAP	30	336	3
TAP	30	360	5
STR	31	0	4
SI_	31	0	4	96	48	0
BRK	31	96	3
BRK	31	96	4
TAP	31	192	1
TAP	31	240	2
TAP	31	288	7
TAP	31	336	6
TAP	32	0	1
TAP	32	24	4
TAP	32	48	2
TAP	32	72	3
TAP	32	96	1
TAP	32	120	4
TAP	32	144	2
TAP	32	168	3
TAP	32	192	1
TAP	32	216	4
TAP	32	240	2
TAP	32	264	3
TAP	32	288	1
TAP	32	312	4
TAP	32	336	0
TAP	32	360	5
HLD	33	0	1	96
TAP	33	48	0
HLD	33	96	0	96
TAP	33	144	2
HLD	33	192	2	96
TAP	33	240	3
HLD	33	288	3	96
TAP	33	336	7
STR	34	0	7
SI_	34	0	7	96	48	3
TAP	34	48	6
TAP	34	72	0
TAP	34	96	7
TAP	34	192	0
TAP	34	216	1
TAP	34	240	4
TAP	34	264	5
STR	34	288	1
SI_	34	288	1	96	48	5
TAP	34	312	2
TAP	34	336	5
TAP	34	360	6
BRK	35	96	3
BRK	35	96	7
TAP	35	192	2
TAP	35	240	2
TAP	35	288	3
HLD	35	336	1	96
HLD	36	48	3	96
STR	36	144	5
SCL	36	144	5	96	72	2
TAP	36	240	6
TAP	36	288	6
TAP	37	0	4
TAP	37	96	3
TAP	37	96	6
TAP	37	192	5
TAP	37	240	5
TAP	37	288	4
HLD	37	336	6	96
TAP	38	48	4
HLD	38	96	4	96
TAP	38	192	5
TAP	38	216	3
TAP	38	240	5
TAP	38	264	3
TAP	38	288	4
TAP	38	312	2
TAP	38	336	4
TAP	38	360	2
STR	39	0	3
SI_	39	0	3	96	48	7
BRK	39	96	3
BRK	39	96	4
TAP	39	192	6
TAP	39	240	5
TAP	39	288	0
TAP	39	336	1
TAP	40	0	6
TAP	40	24	3
TAP	40	48	5
TAP	40	72	4
TAP	40	96	6
TAP	40	120	3
TAP	40	144	5
TAP	40	168	4
TAP	40	192	6
TAP	40	216	3
TAP	40	240	5
TAP	40	264	4
TAP	40	288	6
TAP	40	312	3
TAP	40	336	7
TAP	40	360	2
HLD	41	0	6	96
TAP	41	48	7
HLD	41	96	7	96
TAP	41	144	5
HLD	41	192	5	96
TAP	41	240	0
TAP	41	288	0
TAP	41	312	7
TAP	41	336	1
TAP	41	360	6
TAP	42	0	0
TAP	42	24	7
TAP	42	48	1
TAP	42	72	6
TAP	42	96	0
TAP	42	120	7
TAP	42	144	1
TAP	42	168	6
TAP	42	192	0
TAP	42	208	1
TAP	42	224	2
TAP	42	240	3
TAP	42	256	5
TAP	42	272	6
TAP	42	288	7
TAP	42	304	0
TAP	42	320	4
TAP	42	336	3
TAP	42	352	2
TAP	42	368	1
STR	43	0	0
SF_	43	0	0	96	48	4
BRK	43	96	0
TAP	43	240	4
TAP	43	288	3
TAP	43	336	2
HLD	44	0	1	48
TAP	44	48	3
HLD	44	72	2	48
TAP	44	120	4
HLD	44	144	3	48
TAP	44	192	5
HLD	44	216	4	48
TAP	44	264	6
TAP	44	288	4
TAP	44	312	5
TAP	44	336	4
TAP	44	360	5
STR	45	0	4
SXR	45	0	4	96	192	1
TAP	45	96	7
TAP	45	240	6
TAP	45	288	7
STR	46	0	6
SCL	46	0	6	96	96	2
TAP	46	96	0
HLD	46	192	1	96
HLD	46	288	2	96
STR	47	0	3
SCL	47	0	3	96	96	0
STR	47	144	6
SCL	47	144	6	96	96	3
HLD	47	288	7	96
STR	48	0	4
SCR	48	0	4	96	96	7
STR	48	144	1
SCR	48	144	1	96	96	4
STR	48	288	7
SSL	48	288	7	96	144	3
SSR	48	288	7	96	144	3
TAP	49	0	7
TAP	49	288	5
TAP	49	312	1
TAP	49	336	4
TAP	49	360	2
HLD	50	0	3	96
TAP	50	96	0
TAP	50	120	1
TAP	50	144	2
TAP	50	168	3
TAP	50	192	0
TAP	50	216	7
TAP	50	240	6
TAP	50	264	5
TAP	50	288	0
TAP	50	312	1
TAP	50	336	2
TAP	50	360	3
STR	51	0	4
SF_	51	0	4	96	48	0
BRK	51	96	4
TAP	51	240	3
TAP	51	288	4
TAP	51	336	5
HLD	52	0	6	48
TAP	52	48	4
HLD	52	72	5	48
TAP	52	120	3
HLD	52	144	4	48
TAP	52	192	2
HLD	52	216	3	48
TAP	52	264	1
TAP	52	288	3
TAP	52	312	2
TAP	52	336	3
TAP	52	360	2
TAP	53	0	1
TAP	53	0	4
TAP	53	96	2
TAP	53	120	3
TAP	53	144	2
TAP	53	168	3
TAP	53	192	1
TAP	53	216	4
TAP	53	240	1
TAP	53	264	4
TAP	53	288	0
TAP	53	312	5
TAP	53	336	0
TAP	53	360	5
TAP	54	0	6
TAP	54	0	7
TAP	54	96	1
TAP	54	120	0
TAP	54	144	1
TAP	54	168	0
TAP	54	192	2
TAP	54	216	7
TAP	54	240	2
TAP	54	264	7
TAP	54	288	3
TAP	54	312	6
TAP	54	336	3
TAP	54	360	6
TAP	55	0	4
TAP	55	0	5
TAP	55	96	3
TAP	55	96	4
TAP	55	144	3
TAP	55	192	3
TAP	55	240	3
TAP	55	288	3
TAP	55	336	3
TAP	55	360	4
TAP	56	0	5
TAP	56	48	5
TAP	56	96	5
TAP	56	144	5
TAP	56	168	6
TAP	56	192	7
TAP	56	240	7
TAP	56	288	7
TAP	56	336	7
TAP	56	360	0
TAP	57	0	1
TAP	57	48	1
TAP	57	72	2
TAP	57	96	3
TAP	57	96	5
TAP	57	120	6
TAP	57	144	7
TAP	57	168	0
TAP	57	192	1
TAP	57	216	2
TAP	57	240	3
TAP	57	264	4
STR	57	288	2
SI_	57	288	2	96	48	7
STR	57	288	5
SI_	57	288	5	96	48	0
BRK	58	96	1
BRK	58	96	6
TAP	58	108	2
TAP	58	120	3
TAP	58	132	4
TAP	58	144	5
TAP	58	156	6
TAP	58	168	7
TAP	58	180	0
STR	58	192	1
SI_	58	192	1	96	36	5
TAP	58	204	2
TAP	58	216	3
TAP	58	228	4
TAP	58	240	5
TAP	58	252	6
TAP	58	264	7
TAP	58	276	0
TAP	58	288	1
TAP	59	0	3
TAP	59	0	4
TAP	59	96	4
TAP	59	192	5
TAP	59	288	5
HLD	60	0	4	96
HLD	60	0	5	96
TAP	60	192	4
TAP	60	192	5
TAP	60	256	3
TAP	60	256	4
TAP	60	320	2
TAP	60	320	3
TAP	61	0	1
TAP	61	0	4
TAP	61	96	2
TAP	61	192	2
TAP	61	288	1
HLD	62	0	1	336
TAP	62	96	3
BRK	62	192	2
BRK	62	264	4
BRK	62	336	6
TAP	63	0	3
TAP	63	0	7
TAP	63	96	3
TAP	63	192	2
TAP	63	288	2
HLD	64	0	2	96
HLD	64	0	3	96
TAP	64	192	1
TAP	64	192	3
TAP	64	256	2
TAP	64	256	4
TAP	64	320	3
TAP	64	320	5
STR	65	0	4
SXR	65	0	4	96	192	1
TAP	65	0	6
TAP	65	96	6
TAP	65	144	6
TAP	65	192	7
TAP	65	240	7
STR	65	288	0
SXR	65	288	0	96	192	5
TAP	65	336	0
TAP	66	0	1
TAP	66	48	1
TAP	66	96	2
TAP	66	144	2
BRK	66	192	3
BRK	66	264	2
BRK	66	264	6
BRK	66	336	1
BRK	66	336	5
BRK	67	0	1
BRK	67	0	5
TAP	67	96	2
TAP	67	96	4
TAP	67	192	1
TAP	67	192	3
HLD	67	240	1	48
HLD	67	240	3	48
HLD	67	336	4	96
HLD	67	336	6	96
TAP	68	96	2
TAP	68	120	3
TAP	68	144	1
TAP	68	168	5
TAP	68	192	4
TAP	68	216	6
TAP	68	240	2
TAP	68	264	3
TAP	68	288	0
TAP	68	312	5
TAP	68	336	4
TAP	68	360	7
TAP	69	0	1
TAP	69	24	3
TAP	69	48	1
TAP	69	72	3
TAP	69	96	1
TAP	69	144	6
TAP	69	168	4
TAP	69	192	6
TAP	69	216	4
TAP	69	240	6
TAP	69	288	1
TAP	69	304	2
TAP	69	320	3
TAP	69	336	7
TAP	69	352	6
TAP	69	368	5
HLD	70	0	0	96
TAP	70	0	4
TAP	70	96	2
TAP	70	120	3
TAP	70	144	4
TAP	70	168	5
TAP	70	192	1
TAP	70	216	2
TAP	70	240	3
TAP	70	264	4
TAP	70	288	0
TAP	70	312	1
TAP	70	336	2
TAP	70	360	3
TAP	71	0	0
TAP	71	0	4
TAP	71	48	0
TAP	71	48	4
TAP	71	96	1
TAP	71	96	5
TAP	71	144	1
TAP	71	144	5
TAP	71	192	2
TAP	71	192	6
TAP	71	240	2
TAP	71	240	6
TAP	71	288	3
TAP	71	288	7
TAP	71	336	3
TAP	71	336	7
TAP	72	0	0
TAP	72	0	4
TAP	72	48	3
TAP	72	48	7
TAP	72	96	2
TAP	72	96	6
TAP	72	144	1
TAP	72	144	5
TAP	72	192	0
TAP	72	192	4
TAP	72	240	1
TAP	72	240	3
TAP	72	288	2
TAP	72	288	4
TAP	72	336	3
TAP	72	336	5
TAP	73	0	4
TAP	73	0	6
TAP	73	48	1
TAP	73	60	2
TAP	73	72	3
TAP	73	84	4
TAP	73	96	5
TAP	73	144	6
TAP	73	156	5
TAP	73	168	4
TAP	73	180	3
TAP	73	192	2
TAP	73	240	0
TAP	73	252	1
TAP	73	264	2
TAP	73	276	3
TAP	73	288	4
TAP	73	336	7
TAP	73	348	6
TAP	73	360	5
TAP	73	372	4
TAP	74	0	2
TAP	74	0	3
TAP	74	96	0
TAP	74	120	7
TAP	74	144	1
TAP	74	168	6
TAP	74	192	2
TAP	74	216	5
TAP	74	240	3
TAP	74	264	4
TAP	74	288	2
TAP	74	304	1
HLD	74	320	0	160
TAP	74	336	5
TAP	74	352	6
HLD	74	368	7	112
STR	75	192	0
SSL	75	192	0	96	24	4
STR	75	192	7
SSR	75	192	7	96	24	3
BRK	75	288	0
BRK	75	288	7
TAP	76	0	1
TAP	76	0	6
STR	76	48	5
SI_	76	48	5	96	48	0
TAP	76	72	4
TAP	76	96	6
STR	76	144	1
SI_	76	144	1	96	48	6
TAP	76	144	5
TAP	76	240	1
STR	76	240	3
SI_	76	240	3	96	48	7
STR	76	336	0
SI_	76	336	0	96	48	4
TAP	76	336	3
TAP	77	48	0
STR	77	48	5
SI_	77	48	5	96	48	2
TAP	77	144	1
TAP	77	144	5
TAP	77	240	3
TAP	77	240	6
TAP	77	288	7
TAP	77	312	6
TAP	77	336	5
TAP	77	360	4
TAP	78	0	1
TAP	78	0	3
STR	78	48	2
SI_	78	48	2	96	48	7
TAP	78	72	3
TAP	78	96	1
TAP	78	144	2
STR	78	144	6
SI_	78	144	6	96	48	1
STR	78	240	4
SI_	78	240	4	96	48	0
TAP	78	240	6
TAP	78	336	4
STR	78	336	7
SI_	78	336	7	96	48	3
STR	79	48	2
SI_	79	48	2	96	48	5
TAP	79	48	7
TAP	79	144	2
STR	79	144	6
SI_	79	144	6	96	48	3
STR	79	240	2
SCL	79	240	2	96	96	5
TAP	79	240	6
TAP	79	336	2
HLD	79	336	4	96
TAP	80	144	4
TAP	80	168	3
HLD	80	192	4	144
TAP	80	240	5
TAP	80	288	6
STR	80	336	7
SCR	80	336	7	96	96	2
STR	81	48	2
SUR	81	48	2	96	144	3
TAP	81	144	4
TAP	81	240	4
TAP	81	288	5
TAP	81	336	6
HLD	82	0	5	96
HLD	82	0	7	96
TAP	82	144	0
TAP	82	144	2
TAP	82	240	1
STR	82	240	3
SXL	82	240	3	96	144	0
TAP	82	288	4
TAP	82	336	3
TAP	82	336	5
BRK	83	96	7
HLD	83	192	3	96
TAP	83	192	4
TAP	83	240	2
TAP	83	264	1
TAP	83	288	0
TAP	83	312	7
TAP	83	336	6
TAP	83	360	5
TAP	84	0	1
TAP	84	0	4
STR	84	48	2
SI_	84	48	2	96	48	7
TAP	84	72	3
TAP	84	96	1
TAP	84	144	2
STR	84	144	6
SI_	84	144	6	96	48	1
STR	84	240	4
SI_	84	240	4	96	48	0
TAP	84	240	6
TAP	84	336	4
STR	84	336	7
SI_	84	336	7	96	48	3
STR	85	48	2
SI_	85	48	2	96	48	5
TAP	85	48	7
TAP	85	144	2
TAP	85	144	6
TAP	85	240	1
TAP	85	240	4
TAP	85	288	0
TAP	85	312	1
TAP	85	336	2
TAP	85	360	3
TAP	86	0	4
TAP	86	0	6
STR	86	48	5
SI_	86	48	5	96	48	0
TAP	86	72	4
TAP	86	96	6
STR	86	144	1
SI_	86	144	1	96	48	6
TAP	86	144	5
TAP	86	240	1
STR	86	240	3
SI_	86	240	3	96	48	7
STR	86	336	0
SI_	86	336	0	96	48	4
TAP	86	336	3
TAP	87	48	0
STR	87	48	5
SI_	87	48	5	96	48	2
TAP	87	144	1
TAP	87	144	5
TAP	87	240	0
TAP	87	240	6
TAP	87	336	1
TAP	87	336	7
TAP	87	360	2
TAP	87	360	6
TAP	88	0	3
STR	88	0	5
SXL	88	0	5	96	144	4
TAP	88	96	7
TAP	88	192	2
TAP	88	240	2
TAP	88	288	1
STR	88	336	0
SXL	88	336	0	96	144	7
TAP	89	48	6
TAP	89	96	6
TAP	89	192	3
TAP	89	240	3
TAP	89	288	4
STR	89	336	5
SCR	89	336	5	96	120	2
TAP	90	48	3
TAP	90	96	3
TAP	90	144	3
TAP	90	192	3
TAP	90	216	4
TAP	90	240	2
TAP	90	264	5
TAP	90	288	1
TAP	90	312	6
TAP	90	336	0
TAP	90	360	7
TAP	91	0	1
TAP	91	24	2
TAP	91	48	3
TAP	91	72	4
TAP	91	96	0
TAP	91	120	1
TAP	91	144	2
TAP	91	168	3
STR	91	192	0
SI_	91	192	0	96	48	5
STR	91	192	4
SI_	91	192	4	96	48	1
TAP	91	216	1
TAP	91	216	5
TAP	91	240	2
TAP	91	240	6
TAP	91	264	3
TAP	91	264	7
BRK	92	0	2
BRK	92	0	6
STR	92	48	5
SI_	92	48	5	96	48	1
TAP	92	72	4
TAP	92	96	6
STR	92	144	4
SI_	92	144	4	96	48	7
TAP	92	144	5
STR	92	240	3
SI_	92	240	3	96	48	0
TAP	92	240	4
STR	92	336	2
SI_	92	336	2	96	48	6
TAP	92	336	3
TAP	93	48	2
STR	93	48	4
SI_	93	48	4	96	48	0
TAP	93	144	4
STR	93	144	7
SI_	93	144	7	96	48	3
BRK	93	240	2
BRK	93	240	7
TAP	93	288	0
TAP	93	312	1
TAP	93	336	2
TAP	93	360	3
TAP	94	0	4
TAP	94	0	5
STR	94	48	2
SI_	94	48	2	96	48	6
TAP	94	72	3
TAP	94	96	1
TAP	94	144	2
STR	94	144	3
SI_	94	144	3	96	48	0
TAP	94	240	3
STR	94	240	4
SI_	94	240	4	96	48	7
TAP	94	336	4
STR	94	336	5
SI_	94	336	5	96	48	1
STR	95	48	3
SI_	95	48	3	96	48	7
TAP	95	48	5
STR	95	144	0
SI_	95	144	0	96	48	4
TAP	95	144	3
BRK	95	240	0
BST	95	240	5
SCR	95	240	5	96	96	3
HLD	95	336	1	96
BRK	95	336	5
TAP	96	144	0
TAP	96	168	7
HLD	96	192	0	144
TAP	96	240	1
TAP	96	288	2
STR	96	336	3
SCR	96	336	3	96	96	6
STR	97	48	6
SUR	97	48	6	96	144	7
TAP	97	144	1
TAP	97	240	0
TAP	97	288	0
BRK	98	0	0
BRK	98	0	7
TAP	98	12	1
TAP	98	12	6
TAP	98	24	2
TAP	98	24	5
HLD	98	36	3	60
HLD	98	36	4	60
BRK	98	144	0
BRK	98	144	7
TAP	98	156	1
TAP	98	156	6
TAP	98	168	2
TAP	98	168	5
HLD	98	180	3	108
HLD	98	180	4	108
BRK	98	336	0
BRK	98	336	7
TAP	98	348	1
TAP	98	348	6
TAP	98	360	2
TAP	98	360	5
STR	98	372	3
SXR	98	372	3	96	108	0
STR	98	372	4
SXL	98	372	4	96	108	7
TAP	99	288	2
TAP	99	312	5
TAP	99	336	1
TAP	99	360	6
BRK	100	0	0
BRK	100	0	7
TAP	100	96	2
TAP	100	120	3
TAP	100	144	2
TAP	100	168	1
TAP	100	192	2
TAP	100	216	3
TAP	100	240	2
TAP	100	264	1
TAP	100	288	2
TAP	100	312	3
TAP	100	336	2
TAP	100	360	1
TAP	101	0	2
TAP	101	24	3
TAP	101	48	2
TAP	101	72	1
TAP	101	96	2
TAP	101	120	3
TAP	101	144	2
TAP	101	168	1
TAP	101	192	2
TAP	101	216	3
TAP	101	240	2
TAP	101	264	1
TAP	101	288	2
TAP	101	312	3
TAP	101	336	4
TAP	101	360	5
TAP	102	0	6
TAP	102	0	7
TAP	102	48	5
TAP	102	72	4
TAP	102	96	5
TAP	102	120	6
TAP	102	144	5
TAP	102	168	4
TAP	102	192	5
TAP	102	216	6
TAP	102	240	5
TAP	102	264	4
TAP	102	288	5
TAP	102	312	6
BST	102	336	5
SI_	102	336	5	96	48	0
BST	103	48	3
SI_	103	48	3	96	48	6
BRK	103	48	5
BRK	103	144	3
BST	103	144	4
SI_	103	144	4	96	48	0
BRK	103	240	2
BRK	103	240	4
TAP	103	336	1
TAP	103	336	7
TAP	103	360	2
TAP	103	360	6
TAP	104	0	3
STR	104	0	5
SXL	104	0	5	96	144	4
TAP	104	96	7
TAP	104	192	2
TAP	104	240	2
TAP	104	288	1
STR	104	336	0
SXL	104	336	0	96	144	7
TAP	105	48	6
TAP	105	96	6
TAP	105	192	3
TAP	105	240	3
TAP	105	288	4
STR	105	336	5
SCR	105	336	5	96	96	2
TAP	106	48	3
TAP	106	96	3
TAP	106	144	3
TAP	106	192	3
TAP	106	216	4
TAP	106	240	2
TAP	106	264	5
TAP	106	288	1
TAP	106	312	6
TAP	106	336	0
TAP	106	360	7
TAP	107	0	1
TAP	107	24	2
TAP	107	48	3
TAP	107	72	4
TAP	107	96	0
TAP	107	120	1
TAP	107	144	2
TAP	107	168	3
STR	107	192	0
SXR	107	192	0	96	120	5
STR	107	192	4
SXR	107	192	4	96	120	1
TAP	107	216	1
TAP	107	216	5
TAP	107	240	2
TAP	107	240	6
TAP	107	264	3
TAP	107	264	7
HLD	108	96	2	768
HLD	108	96	6	768

T_REC_TAP	738
T_REC_BRK	45
T_REC_XTP	0
T_REC_HLD	66
T_REC_XHO	0
T_REC_STR	111
T_REC_BST	4
T_REC_XST	0
T_REC_TTP	0
T_REC_THO	0
T_REC_SLD	116
T_REC_ALL	1080
T_NUM_TAP	849
T_NUM_BRK	49
T_NUM_HLD	66
T_NUM_SLD	116
T_NUM_ALL	1080
T_JUDGE_TAP	898
T_JUDGE_HLD	267
T_JUDGE_SLD	116
T_JUDGE_ALL	1281
TTM_EACHPAIRS	157
TTM_SCR_TAP	424500
TTM_SCR_BRK	127400
TTM_SCR_HLD	66000
TTM_SCR_SLD	174000
TTM_SCR_ALL	791900
TTM_SCR_S	763400
TTM_SCR_SS	787000
TTM_RAT_ACV	10062

