VERSION	0.00.00	1.03.00
FES_MODE	0
BPM_DEF	 95.500	191.000	191.000	 61.000
MET_DEF	4	4
RESOLUTION	384
CLK_DEF	384
COMPATIBLE_CODE	MA2

BPM	0	0	 95.500
BPM	8	96	 87.000
BPM	8	288	 78.000
BPM	9	96	 69.000
BPM	9	288	 61.000
BPM	10	0	 63.000
BPM	10	96	191.000
MET	0	0	4	4

STR	2	0	3
SCL	2	0	3	96	192	0
STR	2	0	4
SCR	2	0	4	96	192	7
TAP	3	0	6
TAP	3	96	5
TAP	3	192	4
TAP	3	288	3
STR	4	0	2
SCR	4	0	2	96	192	5
STR	5	0	6
SCR	5	0	6	96	192	1
HLD	6	0	2	192
TAP	6	192	3
HLD	7	0	4	96
HLD	7	0	5	96
TAP	7	192	4
TAP	7	192	5
TAP	7	288	3
TAP	7	288	4
HLD	8	0	2	96
HLD	8	96	3	96
HLD	8	192	4	96
STR	8	288	5
SCR	8	288	5	96	384	4
HLD	9	0	2	192
TAP	10	192	3
TAP	10	192	5
TAP	10	288	2
TAP	10	288	4
BRK	11	0	0
BRK	11	0	7
TAP	11	96	3
TAP	11	96	6
TAP	11	144	3
TAP	11	144	6
TAP	11	240	2
TAP	11	240	4
STR	11	336	1
SI_	11	336	1	96	48	4
STR	12	48	0
SI_	12	48	0	96	48	5
STR	12	144	1
SI_	12	144	1	96	48	5
TAP	12	240	7
TAP	12	288	7
TAP	13	0	4
TAP	13	0	6
TAP	13	96	1
TAP	13	96	3
TAP	13	144	1
TAP	13	144	3
TAP	13	240	2
TAP	13	240	4
STR	13	336	6
SI_	13	336	6	96	48	3
STR	14	48	7
SI_	14	48	7	96	48	2
STR	14	144	6
SI_	14	144	6	96	48	2
TAP	14	240	1
HLD	14	336	0	144
TAP	15	96	2
TAP	15	192	5
TAP	15	240	4
TAP	15	288	3
HLD	15	336	2	96
TAP	16	48	3
TAP	16	144	3
TAP	16	144	4
TAP	16	240	5
TAP	16	288	4
TAP	16	288	6
TAP	17	0	0
TAP	17	0	7
TAP	17	96	2
TAP	17	96	3
TAP	17	144	1
TAP	17	144	4
TAP	17	240	5
TAP	17	288	5
HLD	17	336	4	96
HLD	17	336	6	96
TAP	18	96	0
TAP	18	96	7
TAP	18	192	3
TAP	18	192	4
TAP	18	240	3
TAP	18	240	4
TAP	18	288	2
TAP	18	288	5
BRK	19	0	1
BRK	19	0	3
TAP	19	96	0
TAP	19	96	5
TAP	19	144	0
TAP	19	144	5
TAP	19	240	1
TAP	19	240	7
STR	19	336	2
SI_	19	336	2	96	48	7
STR	20	48	3
SI_	20	48	3	96	48	6
STR	20	144	2
SI_	20	144	2	96	48	6
TAP	20	240	4
TAP	20	288	4
TAP	21	0	0
TAP	21	0	5
TAP	21	96	2
TAP	21	96	7
TAP	21	144	2
TAP	21	144	7
TAP	21	240	0
TAP	21	240	6
STR	21	336	5
SI_	21	336	5	96	48	0
STR	22	48	4
SI_	22	48	4	96	48	1
STR	22	144	5
SI_	22	144	5	96	48	1
TAP	22	240	2
TAP	22	336	3
HLD	23	0	3	96
TAP	23	96	1
TAP	23	192	5
TAP	23	240	4
TAP	23	288	3
HLD	23	336	2	96
TAP	24	48	0
TAP	24	96	0
TAP	24	192	6
TAP	24	240	5
TAP	24	288	4
HLD	24	336	3	96
TAP	25	48	1
TAP	25	96	1
TAP	25	192	5
TAP	25	240	5
TAP	25	288	4
TAP	25	288	6
TAP	26	0	1
TAP	26	48	2
TAP	26	96	3
TAP	26	144	4
TAP	26	192	5
TAP	26	240	6
BRK	26	288	0
BRK	26	288	7
TAP	27	0	4
TAP	27	0	5
TAP	27	96	3
HLD	27	96	6	96
HLD	27	192	4	96
TAP	27	288	5
HLD	27	336	5	96
HLD	28	48	6	96
HLD	28	144	7	96
TAP	28	240	0
TAP	28	288	0
TAP	28	288	7
TAP	29	0	2
TAP	29	0	3
HLD	29	96	1	96
TAP	29	96	4
HLD	29	192	3	96
TAP	29	288	2
HLD	29	336	2	96
HLD	30	48	1	96
HLD	30	144	0	96
TAP	30	240	7
TAP	30	288	0
TAP	30	288	7
TAP	31	0	4
TAP	31	0	5
TAP	31	96	3
TAP	31	96	6
TAP	31	192	5
TAP	31	240	5
TAP	31	288	3
TAP	31	336	3
TAP	32	0	5
TAP	32	48	4
TAP	32	96	5
TAP	32	144	6
TAP	32	192	5
TAP	32	240	4
TAP	32	288	5
TAP	32	336	6
HLD	33	0	5	48
TAP	33	96	4
TAP	33	96	6
HLD	33	192	2	48
TAP	33	288	1
TAP	33	288	3
TAP	34	0	5
TAP	34	48	4
TAP	34	96	3
TAP	34	144	2
TAP	34	192	6
TAP	34	240	7
TAP	34	288	0
TAP	34	336	1
TAP	35	0	2
TAP	35	0	3
HLD	35	96	1	96
TAP	35	96	4
HLD	35	192	3	96
TAP	35	288	2
HLD	35	336	2	96
HLD	36	48	1	96
HLD	36	144	0	96
TAP	36	240	7
TAP	36	288	0
TAP	36	288	7
TAP	37	0	4
TAP	37	0	5
TAP	37	96	3
HLD	37	96	6	96
HLD	37	192	4	96
TAP	37	288	5
HLD	37	336	5	96
HLD	38	48	6	96
HLD	38	144	7	96
TAP	38	240	0
TAP	38	288	0
TAP	38	288	7
TAP	39	0	2
TAP	39	0	3
TAP	39	96	1
TAP	39	96	4
TAP	39	192	2
TAP	39	240	2
TAP	39	288	4
TAP	39	336	4
TAP	40	0	2
TAP	40	48	3
TAP	40	96	2
TAP	40	144	1
TAP	40	192	2
TAP	40	240	3
TAP	40	288	2
TAP	40	336	1
HLD	41	0	2	48
TAP	41	96	1
TAP	41	96	3
HLD	41	192	5	48
TAP	41	288	4
TAP	41	288	6
TAP	42	0	1
TAP	42	48	1
TAP	42	96	6
TAP	42	144	6
TAP	42	192	0
TAP	42	216	7
TAP	42	240	0
TAP	42	264	7
TAP	42	288	0
TAP	42	312	7
TAP	42	336	0
TAP	42	360	7
BST	43	0	0
SI_	43	0	0	96	48	4
TAP	43	240	3
TAP	43	240	5
TAP	43	288	3
TAP	43	288	5
STR	44	0	6
SXR	44	0	6	96	192	3
TAP	44	192	2
TAP	44	288	2
STR	45	0	1
SXR	45	0	1	96	192	4
TAP	45	192	5
TAP	45	288	5
STR	46	0	5
SCL	46	0	5	96	96	2
STR	46	192	1
SUR	46	192	1	96	96	6
STR	47	0	7
SXR	47	0	7	96	192	2
TAP	48	0	0
TAP	48	96	0
TAP	48	192	1
TAP	48	288	2
STR	49	0	2
SXR	49	0	2	96	192	7
TAP	49	288	4
STR	50	0	4
SCR	50	0	4	96	96	7
STR	50	96	1
SXR	50	96	1	96	192	4
BRK	51	0	5
TAP	51	240	0
TAP	51	240	7
TAP	51	288	0
TAP	51	288	7
STR	52	0	5
SXL	52	0	5	96	192	0
TAP	52	192	1
TAP	52	288	1
STR	53	0	2
SXL	53	0	2	96	192	7
TAP	53	192	6
TAP	53	288	6
STR	54	0	5
SXR	54	0	5	96	192	0
TAP	54	192	1
TAP	54	288	1
TAP	55	0	1
TAP	55	96	0
TAP	55	96	1
TAP	55	192	7
TAP	55	240	7
TAP	55	288	0
TAP	55	288	6
TAP	56	0	5
TAP	56	96	4
TAP	56	96	5
TAP	56	192	3
TAP	56	240	3
TAP	56	288	2
TAP	56	288	4
TAP	57	0	1
TAP	57	96	0
TAP	57	96	1
TAP	57	192	0
TAP	57	192	7
TAP	57	240	0
TAP	57	240	7
TAP	57	288	0
TAP	57	288	7
TAP	58	0	2
STR	58	0	5
SCR	58	0	5	96	144	3
BRK	58	96	4
HLD	59	0	2	576
TAP	59	96	3
TAP	59	192	3
TAP	59	288	3
TAP	60	0	4
TAP	60	96	3
TAP	60	192	4
TAP	60	288	3
TAP	60	288	4
HLD	61	0	5	480
TAP	61	96	4
TAP	61	192	4
TAP	61	288	4
TAP	62	0	3
TAP	62	96	4
TAP	62	192	4
TAP	62	192	5
TAP	62	264	3
TAP	62	264	4
TAP	62	336	2
TAP	62	336	3
HLD	63	0	2	768
TAP	63	0	3
TAP	63	96	3
TAP	63	192	3
TAP	63	288	3
TAP	64	0	4
TAP	64	96	3
TAP	64	192	4
TAP	64	288	5
HLD	65	0	5	384
TAP	65	96	4
TAP	65	192	4
TAP	65	288	4
STR	66	0	6
SLL	66	0	6	96	120	0
TAP	66	288	1
TAP	66	288	7
HLD	67	0	6	72
HLD	67	72	5	72
HLD	67	144	4	72
HLD	67	216	3	72
TAP	67	288	2
TAP	68	0	3
TAP	68	0	4
HLD	68	96	2	72
HLD	68	168	3	72
HLD	68	240	4	72
TAP	68	312	5
TAP	69	0	2
TAP	69	48	2
TAP	69	96	1
TAP	69	96	3
TAP	69	192	5
TAP	69	240	5
TAP	69	288	4
TAP	69	288	6
TAP	70	0	0
TAP	70	0	7
HLD	70	96	0	48
HLD	70	96	7	48
HLD	70	192	1	48
HLD	70	192	6	48
HLD	70	288	2	48
HLD	70	288	5	48
BRK	71	0	3
BRK	71	0	4
TAP	71	96	5
TAP	71	144	5
TAP	71	192	4
TAP	71	240	4
TAP	71	288	5
TAP	71	336	4
TAP	71	336	6
TAP	72	48	2
TAP	72	96	2
TAP	72	144	3
TAP	72	192	3
TAP	72	240	2
TAP	72	288	1
TAP	72	288	3
TAP	73	0	5
TAP	73	48	5
TAP	73	96	2
TAP	73	144	2
TAP	73	192	6
TAP	73	240	6
TAP	73	288	1
TAP	73	336	1
TAP	74	0	7
TAP	74	24	0
TAP	74	48	7
TAP	74	72	0
TAP	74	96	7
TAP	74	120	0
TAP	74	144	7
TAP	74	168	0
TAP	74	192	6
TAP	74	216	1
TAP	74	240	6
TAP	74	264	1
TAP	74	288	6
TAP	74	312	1
TAP	74	336	6
TAP	74	360	1
STR	75	0	7
SI_	75	0	7	96	96	4
SSL	75	0	7	96	96	3
BRK	75	288	1
BRK	75	288	5
TAP	76	0	3
TAP	76	0	7
TAP	76	96	4
TAP	76	96	6
STR	76	144	4
SI_	76	144	4	96	48	0
TAP	76	144	6
STR	76	240	7
SCL	76	240	7	96	48	4
STR	76	336	1
SI_	76	336	1	96	48	5
STR	77	48	3
SI_	77	48	3	96	48	6
STR	77	144	0
SI_	77	144	0	96	48	3
TAP	77	240	7
TAP	77	288	7
TAP	78	0	2
TAP	78	0	4
TAP	78	96	1
TAP	78	96	7
TAP	78	144	1
STR	78	144	7
SI_	78	144	7	96	48	3
STR	78	240	2
SCL	78	240	2	96	48	7
STR	78	336	4
SI_	78	336	4	96	48	0
STR	79	48	1
SI_	79	48	1	96	48	5
STR	79	144	6
SI_	79	144	6	96	48	2
STR	79	240	3
SCL	79	240	3	96	48	0
HLD	79	336	5	144
TAP	80	96	6
TAP	80	192	4
TAP	80	240	3
TAP	80	288	2
HLD	80	336	1	96
TAP	81	48	3
TAP	81	144	3
TAP	81	144	4
TAP	81	240	5
TAP	81	288	4
TAP	81	288	6
TAP	82	0	0
TAP	82	0	7
TAP	82	96	2
TAP	82	96	3
TAP	82	144	1
TAP	82	144	4
TAP	82	240	5
TAP	82	288	5
HLD	82	336	4	96
HLD	82	336	6	96
TAP	83	96	3
TAP	83	96	5
TAP	83	192	3
TAP	83	192	4
TAP	83	240	3
TAP	83	240	4
TAP	83	288	2
TAP	83	288	5
BRK	84	0	0
BRK	84	0	7
TAP	84	96	1
TAP	84	96	3
TAP	84	144	1
STR	84	144	3
SI_	84	144	3	96	48	7
STR	84	240	0
SCR	84	240	0	96	48	3
STR	84	336	6
SI_	84	336	6	96	48	2
STR	85	48	4
SI_	85	48	4	96	48	1
STR	85	144	7
SI_	85	144	7	96	48	4
TAP	85	240	0
TAP	85	288	0
TAP	86	0	3
TAP	86	0	5
TAP	86	96	0
TAP	86	96	6
STR	86	144	0
SI_	86	144	0	96	48	4
TAP	86	144	6
STR	86	240	5
SCR	86	240	5	96	48	0
STR	86	336	3
SI_	86	336	3	96	48	7
STR	87	48	6
SI_	87	48	6	96	48	2
STR	87	144	1
SI_	87	144	1	96	48	5
STR	87	240	4
SCR	87	240	4	96	48	7
TAP	87	336	2
HLD	88	0	2	96
TAP	88	96	1
TAP	88	192	3
TAP	88	240	4
TAP	88	288	5
HLD	88	336	6	144
TAP	89	48	4
TAP	89	96	4
TAP	89	192	2
TAP	89	240	3
TAP	89	288	4
HLD	89	336	5	96
TAP	90	48	4
TAP	90	96	4
TAP	90	96	5
TAP	90	192	6
TAP	90	240	6
TAP	90	288	1
TAP	90	336	1
TAP	91	0	7
TAP	91	24	0
TAP	91	48	7
TAP	91	72	0
TAP	91	96	7
TAP	91	120	0
TAP	91	144	7
TAP	91	168	0
TAP	91	192	7
BRK	91	288	1
BRK	91	288	6
TAP	92	0	3
TAP	92	0	5
TAP	92	96	0
TAP	92	96	7
STR	92	144	0
SCR	92	144	0	96	96	3
TAP	92	144	7
STR	92	240	3
SCR	92	240	3	96	96	6
STR	92	336	6
SCR	92	336	6	96	96	1
STR	93	48	1
SCR	93	48	1	96	96	4
TAP	93	144	5
TAP	93	240	7
TAP	93	288	7
TAP	94	0	2
TAP	94	0	4
TAP	94	96	0
TAP	94	96	7
TAP	94	144	0
STR	94	144	7
SCL	94	144	7	96	96	4
STR	94	240	4
SCL	94	240	4	96	96	1
STR	94	336	1
SCL	94	336	1	96	96	6
STR	95	48	6
SCL	95	48	6	96	96	3
TAP	95	144	2
TAP	95	240	0
HLD	95	336	2	144
TAP	96	96	1
TAP	96	192	3
TAP	96	240	4
TAP	96	288	5
HLD	96	336	6	96
TAP	97	48	4
TAP	97	144	3
TAP	97	144	4
TAP	97	240	2
TAP	97	240	3
TAP	97	288	1
TAP	97	288	4
TAP	98	0	3
TAP	98	0	7
TAP	98	96	0
TAP	98	96	1
TAP	98	144	2
TAP	98	144	7
TAP	98	240	6
TAP	98	288	6
HLD	98	336	5	96
HLD	98	336	7	96
TAP	99	96	0
TAP	99	96	6
TAP	99	192	3
TAP	99	192	4
TAP	99	240	3
TAP	99	240	4
TAP	99	288	2
TAP	99	288	5
BRK	100	0	0
BRK	100	0	7
TAP	100	96	1
TAP	100	120	0
TAP	100	144	1
TAP	100	192	6
TAP	100	216	7
TAP	100	240	6
TAP	100	288	1
TAP	100	312	0
TAP	100	336	1
TAP	101	0	6
TAP	101	24	7
TAP	101	48	6
TAP	101	96	1
TAP	101	120	0
TAP	101	144	1
TAP	101	192	6
TAP	101	216	7
TAP	101	240	6
TAP	101	288	1
TAP	101	312	0
TAP	101	336	1
BRK	102	0	2
BRK	102	0	7
TAP	102	96	6
TAP	102	120	7
TAP	102	144	6
TAP	102	192	1
TAP	102	216	0
TAP	102	240	1
TAP	102	288	2
TAP	102	288	7
TAP	102	336	2
HLD	102	336	7	96
HLD	103	48	5	96
HLD	103	144	3	96
HLD	103	240	1	96
TAP	103	336	7
HLD	104	0	7	96
TAP	104	96	5
TAP	104	192	3
TAP	104	240	4
TAP	104	288	5
HLD	104	336	6	144
TAP	105	48	4
TAP	105	96	4
TAP	105	192	2
TAP	105	240	3
TAP	105	288	4
HLD	105	336	5	96
TAP	106	48	4
TAP	106	96	4
TAP	106	96	5
TAP	106	192	0
TAP	106	192	7
TAP	106	240	0
TAP	106	240	7
TAP	106	288	1
TAP	106	288	6
TAP	106	336	1
TAP	106	336	6
TAP	107	0	7
TAP	107	24	0
TAP	107	48	7
TAP	107	72	0
TAP	107	96	7
TAP	107	120	0
TAP	107	144	7
TAP	107	168	0
TAP	107	192	7
TAP	107	216	6
TAP	107	240	5
TAP	107	264	4
TAP	107	288	3
TAP	107	312	2
TAP	107	336	1
TAP	107	360	0
TAP	108	0	7
BST	108	96	2
SXR	108	96	2	96	768	4
BST	108	96	6
SXR	108	96	6	96	768	0

T_REC_TAP	498
T_REC_BRK	20
T_REC_XTP	0
T_REC_HLD	73
T_REC_XHO	0
T_REC_STR	61
T_REC_BST	3
T_REC_XST	0
T_REC_TTP	0
T_REC_THO	0
T_REC_SLD	65
T_REC_ALL	720
T_NUM_TAP	559
T_NUM_BRK	23
T_NUM_HLD	73
T_NUM_SLD	65
T_NUM_ALL	720
T_JUDGE_TAP	582
T_JUDGE_HLD	201
T_JUDGE_SLD	65
T_JUDGE_ALL	848
TTM_EACHPAIRS	135
TTM_SCR_TAP	279500
TTM_SCR_BRK	59800
TTM_SCR_HLD	73000
TTM_SCR_SLD	97500
TTM_SCR_ALL	509800
TTM_SCR_S	492300
TTM_SCR_SS	507500
TTM_RAT_ACV	10045

